找回密码
 立即注册

QQ登录

只需一步,快速开始

查看: 141|回复: 0

[动作片] 天启四骑士:世界末日 4.Horsemen.Apocalypse.2022.1080p.BluRay.x264-UNVEiL 8.77GB

[复制链接]

0

精华

0

好友

2

听众

新手上路

Rank: 2

蓝光币
5
发表于 2022-9-22 07:03:17 | 显示全部楼层 |阅读模式
[img][/img]

◎标  题 天启四骑士:世界末日
◎译  名 四个马人:启示录
◎片  名 4 Horsemen: Apocalypse
◎年  代 2022
◎产  地 美国
◎类  别 动作 / 科幻 / 惊悚
◎语  言 英语
◎上映日期 2022-04-29(美国)
◎IMDb评分 1.8/10 (130人评价)
◎IMDb链接 https://www.imdb.com/title/tt19766560/
◎豆瓣链接 https://movie.douban.com/subject/35878176/
◎导  演 吉奥夫·米德 Geoff Meed
◎编  剧 吉奥夫·米德 Geoff Meed
◎演  员 Eva Ceja Eva Ceja
◎简  介

  一组科学家必须与时间赛跑,以阻止一系列似乎预示着可能的灾难的全球性灾难。
  1. Video
  2. ID                                       : 1
  3. Format                                   : AVC
  4. Format/Info                              : Advanced Video Codec
  5. Format profile                           : [email protected]
  6. Format settings                          : CABAC / 5 Ref Frames
  7. Format settings, CABAC                   : Yes
  8. Format settings, Reference frames        : 5 frames
  9. Codec ID                                 : V_MPEG4/ISO/AVC
  10. Duration                                 : 1 h 25 min
  11. Bit rate                                 : 11.1 Mb/s
  12. Width                                    : 1 920 pixels
  13. Height                                   : 804 pixels
  14. Display aspect ratio                     : 2.40:1
  15. Frame rate mode                          : Constant
  16. Frame rate                               : 23.976 (24000/1001/189150) FPS
  17. Color space                              : YUV
  18. Chroma subsampling                       : 4:2:0
  19. Bit depth                                : 8 bits
  20. Scan type                                : Progressive
  21. Bits/(Pixel*Frame)                       : 0.300
  22. Stream size                              : 6.62 GiB (75%)
  23. Writing library                          : x264 core 164 r3095 baee400
  24. Encoding settings                        : cabac=1 / ref=5 / deblock=1:-3:-3 / analyse=0x3:0x133 / me=umh / subme=9 / psy=1 / psy_rd=1.00:0.00 / mixed_ref=1 / me_range=16 / chroma_me=1 / trellis=2 / 8x8dct=1 / cqm=0 / deadzone=21,11 / fast_pskip=0 / chroma_qp_offset=-2 / threads=25 / lookahead_threads=2 / sliced_threads=0 / nr=0 / decimate=1 / interlaced=0 / bluray_compat=0 / constrained_intra=0 / bframes=3 / b_pyramid=2 / b_adapt=2 / b_bias=0 / direct=3 / weightb=1 / open_gop=0 / weightp=2 / keyint=250 / keyint_min=23 / scenecut=40 / intra_refresh=0 / rc_lookahead=60 / rc=crf / mbtree=1 / crf=17.0 / qcomp=0.60 / qpmin=0 / qpmax=69 / qpstep=4 / ip_ratio=1.40 / aq=1:1.00
  25. Language                                 : English
  26. Default                                  : Yes
  27. Forced                                   : No

  28. Audio
  29. ID                                       : 2
  30. Format                                   : DTS XLL
  31. Format/Info                              : Digital Theater Systems
  32. Commercial name                          : DTS-HD Master Audio
  33. Codec ID                                 : A_DTS
  34. Duration                                 : 1 h 25 min
  35. Bit rate mode                            : Variable
  36. Bit rate                                 : 3 620 kb/s
  37. Channel(s)                               : 6 channels
  38. Channel layout                           : C L R Ls Rs LFE
  39. Sampling rate                            : 48.0 kHz
  40. Frame rate                               : 93.750 FPS (512 SPF)
  41. Bit depth                                : 24 bits
  42. Compression mode                         : Lossless
  43. Stream size                              : 2.16 GiB (25%)
  44. Language                                 : English
  45. Default                                  : Yes
  46. Forced                                   : No

  47. Text #1
  48. ID                                       : 3
  49. Format                                   : UTF-8
  50. Codec ID                                 : S_TEXT/UTF8
  51. Codec ID/Info                            : UTF-8 Plain Text
  52. Duration                                 : 58 min 26 s
  53. Bit rate                                 : 0 b/s
  54. Count of elements                        : 17
  55. Stream size                              : 382 Bytes (0%)
  56. Language                                 : English
  57. Default                                  : Yes
  58. Forced                                   : Yes

  59. Text #2
  60. ID                                       : 4
  61. Format                                   : PGS
  62. Muxing mode                              : zlib
  63. Codec ID                                 : S_HDMV/PGS
  64. Codec ID/Info                            : Picture based subtitle format used on BDs/HD-DVDs
  65. Duration                                 : 58 min 26 s
  66. Bit rate                                 : 460 b/s
  67. Count of elements                        : 34
  68. Stream size                              : 197 KiB (0%)
  69. Language                                 : English
  70. Default                                  : No
  71. Forced                                   : No

  72. Text #3
  73. ID                                       : 5
  74. Format                                   : PGS
  75. Muxing mode                              : zlib
  76. Codec ID                                 : S_HDMV/PGS
  77. Codec ID/Info                            : Picture based subtitle format used on BDs/HD-DVDs
  78. Duration                                 : 59 min 25 s
  79. Bit rate                                 : 894 b/s
  80. Count of elements                        : 52
  81. Stream size                              : 389 KiB (0%)
  82. Language                                 : German
  83. Default                                  : No
  84. Forced                                   : No

  85. Menu
  86. 00:00:00.000                             : en:Chapter 01
  87. 00:09:43.500                             : en:Chapter 02
  88. 00:19:45.476                             : en:Chapter 03
  89. 00:30:15.230                             : en:Chapter 04
  90. 00:39:38.626                             : en:Chapter 05
  91. 00:50:27.024                             : en:Chapter 06
  92. 00:59:36.323                             : en:Chapter 07
  93. 01:07:25.625                             : en:Chapter 08
  94. 01:17:55.880                             : en:Chapter 09
复制代码




                                       
                                       

                                       
                                       
                                       




4.Horsemen.Apocalypse.2022.1080p.BluRay.x264-UNVEiL.torrent (22.7 KB, 下载次数: 0)
回复

使用道具 举报

您需要登录后才可以回帖 登录 | 立即注册

本版积分规则

QQ|Archiver|手机版|小黑屋|蓝光电影网

GMT+8, 2022-12-1 22:27 , Processed in 0.051804 second(s), 28 queries .

Powered by Discuz! X3.4

Copyright © 2001-2020, Tencent Cloud.

快速回复 返回顶部 返回列表