找回密码
 立即注册

QQ登录

只需一步,快速开始

查看: 421|回复: 1

[其他] 西线无战事 All.Quiet.on.the.Western.Front.2022.GERMAN.2160p.NF.WEB-DL.x265.10bit.HDR.DDP5.1.Atmos-APEX 13.93GB

[复制链接]

0

精华

0

好友

2

听众

实习版主

Rank: 7Rank: 7Rank: 7

蓝光币
5
发表于 2023-4-28 12:57:07 | 显示全部楼层 |阅读模式
[img][/img]

◎标  题 西线无战事
◎译  名 新西线无战事 / All Quiet on the Western Front
◎片  名 Im Westen nichts Neues
◎年  代 2022
◎产  地 德国 / 美国
◎类  别 剧情 / 动作 / 战争
◎语  言 英语 / 德语
◎上映日期 2022-09-12(多伦多电影节) / 2022-09-29(德国) / 2022-10-28(德国网络)
◎IMDb评分 8.1/10 (1144人评价)
◎IMDb链接 https://www.imdb.com/title/tt1016150/
◎豆瓣评分 8.7/10 (217人评价)
◎豆瓣链接 https://movie.douban.com/subject/3042261/
◎片  长 148分钟
◎导  演 爱德华·贝尔格 Edward Berger
◎编  剧 伊恩·斯托克尔 Ian Stokell
       爱德华·贝尔格 Edward Berger
       埃里希·玛利亚·雷马克 Erich Maria Remarque
◎演  员 费利克斯·卡米勒 Felix Kammerer
       阿尔布雷希特·舒赫 Albrecht Schuch
       亚伦·希尔默 Aaron Hilmer
       丹尼尔·布鲁赫 Daniel Brühl
       塞巴斯蒂安·胡克 Sebastian Hülk
       安东·范·卢克 Anton von Lucke
       大卫·史崔梭德 Devid Striesow
       埃丁·哈萨诺维奇 Edin Hasanović
       乔·温特劳布 Joe Weintraub
       吕克·费特 Luc Feit
       米夏埃尔·维滕博恩 Michael Wittenborn
       安德烈·马尔孔 André Marcon
       Tobias Langhoff Tobias Langhoff
       阿德里安·格鲁内瓦尔德 Adrian Grünewald
       菲利克斯·冯·布雷多 Felix von Bredow
       迈克尔·斯坦格 Michael Stange
        Moritz Klaus
       伊恩·斯托克尔 Ian Stokell
       利西·克里斯特尔 Lisy Christl
◎简  介

  该片改编自埃里希·玛利亚·雷马克撰写的同名经典小说,讲述在第一次世界大战期间,保罗·鲍曼和同学莱尔、米勒参加了德国国民志愿兵,被派往前线与法军作战。在战场上,他们目睹到了残酷的饥饿、血腥和死亡,战争的荒谬无情让保罗从迷恋战争到心灰意冷。
  1. Video
  2. ID                                       : 1
  3. Format                                   : HEVC
  4. Format/Info                              : High Efficiency Video Coding
  5. Format profile                           : Main [email protected]@Main
  6. HDR format                               : Dolby Vision, Version 1.0, dvhe.08.06, BL+RPU, HDR10 compatible / SMPTE ST 2086, HDR10 compatible
  7. Codec ID                                 : V_MPEGH/ISO/HEVC
  8. Duration                                 : 2 h 27 min
  9. Bit rate                                 : 12.1 Mb/s
  10. Width                                    : 3 840 pixels
  11. Height                                   : 2 160 pixels
  12. Display aspect ratio                     : 16:9
  13. Frame rate mode                          : Constant
  14. Frame rate                               : 24.000 FPS
  15. Color space                              : YUV
  16. Chroma subsampling                       : 4:2:0 (Type 2)
  17. Bit depth                                : 10 bits
  18. Bits/(Pixel*Frame)                       : 0.061
  19. Stream size                              : 12.5 GiB (89%)
  20. Default                                  : Yes
  21. Forced                                   : No
  22. Color range                              : Limited
  23. Color primaries                          : BT.2020
  24. Transfer characteristics                 : PQ
  25. Matrix coefficients                      : BT.2020 non-constant
  26. Mastering display color primaries        : Display P3
  27. Mastering display luminance              : min: 0.0001 cd/m2, max: 1000 cd/m2
  28. Maximum Content Light Level              : 1000 cd/m2
  29. Maximum Frame-Average Light Level        : 478 cd/m2

  30. Audio #1
  31. ID                                       : 2
  32. Format                                   : E-AC-3 JOC
  33. Format/Info                              : Enhanced AC-3 with Joint Object Coding
  34. Commercial name                          : Dolby Digital Plus with Dolby Atmos
  35. Codec ID                                 : A_EAC3
  36. Duration                                 : 2 h 28 min
  37. Bit rate mode                            : Constant
  38. Bit rate                                 : 768 kb/s
  39. Channel(s)                               : 6 channels
  40. Channel layout                           : L R C LFE Ls Rs
  41. Sampling rate                            : 48.0 kHz
  42. Frame rate                               : 31.250 FPS (1536 SPF)
  43. Compression mode                         : Lossy
  44. Stream size                              : 817 MiB (6%)
  45. Language                                 : German
  46. Service kind                             : Complete Main
  47. Default                                  : Yes
  48. Forced                                   : No
  49. Complexity index                         : 16
  50. Number of dynamic objects                : 15
  51. Bed channel count                        : 1 channel
  52. Bed channel configuration                : LFE

  53. Audio #2
  54. ID                                       : 3
  55. Format                                   : E-AC-3
  56. Format/Info                              : Enhanced AC-3
  57. Commercial name                          : Dolby Digital Plus
  58. Codec ID                                 : A_EAC3
  59. Duration                                 : 2 h 28 min
  60. Bit rate mode                            : Constant
  61. Bit rate                                 : 640 kb/s
  62. Channel(s)                               : 6 channels
  63. Channel layout                           : L R C LFE Ls Rs
  64. Sampling rate                            : 48.0 kHz
  65. Frame rate                               : 31.250 FPS (1536 SPF)
  66. Compression mode                         : Lossy
  67. Stream size                              : 681 MiB (5%)
  68. Language                                 : English
  69. Service kind                             : Complete Main
  70. Default                                  : No
  71. Forced                                   : No

  72. Text #1
  73. ID                                       : 4
  74. Format                                   : UTF-8
  75. Codec ID                                 : S_TEXT/UTF8
  76. Codec ID/Info                            : UTF-8 Plain Text
  77. Duration                                 : 1 h 50 min
  78. Bit rate                                 : 1 b/s
  79. Frame rate                               : 0.008 FPS
  80. Count of elements                        : 54
  81. Stream size                              : 1.14 KiB (0%)
  82. Title                                    : Forced
  83. Language                                 : German
  84. Default                                  : Yes
  85. Forced                                   : Yes

  86. Text #2
  87. ID                                       : 5
  88. Format                                   : UTF-8
  89. Codec ID                                 : S_TEXT/UTF8
  90. Codec ID/Info                            : UTF-8 Plain Text
  91. Duration                                 : 2 h 19 min
  92. Bit rate                                 : 37 b/s
  93. Frame rate                               : 0.161 FPS
  94. Count of elements                        : 1341
  95. Stream size                              : 38.2 KiB (0%)
  96. Title                                    : SDH
  97. Language                                 : German
  98. Default                                  : No
  99. Forced                                   : No

  100. Text #3
  101. ID                                       : 6
  102. Format                                   : UTF-8
  103. Codec ID                                 : S_TEXT/UTF8
  104. Codec ID/Info                            : UTF-8 Plain Text
  105. Duration                                 : 2 h 26 min
  106. Bit rate                                 : 44 b/s
  107. Frame rate                               : 0.119 FPS
  108. Count of elements                        : 1047
  109. Stream size                              : 47.4 KiB (0%)
  110. Language                                 : Arabic
  111. Default                                  : No
  112. Forced                                   : No

  113. Text #4
  114. ID                                       : 7
  115. Format                                   : UTF-8
  116. Codec ID                                 : S_TEXT/UTF8
  117. Codec ID/Info                            : UTF-8 Plain Text
  118. Duration                                 : 2 h 26 min
  119. Bit rate                                 : 22 b/s
  120. Frame rate                               : 0.119 FPS
  121. Count of elements                        : 1048
  122. Stream size                              : 24.5 KiB (0%)
  123. Language                                 : Catalan
  124. Default                                  : No
  125. Forced                                   : No

  126. Text #5
  127. ID                                       : 8
  128. Format                                   : UTF-8
  129. Codec ID                                 : S_TEXT/UTF8
  130. Codec ID/Info                            : UTF-8 Plain Text
  131. Duration                                 : 2 h 19 min
  132. Bit rate                                 : 39 b/s
  133. Frame rate                               : 0.161 FPS
  134. Count of elements                        : 1347
  135. Stream size                              : 39.9 KiB (0%)
  136. Title                                    : SDH
  137. Language                                 : Czech
  138. Default                                  : No
  139. Forced                                   : No

  140. Text #6
  141. ID                                       : 9
  142. Format                                   : UTF-8
  143. Codec ID                                 : S_TEXT/UTF8
  144. Codec ID/Info                            : UTF-8 Plain Text
  145. Duration                                 : 2 h 17 min
  146. Bit rate                                 : 25 b/s
  147. Frame rate                               : 0.116 FPS
  148. Count of elements                        : 956
  149. Stream size                              : 26.2 KiB (0%)
  150. Language                                 : Czech
  151. Default                                  : No
  152. Forced                                   : No

  153. Text #7
  154. ID                                       : 10
  155. Format                                   : UTF-8
  156. Codec ID                                 : S_TEXT/UTF8
  157. Codec ID/Info                            : UTF-8 Plain Text
  158. Duration                                 : 2 h 23 min
  159. Bit rate                                 : 23 b/s
  160. Frame rate                               : 0.119 FPS
  161. Count of elements                        : 1027
  162. Stream size                              : 25.0 KiB (0%)
  163. Language                                 : Czech
  164. Default                                  : No
  165. Forced                                   : No

  166. Text #8
  167. ID                                       : 11
  168. Format                                   : UTF-8
  169. Codec ID                                 : S_TEXT/UTF8
  170. Codec ID/Info                            : UTF-8 Plain Text
  171. Duration                                 : 2 h 23 min
  172. Bit rate                                 : 23 b/s
  173. Frame rate                               : 0.116 FPS
  174. Count of elements                        : 1004
  175. Stream size                              : 24.5 KiB (0%)
  176. Language                                 : Danish
  177. Default                                  : No
  178. Forced                                   : No

  179. Text #9
  180. ID                                       : 12
  181. Format                                   : UTF-8
  182. Codec ID                                 : S_TEXT/UTF8
  183. Codec ID/Info                            : UTF-8 Plain Text
  184. Duration                                 : 2 h 26 min
  185. Bit rate                                 : 41 b/s
  186. Frame rate                               : 0.121 FPS
  187. Count of elements                        : 1067
  188. Stream size                              : 44.1 KiB (0%)
  189. Language                                 : Greek
  190. Default                                  : No
  191. Forced                                   : No

  192. Text #10
  193. ID                                       : 13
  194. Format                                   : UTF-8
  195. Codec ID                                 : S_TEXT/UTF8
  196. Codec ID/Info                            : UTF-8 Plain Text
  197. Duration                                 : 2 h 15 min
  198. Bit rate                                 : 2 b/s
  199. Frame rate                               : 0.011 FPS
  200. Count of elements                        : 92
  201. Stream size                              : 2.21 KiB (0%)
  202. Title                                    : Forced
  203. Language                                 : English
  204. Default                                  : No
  205. Forced                                   : Yes

  206. Text #11
  207. ID                                       : 14
  208. Format                                   : UTF-8
  209. Codec ID                                 : S_TEXT/UTF8
  210. Codec ID/Info                            : UTF-8 Plain Text
  211. Duration                                 : 2 h 17 min
  212. Bit rate                                 : 30 b/s
  213. Frame rate                               : 0.140 FPS
  214. Count of elements                        : 1152
  215. Stream size                              : 31.1 KiB (0%)
  216. Language                                 : English
  217. Default                                  : No
  218. Forced                                   : No

  219. Text #12
  220. ID                                       : 15
  221. Format                                   : UTF-8
  222. Codec ID                                 : S_TEXT/UTF8
  223. Codec ID/Info                            : UTF-8 Plain Text
  224. Duration                                 : 2 h 21 min
  225. Bit rate                                 : 38 b/s
  226. Frame rate                               : 0.172 FPS
  227. Count of elements                        : 1461
  228. Stream size                              : 39.5 KiB (0%)
  229. Title                                    : SDH
  230. Language                                 : English
  231. Default                                  : No
  232. Forced                                   : No

  233. Text #13
  234. ID                                       : 16
  235. Format                                   : UTF-8
  236. Codec ID                                 : S_TEXT/UTF8
  237. Codec ID/Info                            : UTF-8 Plain Text
  238. Duration                                 : 2 h 17 min
  239. Bit rate                                 : 30 b/s
  240. Frame rate                               : 0.138 FPS
  241. Count of elements                        : 1138
  242. Stream size                              : 30.5 KiB (0%)
  243. Language                                 : English
  244. Default                                  : No
  245. Forced                                   : No

  246. Text #14
  247. ID                                       : 17
  248. Format                                   : UTF-8
  249. Codec ID                                 : S_TEXT/UTF8
  250. Codec ID/Info                            : UTF-8 Plain Text
  251. Duration                                 : 2 h 23 min
  252. Bit rate                                 : 25 b/s
  253. Frame rate                               : 0.122 FPS
  254. Count of elements                        : 1049
  255. Stream size                              : 26.9 KiB (0%)
  256. Language                                 : English
  257. Default                                  : No
  258. Forced                                   : No

  259. Text #15
  260. ID                                       : 18
  261. Format                                   : UTF-8
  262. Codec ID                                 : S_TEXT/UTF8
  263. Codec ID/Info                            : UTF-8 Plain Text
  264. Duration                                 : 2 h 20 min
  265. Bit rate                                 : 32 b/s
  266. Frame rate                               : 0.154 FPS
  267. Count of elements                        : 1296
  268. Stream size                              : 33.6 KiB (0%)
  269. Title                                    : SDH
  270. Language                                 : Spanish
  271. Default                                  : No
  272. Forced                                   : No

  273. Text #16
  274. ID                                       : 19
  275. Format                                   : UTF-8
  276. Codec ID                                 : S_TEXT/UTF8
  277. Codec ID/Info                            : UTF-8 Plain Text
  278. Duration                                 : 2 h 20 min
  279. Bit rate                                 : 25 b/s
  280. Frame rate                               : 0.123 FPS
  281. Count of elements                        : 1034
  282. Stream size                              : 26.4 KiB (0%)
  283. Language                                 : Spanish
  284. Default                                  : No
  285. Forced                                   : No

  286. Text #17
  287. ID                                       : 20
  288. Format                                   : UTF-8
  289. Codec ID                                 : S_TEXT/UTF8
  290. Codec ID/Info                            : UTF-8 Plain Text
  291. Duration                                 : 2 h 23 min
  292. Bit rate                                 : 24 b/s
  293. Frame rate                               : 0.117 FPS
  294. Count of elements                        : 1009
  295. Stream size                              : 26.1 KiB (0%)
  296. Language                                 : Spanish
  297. Default                                  : No
  298. Forced                                   : No

  299. Text #18
  300. ID                                       : 21
  301. Format                                   : UTF-8
  302. Codec ID                                 : S_TEXT/UTF8
  303. Codec ID/Info                            : UTF-8 Plain Text
  304. Duration                                 : 2 h 23 min
  305. Bit rate                                 : 25 b/s
  306. Frame rate                               : 0.120 FPS
  307. Count of elements                        : 1039
  308. Stream size                              : 27.2 KiB (0%)
  309. Title                                    : European
  310. Language                                 : Spanish
  311. Default                                  : No
  312. Forced                                   : No

  313. Text #19
  314. ID                                       : 22
  315. Format                                   : UTF-8
  316. Codec ID                                 : S_TEXT/UTF8
  317. Codec ID/Info                            : UTF-8 Plain Text
  318. Duration                                 : 2 h 26 min
  319. Bit rate                                 : 25 b/s
  320. Frame rate                               : 0.119 FPS
  321. Count of elements                        : 1050
  322. Stream size                              : 27.3 KiB (0%)
  323. Language                                 : Basque
  324. Default                                  : No
  325. Forced                                   : No

  326. Text #20
  327. ID                                       : 23
  328. Format                                   : UTF-8
  329. Codec ID                                 : S_TEXT/UTF8
  330. Codec ID/Info                            : UTF-8 Plain Text
  331. Duration                                 : 2 h 23 min
  332. Bit rate                                 : 21 b/s
  333. Frame rate                               : 0.101 FPS
  334. Count of elements                        : 872
  335. Stream size                              : 23.1 KiB (0%)
  336. Language                                 : Finnish
  337. Default                                  : No
  338. Forced                                   : No

  339. Text #21
  340. ID                                       : 24
  341. Format                                   : UTF-8
  342. Codec ID                                 : S_TEXT/UTF8
  343. Codec ID/Info                            : UTF-8 Plain Text
  344. Duration                                 : 2 h 26 min
  345. Bit rate                                 : 25 b/s
  346. Frame rate                               : 0.120 FPS
  347. Count of elements                        : 1053
  348. Stream size                              : 27.9 KiB (0%)
  349. Language                                 : fil
  350. Default                                  : No
  351. Forced                                   : No

  352. Text #22
  353. ID                                       : 25
  354. Format                                   : UTF-8
  355. Codec ID                                 : S_TEXT/UTF8
  356. Codec ID/Info                            : UTF-8 Plain Text
  357. Duration                                 : 2 h 23 min
  358. Bit rate                                 : 24 b/s
  359. Frame rate                               : 0.113 FPS
  360. Count of elements                        : 975
  361. Stream size                              : 25.4 KiB (0%)
  362. Language                                 : French
  363. Default                                  : No
  364. Forced                                   : No

  365. Text #23
  366. ID                                       : 26
  367. Format                                   : UTF-8
  368. Codec ID                                 : S_TEXT/UTF8
  369. Codec ID/Info                            : UTF-8 Plain Text
  370. Duration                                 : 2 h 26 min
  371. Bit rate                                 : 23 b/s
  372. Frame rate                               : 0.119 FPS
  373. Count of elements                        : 1047
  374. Stream size                              : 24.9 KiB (0%)
  375. Language                                 : Galician
  376. Default                                  : No
  377. Forced                                   : No

  378. Text #24
  379. ID                                       : 27
  380. Format                                   : UTF-8
  381. Codec ID                                 : S_TEXT/UTF8
  382. Codec ID/Info                            : UTF-8 Plain Text
  383. Duration                                 : 2 h 23 min
  384. Bit rate                                 : 40 b/s
  385. Frame rate                               : 0.122 FPS
  386. Count of elements                        : 1053
  387. Stream size                              : 42.3 KiB (0%)
  388. Language                                 : Hebrew
  389. Default                                  : No
  390. Forced                                   : No

  391. Text #25
  392. ID                                       : 28
  393. Format                                   : UTF-8
  394. Codec ID                                 : S_TEXT/UTF8
  395. Codec ID/Info                            : UTF-8 Plain Text
  396. Duration                                 : 2 h 23 min
  397. Bit rate                                 : 22 b/s
  398. Frame rate                               : 0.119 FPS
  399. Count of elements                        : 1030
  400. Stream size                              : 23.2 KiB (0%)
  401. Language                                 : Croatian
  402. Default                                  : No
  403. Forced                                   : No

  404. Text #26
  405. ID                                       : 29
  406. Format                                   : UTF-8
  407. Codec ID                                 : S_TEXT/UTF8
  408. Codec ID/Info                            : UTF-8 Plain Text
  409. Duration                                 : 2 h 26 min
  410. Bit rate                                 : 25 b/s
  411. Frame rate                               : 0.116 FPS
  412. Count of elements                        : 1018
  413. Stream size                              : 26.9 KiB (0%)
  414. Language                                 : Hungarian
  415. Default                                  : No
  416. Forced                                   : No

  417. Text #27
  418. ID                                       : 30
  419. Format                                   : UTF-8
  420. Codec ID                                 : S_TEXT/UTF8
  421. Codec ID/Info                            : UTF-8 Plain Text
  422. Duration                                 : 2 h 23 min
  423. Bit rate                                 : 25 b/s
  424. Frame rate                               : 0.122 FPS
  425. Count of elements                        : 1053
  426. Stream size                              : 26.4 KiB (0%)
  427. Language                                 : Indonesian
  428. Default                                  : No
  429. Forced                                   : No

  430. Text #28
  431. ID                                       : 31
  432. Format                                   : UTF-8
  433. Codec ID                                 : S_TEXT/UTF8
  434. Codec ID/Info                            : UTF-8 Plain Text
  435. Duration                                 : 2 h 23 min
  436. Bit rate                                 : 23 b/s
  437. Frame rate                               : 0.120 FPS
  438. Count of elements                        : 1033
  439. Stream size                              : 25.1 KiB (0%)
  440. Language                                 : Italian
  441. Default                                  : No
  442. Forced                                   : No

  443. Text #29
  444. ID                                       : 32
  445. Format                                   : UTF-8
  446. Codec ID                                 : S_TEXT/UTF8
  447. Codec ID/Info                            : UTF-8 Plain Text
  448. Duration                                 : 2 h 23 min
  449. Bit rate                                 : 25 b/s
  450. Frame rate                               : 0.111 FPS
  451. Count of elements                        : 955
  452. Stream size                              : 26.6 KiB (0%)
  453. Language                                 : Japanese
  454. Default                                  : No
  455. Forced                                   : No

  456. Text #30
  457. ID                                       : 33
  458. Format                                   : UTF-8
  459. Codec ID                                 : S_TEXT/UTF8
  460. Codec ID/Info                            : UTF-8 Plain Text
  461. Duration                                 : 2 h 26 min
  462. Bit rate                                 : 31 b/s
  463. Frame rate                               : 0.120 FPS
  464. Count of elements                        : 1060
  465. Stream size                              : 33.8 KiB (0%)
  466. Language                                 : Korean
  467. Default                                  : No
  468. Forced                                   : No

  469. Text #31
  470. ID                                       : 34
  471. Format                                   : UTF-8
  472. Codec ID                                 : S_TEXT/UTF8
  473. Codec ID/Info                            : UTF-8 Plain Text
  474. Duration                                 : 2 h 26 min
  475. Bit rate                                 : 23 b/s
  476. Frame rate                               : 0.120 FPS
  477. Count of elements                        : 1052
  478. Stream size                              : 25.0 KiB (0%)
  479. Language                                 : Malay
  480. Default                                  : No
  481. Forced                                   : No

  482. Text #32
  483. ID                                       : 35
  484. Format                                   : UTF-8
  485. Codec ID                                 : S_TEXT/UTF8
  486. Codec ID/Info                            : UTF-8 Plain Text
  487. Duration                                 : 2 h 23 min
  488. Bit rate                                 : 22 b/s
  489. Frame rate                               : 0.121 FPS
  490. Count of elements                        : 1045
  491. Stream size                              : 24.0 KiB (0%)
  492. Language                                 : Norwegian Bokmal
  493. Default                                  : No
  494. Forced                                   : No

  495. Text #33
  496. ID                                       : 36
  497. Format                                   : UTF-8
  498. Codec ID                                 : S_TEXT/UTF8
  499. Codec ID/Info                            : UTF-8 Plain Text
  500. Duration                                 : 2 h 23 min
  501. Bit rate                                 : 22 b/s
  502. Frame rate                               : 0.110 FPS
  503. Count of elements                        : 952
  504. Stream size                              : 23.7 KiB (0%)
  505. Language                                 : Dutch
  506. Default                                  : No
  507. Forced                                   : No

  508. Text #34
  509. ID                                       : 37
  510. Format                                   : UTF-8
  511. Codec ID                                 : S_TEXT/UTF8
  512. Codec ID/Info                            : UTF-8 Plain Text
  513. Duration                                 : 2 h 26 min
  514. Bit rate                                 : 20 b/s
  515. Frame rate                               : 0.108 FPS
  516. Count of elements                        : 950
  517. Stream size                              : 22.2 KiB (0%)
  518. Language                                 : Polish
  519. Default                                  : No
  520. Forced                                   : No

  521. Text #35
  522. ID                                       : 38
  523. Format                                   : UTF-8
  524. Codec ID                                 : S_TEXT/UTF8
  525. Codec ID/Info                            : UTF-8 Plain Text
  526. Duration                                 : 2 h 23 min
  527. Bit rate                                 : 24 b/s
  528. Frame rate                               : 0.120 FPS
  529. Count of elements                        : 1036
  530. Stream size                              : 26.0 KiB (0%)
  531. Language                                 : Portuguese
  532. Default                                  : No
  533. Forced                                   : No

  534. Text #36
  535. ID                                       : 39
  536. Format                                   : UTF-8
  537. Codec ID                                 : S_TEXT/UTF8
  538. Codec ID/Info                            : UTF-8 Plain Text
  539. Duration                                 : 2 h 23 min
  540. Bit rate                                 : 25 b/s
  541. Frame rate                               : 0.121 FPS
  542. Count of elements                        : 1047
  543. Stream size                              : 26.8 KiB (0%)
  544. Title                                    : Brazilian
  545. Language                                 : Portuguese
  546. Default                                  : No
  547. Forced                                   : No

  548. Text #37
  549. ID                                       : 40
  550. Format                                   : UTF-8
  551. Codec ID                                 : S_TEXT/UTF8
  552. Codec ID/Info                            : UTF-8 Plain Text
  553. Duration                                 : 2 h 23 min
  554. Bit rate                                 : 28 b/s
  555. Frame rate                               : 0.117 FPS
  556. Count of elements                        : 1014
  557. Stream size                              : 30.5 KiB (0%)
  558. Language                                 : Romanian
  559. Default                                  : No
  560. Forced                                   : No

  561. Text #38
  562. ID                                       : 41
  563. Format                                   : UTF-8
  564. Codec ID                                 : S_TEXT/UTF8
  565. Codec ID/Info                            : UTF-8 Plain Text
  566. Duration                                 : 2 h 26 min
  567. Bit rate                                 : 38 b/s
  568. Frame rate                               : 0.117 FPS
  569. Count of elements                        : 1028
  570. Stream size                              : 41.0 KiB (0%)
  571. Language                                 : Russian
  572. Default                                  : No
  573. Forced                                   : No

  574. Text #39
  575. ID                                       : 42
  576. Format                                   : UTF-8
  577. Codec ID                                 : S_TEXT/UTF8
  578. Codec ID/Info                            : UTF-8 Plain Text
  579. Duration                                 : 2 h 23 min
  580. Bit rate                                 : 25 b/s
  581. Frame rate                               : 0.107 FPS
  582. Count of elements                        : 922
  583. Stream size                              : 26.4 KiB (0%)
  584. Language                                 : Swedish
  585. Default                                  : No
  586. Forced                                   : No

  587. Text #40
  588. ID                                       : 43
  589. Format                                   : UTF-8
  590. Codec ID                                 : S_TEXT/UTF8
  591. Codec ID/Info                            : UTF-8 Plain Text
  592. Duration                                 : 2 h 26 min
  593. Bit rate                                 : 65 b/s
  594. Frame rate                               : 0.120 FPS
  595. Count of elements                        : 1059
  596. Stream size                              : 70.6 KiB (0%)
  597. Language                                 : Thai
  598. Default                                  : No
  599. Forced                                   : No

  600. Text #41
  601. ID                                       : 44
  602. Format                                   : UTF-8
  603. Codec ID                                 : S_TEXT/UTF8
  604. Codec ID/Info                            : UTF-8 Plain Text
  605. Duration                                 : 2 h 26 min
  606. Bit rate                                 : 43 b/s
  607. Frame rate                               : 0.193 FPS
  608. Count of elements                        : 1696
  609. Stream size                              : 47.0 KiB (0%)
  610. Title                                    : SDH
  611. Language                                 : Turkish
  612. Default                                  : No
  613. Forced                                   : No

  614. Text #42
  615. ID                                       : 45
  616. Format                                   : UTF-8
  617. Codec ID                                 : S_TEXT/UTF8
  618. Codec ID/Info                            : UTF-8 Plain Text
  619. Duration                                 : 2 h 20 min
  620. Bit rate                                 : 28 b/s
  621. Frame rate                               : 0.131 FPS
  622. Count of elements                        : 1103
  623. Stream size                              : 29.4 KiB (0%)
  624. Language                                 : Turkish
  625. Default                                  : No
  626. Forced                                   : No

  627. Text #43
  628. ID                                       : 46
  629. Format                                   : UTF-8
  630. Codec ID                                 : S_TEXT/UTF8
  631. Codec ID/Info                            : UTF-8 Plain Text
  632. Duration                                 : 2 h 26 min
  633. Bit rate                                 : 23 b/s
  634. Frame rate                               : 0.116 FPS
  635. Count of elements                        : 1019
  636. Stream size                              : 25.5 KiB (0%)
  637. Language                                 : Turkish
  638. Default                                  : No
  639. Forced                                   : No

  640. Text #44
  641. ID                                       : 47
  642. Format                                   : UTF-8
  643. Codec ID                                 : S_TEXT/UTF8
  644. Codec ID/Info                            : UTF-8 Plain Text
  645. Duration                                 : 2 h 26 min
  646. Bit rate                                 : 39 b/s
  647. Frame rate                               : 0.118 FPS
  648. Count of elements                        : 1036
  649. Stream size                              : 42.1 KiB (0%)
  650. Language                                 : Ukrainian
  651. Default                                  : No
  652. Forced                                   : No

  653. Text #45
  654. ID                                       : 48
  655. Format                                   : UTF-8
  656. Codec ID                                 : S_TEXT/UTF8
  657. Codec ID/Info                            : UTF-8 Plain Text
  658. Duration                                 : 2 h 26 min
  659. Bit rate                                 : 33 b/s
  660. Frame rate                               : 0.120 FPS
  661. Count of elements                        : 1057
  662. Stream size                              : 35.9 KiB (0%)
  663. Language                                 : Vietnamese
  664. Default                                  : No
  665. Forced                                   : No

  666. Text #46
  667. ID                                       : 49
  668. Format                                   : UTF-8
  669. Codec ID                                 : S_TEXT/UTF8
  670. Codec ID/Info                            : UTF-8 Plain Text
  671. Duration                                 : 2 h 26 min
  672. Bit rate                                 : 26 b/s
  673. Frame rate                               : 0.132 FPS
  674. Count of elements                        : 1158
  675. Stream size                              : 28.5 KiB (0%)
  676. Title                                    : Simplified
  677. Language                                 : Chinese
  678. Default                                  : No
  679. Forced                                   : No

  680. Text #47
  681. ID                                       : 50
  682. Format                                   : UTF-8
  683. Codec ID                                 : S_TEXT/UTF8
  684. Codec ID/Info                            : UTF-8 Plain Text
  685. Duration                                 : 2 h 23 min
  686. Bit rate                                 : 26 b/s
  687. Frame rate                               : 0.123 FPS
  688. Count of elements                        : 1061
  689. Stream size                              : 27.7 KiB (0%)
  690. Title                                    : Traditional
  691. Language                                 : Chinese
  692. Default                                  : No
  693. Forced                                   : No
复制代码




                                       
                                       

                                       
                                       
                                       




西线无战事 All.Quiet.on.the.Western.Front.2022.GERMAN.2160p.NF.WEB-DL.x265.10bit.HDR.DDP5.1.Atmos-APEX 13.93GB

All.Quiet.on.the.Western.Front.2022.GERMAN.2160p.NF.WEB-DL.x265.10bit.HDR.DDP5.1.torrent

18.11 KB, 下载次数: 6, 下载积分: 蓝光币 -2

回复

使用道具 举报

0

精华

0

好友

1

听众

新手上路

Rank: 1

蓝光币
0
发表于 2023-5-2 09:35:09 | 显示全部楼层
非常精彩的反战电影,谢谢分享
回复

使用道具 举报

您需要登录后才可以回帖 登录 | 立即注册

本版积分规则

QQ|Archiver|手机版|小黑屋|蓝光电影网

GMT+8, 2024-6-21 19:22 , Processed in 0.060520 second(s), 34 queries .

Powered by Discuz! X3.4

Copyright © 2001-2020, Tencent Cloud.

快速回复 返回顶部 返回列表