找回密码
 立即注册

QQ登录

只需一步,快速开始

查看: 585|回复: 0

[其他] 尔虞我诈 Used.Cars.1980.2160p.BluRay.x264.8bit.SDR.DTS-HD.MA.5.1-SWTYBLZ 70.80GB

[复制链接]

0

精华

0

好友

2

听众

实习版主

Rank: 7Rank: 7Rank: 7

蓝光币
5
发表于 2023-4-28 12:54:46 | 显示全部楼层 |阅读模式
[img][/img]

◎标  题 尔虞我诈
◎译  名 抢食世界 / 旧车
◎片  名 Used Cars
◎年  代 1980
◎产  地 美国
◎类  别 喜剧
◎语  言 英语
◎上映日期 1980-07-11
◎IMDb评分 6.7/10 (15026人评价)
◎IMDb链接 https://www.imdb.com/title/tt0081698/
◎豆瓣评分 7.0/10 (206人评价)
◎豆瓣链接 https://movie.douban.com/subject/1301183/
◎片  长 113 分钟
◎导  演 罗伯特·泽米吉斯 Robert Zemeckis
◎编  剧 鲍勃·盖尔 Bob Gale
       罗伯特·泽米吉斯 Robert Zemeckis
◎演  员 库尔特·拉塞尔 Kurt Russell
       杰克·瓦尔登 Jack Warden
       格里特·格雷厄姆 Gerrit Graham
       乔·弗莱厄蒂 Joe Flaherty
       Allen Wood Allen Wood
       伍德罗夫·帕弗雷 Woodrow Parfrey
       Cheryl Rixon Cheryl Rixon
       Josiah Steiner Josiah Steiner
       德博泰勒 Dub Taylor
       温迪·乔·斯佩博 Wendie Jo Sperber
       宾斯·莫洛克 Beans Morocco
       丽塔·塔格特 Rita Taggart
       Clint Lilley Clint Lilley
       Michael Talbott Michael Talbott
       Al Lewis Al Lewis
       马克·麦克卢尔 Marc McClure
       Buxx Banner Buxx Banner
       大卫·L·兰德尔 David L. Lander
       阿方索·阿雷奥 Alfonso Arau
       迪克·米勒 Dick Miller
       贝蒂·托马斯 Betty Thomas
       迈克尔·麦基恩 Michael McKean
       Gene Blakely Gene Blakely
       德博拉·哈蒙 Deborah Harmon
       特伦斯·诺克斯 Terence Knox
       弗兰克·麦克雷 Frank McRae
       花生 Peanuts
       约翰·米利厄斯 John Milius
       鲍勃·盖尔 Bob Gale
       John G. Wilson John G. Wilson
       帕特里克·威廉姆斯 Patrick Williams
       Donald M. Morgan Donald M. Morgan
       迈克尔·卡恩 Michael Kahn
       Sally Dennison Sally Dennison
       琳达·斯菲里斯 Linda Spheeris
       Jack H. Young Jack H. Young
       特里·伦纳德 Terry Leonard
◎简  介

  路克独自一人经营二手车场,鲁迪是其中的一名销售员。鲁迪为人疯狂豪放,为了增加销售量提高业绩,他想尽奇招吸引顾客,甚至干违法的事。老板的弟弟罗伊狠毒奸诈,为了继承路克的家产和车场,他用奸计害死了路克。                                    
                                正当鲁迪为对付罗伊而绞尽脑汁时,路克的女儿回来了。这下可有好戏看了,他们联手对抗罗伊,一段精彩绝伦的尔虞我诈大战就此展开……
  1. Video
  2. ID                                       : 1
  3. Format                                   : AVC
  4. Format/Info                              : Advanced Video Codec
  5. Format profile                           : [email protected]
  6. Format settings                          : CABAC / 5 Ref Frames
  7. Format settings, CABAC                   : Yes
  8. Format settings, Reference frames        : 5 frames
  9. Codec ID                                 : V_MPEG4/ISO/AVC
  10. Duration                                 : 1 h 52 min
  11. Bit rate                                 : 85.8 Mb/s
  12. Width                                    : 3 840 pixels
  13. Height                                   : 2 076 pixels
  14. Display aspect ratio                     : 1.85:1
  15. Frame rate mode                          : Constant
  16. Frame rate                               : 23.976 (24000/1001/189150) FPS
  17. Color space                              : YUV
  18. Chroma subsampling                       : 4:2:0
  19. Bit depth                                : 8 bits
  20. Scan type                                : Progressive
  21. Bits/(Pixel*Frame)                       : 0.449
  22. Stream size                              : 67.5 GiB (96%)
  23. Writing library                          : x264 core 157 r2935 545de2f
  24. Encoding settings                        : cabac=1 / ref=5 / deblock=1:-1:-1 / analyse=0x3:0x113 / me=umh / subme=10 / psy=1 / psy_rd=1.00:0.15 / mixed_ref=1 / me_range=48 / chroma_me=1 / trellis=2 / 8x8dct=1 / cqm=0 / deadzone=21,11 / fast_pskip=1 / chroma_qp_offset=-3 / threads=48 / lookahead_threads=4 / sliced_threads=0 / nr=0 / decimate=0 / interlaced=0 / bluray_compat=0 / constrained_intra=0 / bframes=3 / b_pyramid=2 / b_adapt=2 / b_bias=0 / direct=3 / weightb=1 / open_gop=0 / weightp=2 / keyint=250 / keyint_min=23 / scenecut=40 / intra_refresh=0 / rc_lookahead=50 / rc=crf / mbtree=1 / crf=20.0 / qcomp=0.60 / qpmin=0 / qpmax=69 / qpstep=4 / ip_ratio=1.40 / aq=1:1.00
  25. Default                                  : Yes
  26. Forced                                   : No

  27. Audio #1
  28. ID                                       : 2
  29. ID in the original source medium         : 4353 (0x1101)
  30. Format                                   : DTS XLL
  31. Format/Info                              : Digital Theater Systems
  32. Commercial name                          : DTS-HD Master Audio
  33. Codec ID                                 : A_DTS
  34. Duration                                 : 1 h 52 min
  35. Bit rate mode                            : Variable
  36. Bit rate                                 : 3 156 kb/s
  37. Channel(s)                               : 6 channels
  38. Channel layout                           : C L R Ls Rs LFE
  39. Sampling rate                            : 48.0 kHz
  40. Frame rate                               : 93.750 FPS (512 SPF)
  41. Bit depth                                : 24 bits
  42. Compression mode                         : Lossless
  43. Stream size                              : 2.48 GiB (4%)
  44. Title                                    : DTS-HD MA 5.1
  45. Language                                 : English
  46. Default                                  : No
  47. Forced                                   : No
  48. Original source medium                   : Blu-ray

  49. Audio #2
  50. ID                                       : 3
  51. Format                                   : AC-3
  52. Format/Info                              : Audio Coding 3
  53. Commercial name                          : Dolby Digital
  54. Codec ID                                 : A_AC3
  55. Duration                                 : 1 h 52 min
  56. Bit rate mode                            : Constant
  57. Bit rate                                 : 640 kb/s
  58. Channel(s)                               : 6 channels
  59. Channel layout                           : L R C LFE Ls Rs
  60. Sampling rate                            : 48.0 kHz
  61. Frame rate                               : 31.250 FPS (1536 SPF)
  62. Compression mode                         : Lossy
  63. Stream size                              : 516 MiB (1%)
  64. Title                                    : DD 5.1
  65. Language                                 : English
  66. Service kind                             : Complete Main
  67. Default                                  : No
  68. Forced                                   : No

  69. Text #1
  70. ID                                       : 4
  71. Format                                   : UTF-8
  72. Codec ID                                 : S_TEXT/UTF8
  73. Codec ID/Info                            : UTF-8 Plain Text
  74. Duration                                 : 1 h 50 min
  75. Bit rate                                 : 83 b/s
  76. Frame rate                               : 0.312 FPS
  77. Count of elements                        : 2070
  78. Stream size                              : 67.5 KiB (0%)
  79. Language                                 : English
  80. Default                                  : Yes
  81. Forced                                   : No

  82. Text #2
  83. ID                                       : 5
  84. Format                                   : UTF-8
  85. Codec ID                                 : S_TEXT/UTF8
  86. Codec ID/Info                            : UTF-8 Plain Text
  87. Duration                                 : 1 h 52 min
  88. Bit rate                                 : 91 b/s
  89. Frame rate                               : 0.347 FPS
  90. Count of elements                        : 2333
  91. Stream size                              : 74.7 KiB (0%)
  92. Title                                    : SDH
  93. Language                                 : English
  94. Default                                  : No
  95. Forced                                   : No

  96. Text #3
  97. ID                                       : 6
  98. ID in the original source medium         : 4768 (0x12A0)
  99. Format                                   : PGS
  100. Muxing mode                              : zlib
  101. Codec ID                                 : S_HDMV/PGS
  102. Codec ID/Info                            : Picture based subtitle format used on BDs/HD-DVDs
  103. Duration                                 : 1 h 52 min
  104. Bit rate                                 : 54.9 kb/s
  105. Frame rate                               : 0.696 FPS
  106. Count of elements                        : 4682
  107. Stream size                              : 44.0 MiB (0%)
  108. Language                                 : English
  109. Default                                  : No
  110. Forced                                   : No
  111. Original source medium                   : Blu-ray

  112. Menu
  113. 00:00:00.000                             : en:Chapter 01
  114. 00:08:17.121                             : en:Chapter 02
  115. 00:16:51.093                             : en:Chapter 03
  116. 00:26:55.447                             : en:Chapter 04
  117. 00:36:14.380                             : en:Chapter 05
  118. 00:45:19.425                             : en:Chapter 06
  119. 00:52:12.546                             : en:Chapter 07
  120. 00:59:02.997                             : en:Chapter 08
  121. 01:08:28.270                             : en:Chapter 09
  122. 01:19:38.064                             : en:Chapter 10
  123. 01:30:45.565                             : en:Chapter 11
  124. 01:41:00.304                             : en:Chapter 12
  125. 01:52:38.835                             : en:Chapter 13
复制代码




                                       
                                       

                                       
                                       
                                       




Used.Cars.1980.2160p.BluRay.x264.8bit.SDR.DTS-HD.MA.5.1-SWTYBLZ.torrent (89.21 KB, 下载次数: 0)
回复

使用道具 举报

您需要登录后才可以回帖 登录 | 立即注册

本版积分规则

QQ|Archiver|手机版|小黑屋|蓝光电影网

GMT+8, 2024-2-25 12:51 , Processed in 0.059627 second(s), 28 queries .

Powered by Discuz! X3.4

Copyright © 2001-2020, Tencent Cloud.

快速回复 返回顶部 返回列表