找回密码
 立即注册

QQ登录

只需一步,快速开始

查看: 409|回复: 0

[其他] 如果这些墙会歌唱 If.These.Walls.Could.Sing.2022.2160p.DSNP.WEB-DL.x265.10bit.HDR.DDP5.1-SMURF 8.71GB

[复制链接]

0

精华

0

好友

2

听众

实习版主

Rank: 7Rank: 7Rank: 7

蓝光币
5
发表于 2023-4-28 13:25:33 | 显示全部楼层 |阅读模式
[img][/img]

◎标  题 如果这些墙会歌唱
◎片  名 If These Walls Could Sing
◎年  代 2022
◎产  地 美国
◎类  别 纪录片
◎上映日期 2022-09-03(特柳赖德电影节) / 2022-12-16(美国)
◎IMDb评分 8.8/10 (12人评价)
◎IMDb链接 https://www.imdb.com/title/tt13943546/
◎豆瓣链接 https://movie.douban.com/subject/35332460/
◎导  演 Mary McCartney Mary McCartney
◎简  介

  If These Walls Could Sing arrives with the 90th anniversary of famed London recording studio.                                       
                                    Universal Music Group’s recently-launched production house Mercury Studios has announced a documentary about Abbey Road Studios. If These Walls Could Sing will explore the legendary recording studio’s history in conjunction with Abbey Road’s 90th anniversary this November. The film is ...
  1. Video
  2. ID                                       : 1
  3. Format                                   : HEVC
  4. Format/Info                              : High Efficiency Video Coding
  5. Format profile                           : Main [email protected]@High
  6. HDR format                               : Dolby Vision, Version 1.0, dvhe.08.07, BL+RPU, HDR10 compatible / SMPTE ST 2086, HDR10 compatible
  7. Codec ID                                 : V_MPEGH/ISO/HEVC
  8. Duration                                 : 1 h 28 min
  9. Bit rate                                 : 13.8 Mb/s
  10. Width                                    : 3 840 pixels
  11. Height                                   : 2 160 pixels
  12. Display aspect ratio                     : 16:9
  13. Frame rate mode                          : Constant
  14. Frame rate                               : 25.000 FPS
  15. Color space                              : YUV
  16. Chroma subsampling                       : 4:2:0
  17. Bit depth                                : 10 bits
  18. Bits/(Pixel*Frame)                       : 0.067
  19. Stream size                              : 8.55 GiB (98%)
  20. Language                                 : English
  21. Default                                  : Yes
  22. Forced                                   : No
  23. Color range                              : Limited
  24. Color primaries                          : BT.2020
  25. Transfer characteristics                 : PQ
  26. Matrix coefficients                      : BT.2020 non-constant
  27. Mastering display color primaries        : BT.2020
  28. Mastering display luminance              : min: 0.0001 cd/m2, max: 1000 cd/m2

  29. Audio
  30. ID                                       : 2
  31. Format                                   : E-AC-3
  32. Format/Info                              : Enhanced AC-3
  33. Commercial name                          : Dolby Digital Plus
  34. Codec ID                                 : A_EAC3
  35. Duration                                 : 1 h 28 min
  36. Bit rate mode                            : Constant
  37. Bit rate                                 : 256 kb/s
  38. Channel(s)                               : 6 channels
  39. Channel layout                           : L R C LFE Ls Rs
  40. Sampling rate                            : 48.0 kHz
  41. Frame rate                               : 31.250 FPS (1536 SPF)
  42. Compression mode                         : Lossy
  43. Stream size                              : 162 MiB (2%)
  44. Title                                    : British
  45. Language                                 : English
  46. Service kind                             : Complete Main
  47. Default                                  : Yes
  48. Forced                                   : No

  49. Text #1
  50. ID                                       : 3
  51. Format                                   : UTF-8
  52. Codec ID                                 : S_TEXT/UTF8
  53. Codec ID/Info                            : UTF-8 Plain Text
  54. Duration                                 : 1 h 24 min
  55. Bit rate                                 : 84 b/s
  56. Frame rate                               : 0.218 FPS
  57. Count of elements                        : 1106
  58. Stream size                              : 52.6 KiB (0%)
  59. Title                                    : British
  60. Language                                 : English
  61. Default                                  : No
  62. Forced                                   : No

  63. Text #2
  64. ID                                       : 4
  65. Format                                   : UTF-8
  66. Codec ID                                 : S_TEXT/UTF8
  67. Codec ID/Info                            : UTF-8 Plain Text
  68. Duration                                 : 1 h 24 min
  69. Bit rate                                 : 102 b/s
  70. Frame rate                               : 0.263 FPS
  71. Count of elements                        : 1334
  72. Stream size                              : 63.7 KiB (0%)
  73. Title                                    : British (SDH)
  74. Language                                 : English
  75. Default                                  : No
  76. Forced                                   : No

  77. Text #3
  78. ID                                       : 5
  79. Format                                   : UTF-8
  80. Codec ID                                 : S_TEXT/UTF8
  81. Codec ID/Info                            : UTF-8 Plain Text
  82. Duration                                 : 1 h 27 min
  83. Bit rate                                 : 74 b/s
  84. Frame rate                               : 0.225 FPS
  85. Count of elements                        : 1181
  86. Stream size                              : 47.9 KiB (0%)
  87. Language                                 : Czech
  88. Default                                  : No
  89. Forced                                   : No

  90. Text #4
  91. ID                                       : 6
  92. Format                                   : UTF-8
  93. Codec ID                                 : S_TEXT/UTF8
  94. Codec ID/Info                            : UTF-8 Plain Text
  95. Duration                                 : 1 h 27 min
  96. Bit rate                                 : 74 b/s
  97. Frame rate                               : 0.222 FPS
  98. Count of elements                        : 1162
  99. Stream size                              : 47.5 KiB (0%)
  100. Language                                 : Danish
  101. Default                                  : No
  102. Forced                                   : No

  103. Text #5
  104. ID                                       : 7
  105. Format                                   : UTF-8
  106. Codec ID                                 : S_TEXT/UTF8
  107. Codec ID/Info                            : UTF-8 Plain Text
  108. Duration                                 : 1 h 27 min
  109. Bit rate                                 : 77 b/s
  110. Frame rate                               : 0.213 FPS
  111. Count of elements                        : 1117
  112. Stream size                              : 49.3 KiB (0%)
  113. Language                                 : German
  114. Default                                  : No
  115. Forced                                   : No

  116. Text #6
  117. ID                                       : 8
  118. Format                                   : UTF-8
  119. Codec ID                                 : S_TEXT/UTF8
  120. Codec ID/Info                            : UTF-8 Plain Text
  121. Duration                                 : 1 h 27 min
  122. Bit rate                                 : 127 b/s
  123. Frame rate                               : 0.220 FPS
  124. Count of elements                        : 1155
  125. Stream size                              : 81.7 KiB (0%)
  126. Language                                 : Greek
  127. Default                                  : No
  128. Forced                                   : No

  129. Text #7
  130. ID                                       : 9
  131. Format                                   : UTF-8
  132. Codec ID                                 : S_TEXT/UTF8
  133. Codec ID/Info                            : UTF-8 Plain Text
  134. Duration                                 : 1 h 27 min
  135. Bit rate                                 : 81 b/s
  136. Frame rate                               : 0.238 FPS
  137. Count of elements                        : 1250
  138. Stream size                              : 52.2 KiB (0%)
  139. Title                                    : Latin American
  140. Language                                 : Spanish
  141. Default                                  : No
  142. Forced                                   : No

  143. Text #8
  144. ID                                       : 10
  145. Format                                   : UTF-8
  146. Codec ID                                 : S_TEXT/UTF8
  147. Codec ID/Info                            : UTF-8 Plain Text
  148. Duration                                 : 1 h 27 min
  149. Bit rate                                 : 87 b/s
  150. Frame rate                               : 0.242 FPS
  151. Count of elements                        : 1272
  152. Stream size                              : 56.2 KiB (0%)
  153. Language                                 : Spanish
  154. Default                                  : No
  155. Forced                                   : No

  156. Text #9
  157. ID                                       : 11
  158. Format                                   : UTF-8
  159. Codec ID                                 : S_TEXT/UTF8
  160. Codec ID/Info                            : UTF-8 Plain Text
  161. Duration                                 : 1 h 27 min
  162. Bit rate                                 : 75 b/s
  163. Frame rate                               : 0.226 FPS
  164. Count of elements                        : 1188
  165. Stream size                              : 48.2 KiB (0%)
  166. Language                                 : Finnish
  167. Default                                  : No
  168. Forced                                   : No

  169. Text #10
  170. ID                                       : 12
  171. Format                                   : UTF-8
  172. Codec ID                                 : S_TEXT/UTF8
  173. Codec ID/Info                            : UTF-8 Plain Text
  174. Duration                                 : 1 h 27 min
  175. Bit rate                                 : 75 b/s
  176. Frame rate                               : 0.202 FPS
  177. Count of elements                        : 1060
  178. Stream size                              : 48.2 KiB (0%)
  179. Language                                 : French
  180. Default                                  : No
  181. Forced                                   : No

  182. Text #11
  183. ID                                       : 13
  184. Format                                   : UTF-8
  185. Codec ID                                 : S_TEXT/UTF8
  186. Codec ID/Info                            : UTF-8 Plain Text
  187. Duration                                 : 1 h 27 min
  188. Bit rate                                 : 78 b/s
  189. Frame rate                               : 0.211 FPS
  190. Count of elements                        : 1109
  191. Stream size                              : 49.9 KiB (0%)
  192. Language                                 : Hungarian
  193. Default                                  : No
  194. Forced                                   : No

  195. Text #12
  196. ID                                       : 14
  197. Format                                   : UTF-8
  198. Codec ID                                 : S_TEXT/UTF8
  199. Codec ID/Info                            : UTF-8 Plain Text
  200. Duration                                 : 1 h 27 min
  201. Bit rate                                 : 76 b/s
  202. Frame rate                               : 0.229 FPS
  203. Count of elements                        : 1201
  204. Stream size                              : 48.9 KiB (0%)
  205. Language                                 : Italian
  206. Default                                  : No
  207. Forced                                   : No

  208. Text #13
  209. ID                                       : 15
  210. Format                                   : UTF-8
  211. Codec ID                                 : S_TEXT/UTF8
  212. Codec ID/Info                            : UTF-8 Plain Text
  213. Duration                                 : 1 h 27 min
  214. Bit rate                                 : 79 b/s
  215. Frame rate                               : 0.228 FPS
  216. Count of elements                        : 1198
  217. Stream size                              : 51.2 KiB (0%)
  218. Language                                 : Japanese
  219. Default                                  : No
  220. Forced                                   : No

  221. Text #14
  222. ID                                       : 16
  223. Format                                   : UTF-8
  224. Codec ID                                 : S_TEXT/UTF8
  225. Codec ID/Info                            : UTF-8 Plain Text
  226. Duration                                 : 1 h 27 min
  227. Bit rate                                 : 87 b/s
  228. Frame rate                               : 0.235 FPS
  229. Count of elements                        : 1236
  230. Stream size                              : 56.1 KiB (0%)
  231. Language                                 : Korean
  232. Default                                  : No
  233. Forced                                   : No

  234. Text #15
  235. ID                                       : 17
  236. Format                                   : UTF-8
  237. Codec ID                                 : S_TEXT/UTF8
  238. Codec ID/Info                            : UTF-8 Plain Text
  239. Duration                                 : 1 h 27 min
  240. Bit rate                                 : 75 b/s
  241. Frame rate                               : 0.215 FPS
  242. Count of elements                        : 1126
  243. Stream size                              : 48.3 KiB (0%)
  244. Language                                 : Dutch
  245. Default                                  : No
  246. Forced                                   : No

  247. Text #16
  248. ID                                       : 18
  249. Format                                   : UTF-8
  250. Codec ID                                 : S_TEXT/UTF8
  251. Codec ID/Info                            : UTF-8 Plain Text
  252. Duration                                 : 1 h 27 min
  253. Bit rate                                 : 74 b/s
  254. Frame rate                               : 0.188 FPS
  255. Count of elements                        : 986
  256. Stream size                              : 47.5 KiB (0%)
  257. Language                                 : Norwegian
  258. Default                                  : No
  259. Forced                                   : No

  260. Text #17
  261. ID                                       : 19
  262. Format                                   : UTF-8
  263. Codec ID                                 : S_TEXT/UTF8
  264. Codec ID/Info                            : UTF-8 Plain Text
  265. Duration                                 : 1 h 27 min
  266. Bit rate                                 : 66 b/s
  267. Frame rate                               : 0.219 FPS
  268. Count of elements                        : 1150
  269. Stream size                              : 42.4 KiB (0%)
  270. Language                                 : Polish
  271. Default                                  : No
  272. Forced                                   : No

  273. Text #18
  274. ID                                       : 20
  275. Format                                   : UTF-8
  276. Codec ID                                 : S_TEXT/UTF8
  277. Codec ID/Info                            : UTF-8 Plain Text
  278. Duration                                 : 1 h 27 min
  279. Bit rate                                 : 81 b/s
  280. Frame rate                               : 0.251 FPS
  281. Count of elements                        : 1319
  282. Stream size                              : 52.5 KiB (0%)
  283. Title                                    : Brazilian
  284. Language                                 : Portuguese
  285. Default                                  : No
  286. Forced                                   : No

  287. Text #19
  288. ID                                       : 21
  289. Format                                   : UTF-8
  290. Codec ID                                 : S_TEXT/UTF8
  291. Codec ID/Info                            : UTF-8 Plain Text
  292. Duration                                 : 1 h 27 min
  293. Bit rate                                 : 89 b/s
  294. Frame rate                               : 0.252 FPS
  295. Count of elements                        : 1325
  296. Stream size                              : 57.1 KiB (0%)
  297. Language                                 : Portuguese
  298. Default                                  : No
  299. Forced                                   : No

  300. Text #20
  301. ID                                       : 22
  302. Format                                   : UTF-8
  303. Codec ID                                 : S_TEXT/UTF8
  304. Codec ID/Info                            : UTF-8 Plain Text
  305. Duration                                 : 1 h 27 min
  306. Bit rate                                 : 75 b/s
  307. Frame rate                               : 0.201 FPS
  308. Count of elements                        : 1055
  309. Stream size                              : 48.3 KiB (0%)
  310. Language                                 : Romanian
  311. Default                                  : No
  312. Forced                                   : No

  313. Text #21
  314. ID                                       : 23
  315. Format                                   : UTF-8
  316. Codec ID                                 : S_TEXT/UTF8
  317. Codec ID/Info                            : UTF-8 Plain Text
  318. Duration                                 : 1 h 27 min
  319. Bit rate                                 : 72 b/s
  320. Frame rate                               : 0.223 FPS
  321. Count of elements                        : 1172
  322. Stream size                              : 46.7 KiB (0%)
  323. Language                                 : Slovak
  324. Default                                  : No
  325. Forced                                   : No

  326. Text #22
  327. ID                                       : 24
  328. Format                                   : UTF-8
  329. Codec ID                                 : S_TEXT/UTF8
  330. Codec ID/Info                            : UTF-8 Plain Text
  331. Duration                                 : 1 h 27 min
  332. Bit rate                                 : 72 b/s
  333. Frame rate                               : 0.225 FPS
  334. Count of elements                        : 1184
  335. Stream size                              : 46.7 KiB (0%)
  336. Language                                 : Swedish
  337. Default                                  : No
  338. Forced                                   : No

  339. Text #23
  340. ID                                       : 25
  341. Format                                   : UTF-8
  342. Codec ID                                 : S_TEXT/UTF8
  343. Codec ID/Info                            : UTF-8 Plain Text
  344. Duration                                 : 1 h 27 min
  345. Bit rate                                 : 85 b/s
  346. Frame rate                               : 0.254 FPS
  347. Count of elements                        : 1337
  348. Stream size                              : 54.5 KiB (0%)
  349. Language                                 : Turkish
  350. Default                                  : No
  351. Forced                                   : No

  352. Text #24
  353. ID                                       : 26
  354. Format                                   : UTF-8
  355. Codec ID                                 : S_TEXT/UTF8
  356. Codec ID/Info                            : UTF-8 Plain Text
  357. Duration                                 : 1 h 27 min
  358. Bit rate                                 : 78 b/s
  359. Frame rate                               : 0.257 FPS
  360. Count of elements                        : 1349
  361. Stream size                              : 50.2 KiB (0%)
  362. Title                                    : Hong Kong
  363. Language                                 : Chinese
  364. Default                                  : No
  365. Forced                                   : No

  366. Text #25
  367. ID                                       : 27
  368. Format                                   : UTF-8
  369. Codec ID                                 : S_TEXT/UTF8
  370. Codec ID/Info                            : UTF-8 Plain Text
  371. Duration                                 : 1 h 27 min
  372. Bit rate                                 : 78 b/s
  373. Frame rate                               : 0.260 FPS
  374. Count of elements                        : 1366
  375. Stream size                              : 50.3 KiB (0%)
  376. Title                                    : Traditional
  377. Language                                 : Chinese
  378. Default                                  : No
  379. Forced                                   : No

  380. Menu
  381. 00:08:44.880                             : en:Scene 1
  382. 00:20:38.760                             : en:Scene 2
  383. 00:29:48.080                             : en:Scene 3
  384. 00:41:23.360                             : en:Scene 4
  385. 00:49:46.000                             : en:Scene 5
  386. 01:02:47.320                             : en:Scene 6
  387. 01:17:07.520                             : en:Scene 7
  388. 01:24:37.520                             : en:Credits
复制代码




                                       
                                       

                                       
                                       
                                       




If.These.Walls.Could.Sing.2022.2160p.DSNP.WEB-DL.x265.10bit.HDR.DDP5.1-SMURF.torrent (22.45 KB, 下载次数: 0)
回复

使用道具 举报

您需要登录后才可以回帖 登录 | 立即注册

本版积分规则

QQ|Archiver|手机版|小黑屋|蓝光电影网

GMT+8, 2024-6-21 19:53 , Processed in 0.077831 second(s), 28 queries .

Powered by Discuz! X3.4

Copyright © 2001-2020, Tencent Cloud.

快速回复 返回顶部 返回列表