找回密码
 立即注册

QQ登录

只需一步,快速开始

查看: 94|回复: 0

[喜剧片] 芒斯特一家 The.Munsters.2022.1080p.BluRay.x264.DTS-MT 22.67GB

[复制链接]

0

精华

0

好友

2

听众

新手上路

Rank: 2

蓝光币
5
发表于 2022-9-23 07:07:37 | 显示全部楼层 |阅读模式
[img][/img]

◎标  题 芒斯特一家
◎片  名 The Munsters
◎年  代 2023
◎产  地 美国
◎类  别 喜剧 / 科幻 / 恐怖 / 奇幻
◎上映日期 2022-09(美国)
◎IMDb链接 https://www.imdb.com/title/tt14813212/
◎豆瓣链接 https://movie.douban.com/subject/35700158/
◎导  演 罗布·赞比 Rob Zombie
◎编  剧 罗布·赞比 Rob Zombie
◎演  员 雪莉·穆恩·赞比 Sheri Moon Zombie
       丹尼尔·洛巴克 Daniel Roebuck
       杰弗里·丹尼尔·菲利普斯 Jeffrey Daniel Phillips
◎简  介

  Reboot of "The Munsters", that followed a family of monsters who moves from Transylvania to an American suburb.
  1. Video
  2. ID                                       : 1
  3. Format                                   : AVC
  4. Format/Info                              : Advanced Video Codec
  5. Format profile                           : [email protected]
  6. Format settings                          : CABAC / 4 Ref Frames
  7. Format settings, CABAC                   : Yes
  8. Format settings, Reference frames        : 4 frames
  9. Codec ID                                 : V_MPEG4/ISO/AVC
  10. Duration                                 : 1 h 49 min
  11. Bit rate                                 : 28.1 Mb/s
  12. Width                                    : 1 920 pixels
  13. Height                                   : 1 080 pixels
  14. Display aspect ratio                     : 16:9
  15. Frame rate mode                          : Constant
  16. Frame rate                               : 23.976 (24000/1001/189150) FPS
  17. Color space                              : YUV
  18. Chroma subsampling                       : 4:2:0
  19. Bit depth                                : 8 bits
  20. Scan type                                : Progressive
  21. Bits/(Pixel*Frame)                       : 0.564
  22. Stream size                              : 21.5 GiB (95%)
  23. Writing library                          : x264 core 157 r2938 2b00a84 [email protected] Mod
  24. Encoding settings                        : cabac=1 / ref=4 / deblock=1:-3:-3 / analyse=0x3:0x133 / me=umh / subme=10 / psy=1 / psy_rd=1.05:0.00 / mixed_ref=1 / me_range=32 / chroma_me=1 / trellis=2 / 8x8dct=1 / cqm=0 / deadzone=21,11 / fast_pskip=0 / chroma_qp_offset=-2 / threads=12 / lookahead_threads=2 / sliced_threads=0 / nr=0 / decimate=0 / interlaced=0 / bluray_compat=0 / constrained_intra=0 / bframes=8 / b_pyramid=2 / b_adapt=2 / b_bias=0 / direct=3 / weightb=1 / open_gop=0 / weightp=2 / keyint=250 / keyint_min=24 / scenecut=40 / intra_refresh=0 / rc_lookahead=250 / rc=crf / mbtree=0 / crf=16.8 / qcomp=0.60 / qpmin=0 / qpmax=69 / qpstep=4 / vbv_maxrate=62500 / vbv_bufsize=78125 / crf_max=0.0 / nal_hrd=none / filler=0 / ip_ratio=1.30 / pb_ratio=1.20 / aq=3:0.80
  25. Language                                 : English
  26. Default                                  : Yes
  27. Forced                                   : No
  28. Color range                              : Limited
  29. Color primaries                          : BT.709
  30. Matrix coefficients                      : BT.709
  31. Audio
  32. ID                                       : 2
  33. Format                                   : DTS
  34. Format/Info                              : Digital Theater Systems
  35. Codec ID                                 : A_DTS
  36. Duration                                 : 1 h 49 min
  37. Bit rate mode                            : Constant
  38. Bit rate                                 : 1 509 kb/s
  39. Channel(s)                               : 6 channels
  40. Channel layout                           : C L R Ls Rs LFE
  41. Sampling rate                            : 48.0 kHz
  42. Frame rate                               : 93.750 FPS (512 SPF)
  43. Bit depth                                : 24 bits
  44. Compression mode                         : Lossy
  45. Stream size                              : 1.16 GiB (5%)
  46. Language                                 : English
  47. Default                                  : Yes
  48. Forced                                   : No
  49. Text #1
  50. ID                                       : 3
  51. Format                                   : UTF-8
  52. Codec ID                                 : S_TEXT/UTF8
  53. Codec ID/Info                            : UTF-8 Plain Text
  54. Duration                                 : 1 h 45 min
  55. Bit rate                                 : 63 b/s
  56. Frame rate                               : 0.234 FPS
  57. Count of elements                        : 1484
  58. Stream size                              : 49.4 KiB (0%)
  59. Language                                 : English
  60. Default                                  : Yes
  61. Forced                                   : No
  62. Text #2
  63. ID                                       : 4
  64. Format                                   : UTF-8
  65. Codec ID                                 : S_TEXT/UTF8
  66. Codec ID/Info                            : UTF-8 Plain Text
  67. Duration                                 : 1 h 46 min
  68. Bit rate                                 : 71 b/s
  69. Frame rate                               : 0.276 FPS
  70. Count of elements                        : 1766
  71. Stream size                              : 56.1 KiB (0%)
  72. Title                                    : SDH
  73. Language                                 : English
  74. Default                                  : No
  75. Forced                                   : No
  76. Menu
  77. 00:00:00.000                             : en:Chapter 01
  78. 00:04:22.679                             : en:Chapter 02
  79. 00:10:14.948                             : en:Chapter 03
  80. 00:14:27.784                             : en:Chapter 04
  81. 00:19:36.926                             : en:Chapter 05
  82. 00:25:01.375                             : en:Chapter 06
  83. 00:32:39.040                             : en:Chapter 07
  84. 00:37:36.087                             : en:Chapter 08
  85. 00:43:03.581                             : en:Chapter 09
  86. 00:50:01.248                             : en:Chapter 10
  87. 00:52:08.917                             : en:Chapter 11
  88. 00:57:51.677                             : en:Chapter 12
  89. 01:05:47.360                             : en:Chapter 13
  90. 01:11:00.339                             : en:Chapter 14
  91. 01:15:43.205                             : en:Chapter 15
  92. 01:21:12.284                             : en:Chapter 16
  93. 01:25:44.681                             : en:Chapter 17
  94. 01:29:48.258                             : en:Chapter 18
  95. 01:37:48.112                             : en:Chapter 19
  96. 01:43:20.945                             : en:Chapter 20
复制代码




                                       
                                       

                                       
                                       
                                       




The.Munsters.2022.1080p.BluRay.x264.DTS-MT.torrent (28.96 KB, 下载次数: 0)
回复

使用道具 举报

您需要登录后才可以回帖 登录 | 立即注册

本版积分规则

QQ|Archiver|手机版|小黑屋|蓝光电影网

GMT+8, 2022-12-1 21:49 , Processed in 0.051442 second(s), 28 queries .

Powered by Discuz! X3.4

Copyright © 2001-2020, Tencent Cloud.

快速回复 返回顶部 返回列表