找回密码
 立即注册

QQ登录

只需一步,快速开始

查看: 84|回复: 0

[科幻片] 在地球染血2 Watchers.II.1990.1080p.BluRay.x264.FLAC2.0-HANDJOB 7.33GB

[复制链接]

0

精华

0

好友

2

听众

新手上路

Rank: 2

蓝光币
5
发表于 2022-9-20 07:07:41 | 显示全部楼层 |阅读模式
[img][/img]

◎标  题 在地球染血2
◎片  名 Watchers II
◎年  代 1990
◎产  地 美国
◎类  别 科幻 / 恐怖
◎语  言 英语
◎IMDb评分 4.3/10 (1149人评价)
◎IMDb链接 https://www.imdb.com/title/tt0100904/
◎豆瓣链接 https://movie.douban.com/subject/1296046/
◎片  长 101 分钟
◎导  演 路易斯·莫纽 Louis Morneau
◎编  剧 约翰·布兰卡托 John D. Brancato
◎演  员 马克·辛格 Marc Singer
       特蕾希·斯科金斯 Tracy Scoggins
       玛丽·沃伦诺夫 Mary Woronov
       艾琳·米拉科 Irene Miracle
       Edward J. Pei Edward J. Pei
◎简  介

  一种基因改造的狗在实验室的实验过程中与一个怪物产生了心灵感应....
  1. Video
  2. ID                                       : 1
  3. Format                                   : AVC
  4. Format/Info                              : Advanced Video Codec
  5. Format profile                           : [email protected]
  6. Format settings                          : CABAC / 5 Ref Frames
  7. Format settings, CABAC                   : Yes
  8. Format settings, Reference frames        : 5 frames
  9. Codec ID                                 : V_MPEG4/ISO/AVC
  10. Duration                                 : 1 h 37 min
  11. Bit rate                                 : 10.4 Mb/s
  12. Width                                    : 1 440 pixels
  13. Height                                   : 1 080 pixels
  14. Display aspect ratio                     : 4:3
  15. Frame rate mode                          : Constant
  16. Frame rate                               : 23.976 (24000/1001/189150) FPS
  17. Color space                              : YUV
  18. Chroma subsampling                       : 4:2:0
  19. Bit depth                                : 8 bits
  20. Scan type                                : Progressive
  21. Bits/(Pixel*Frame)                       : 0.280
  22. Stream size                              : 7.12 GiB (97%)
  23. Writing library                          : x264 core 164 r3065 ae03d92
  24. Encoding settings                        : cabac=1 / ref=5 / deblock=1:-3:-3 / analyse=0x3:0x133 / me=umh / subme=10 / psy=1 / psy_rd=1.00:0.00 / mixed_ref=1 / me_range=32 / chroma_me=1 / trellis=2 / 8x8dct=1 / cqm=0 / deadzone=21,11 / fast_pskip=0 / chroma_qp_offset=-2 / threads=34 / lookahead_threads=8 / sliced_threads=0 / nr=0 / decimate=0 / interlaced=0 / bluray_compat=0 / constrained_intra=0 / bframes=16 / b_pyramid=2 / b_adapt=2 / b_bias=0 / direct=3 / weightb=1 / open_gop=0 / weightp=2 / keyint=240 / keyint_min=24 / scenecut=40 / intra_refresh=0 / rc_lookahead=60 / rc=crf / mbtree=0 / crf=22.5 / qcomp=0.60 / qpmin=0 / qpmax=69 / qpstep=4 / vbv_maxrate=62500 / vbv_bufsize=78125 / crf_max=0.0 / nal_hrd=none / filler=0 / ip_ratio=1.40 / pb_ratio=1.30 / aq=2:1.00
  25. Default                                  : Yes
  26. Forced                                   : No
  27. Color range                              : Limited
  28. Color primaries                          : BT.709
  29. Transfer characteristics                 : BT.709
  30. Matrix coefficients                      : BT.709
  31. Audio
  32. ID                                       : 2
  33. Format                                   : FLAC
  34. Format/Info                              : Free Lossless Audio Codec
  35. Codec ID                                 : A_FLAC
  36. Duration                                 : 1 h 37 min
  37. Bit rate mode                            : Variable
  38. Bit rate                                 : 299 kb/s
  39. Channel(s)                               : 2 channels
  40. Channel layout                           : L R
  41. Sampling rate                            : 48.0 kHz
  42. Frame rate                               : 11.719 FPS (4096 SPF)
  43. Bit depth                                : 16 bits
  44. Compression mode                         : Lossless
  45. Stream size                              : 209 MiB (3%)
  46. Writing library                          : libFLAC 1.3.4 (UTC 2022-02-20)
  47. Language                                 : English
  48. Default                                  : Yes
  49. Forced                                   : No
  50. Text
  51. ID                                       : 3
  52. Format                                   : UTF-8
  53. Codec ID                                 : S_TEXT/UTF8
  54. Codec ID/Info                            : UTF-8 Plain Text
  55. Duration                                 : 1 h 33 min
  56. Bit rate                                 : 40 b/s
  57. Frame rate                               : 0.190 FPS
  58. Count of elements                        : 1067
  59. Stream size                              : 27.5 KiB (0%)
  60. Language                                 : English
  61. Default                                  : No
  62. Forced                                   : No
  63. Menu
  64. 00:00:00.000                             : en:Chapter 01
  65. 00:08:35.306                             : en:Chapter 02
  66. 00:15:58.708                             : en:Chapter 03
  67. 00:25:47.880                             : en:Chapter 04
  68. 00:37:52.145                             : en:Chapter 05
  69. 00:48:05.925                             : en:Chapter 06
  70. 00:55:12.142                             : en:Chapter 07
  71. 01:03:48.491                             : en:Chapter 08
  72. 01:10:52.999                             : en:Chapter 09
  73. 01:17:10.584                             : en:Chapter 10
  74. 01:24:22.140                             : en:Chapter 11
  75. 01:34:38.464                             : en:Chapter 12
复制代码




                                       
                                       

                                       
                                       
                                       




Watchers.II.1990.1080p.BluRay.x264.FLAC2.0-HANDJOB.torrent (18.93 KB, 下载次数: 0)
回复

使用道具 举报

您需要登录后才可以回帖 登录 | 立即注册

本版积分规则

QQ|Archiver|手机版|小黑屋|蓝光电影网

GMT+8, 2022-12-1 20:59 , Processed in 0.052470 second(s), 28 queries .

Powered by Discuz! X3.4

Copyright © 2001-2020, Tencent Cloud.

快速回复 返回顶部 返回列表