找回密码
 立即注册

QQ登录

只需一步,快速开始

查看: 85|回复: 0

[动作片] 杀人小熊 Bearry.2021.1080p.BluRay.x264.DD5.1-HANDJOB 6.04GB

[复制链接]

0

精华

0

好友

2

听众

新手上路

Rank: 2

蓝光币
5
发表于 2022-9-20 07:06:40 | 显示全部楼层 |阅读模式
[img][/img]

◎标  题 杀人小熊
◎片  名 Bearry
◎年  代 2021
◎产  地 美国
◎类  别 动作 / 爱情 / 恐怖
◎语  言 英语
◎IMDb评分 3.5/10 (205人评价)
◎IMDb链接 https://www.imdb.com/title/tt8107288/
◎豆瓣链接 https://movie.douban.com/subject/35546088/
◎演  员 查尔斯·丘达巴拉 Charles Chudabala
       Nicole I. Butler Nicole I. Butler
◎简  介

  In order to cheer up recently divorced Chloe, her friend, Sam gives her a giant teddy bear, Bearry. As Chloe confides her wishes to Bearry, people close to her go missing or die. Is Chloe a murderer, is it her stalker? or is it Bearry?
  1. Video
  2. ID                                       : 1
  3. Format                                   : AVC
  4. Format/Info                              : Advanced Video Codec
  5. Format profile                           : [email protected]
  6. Format settings                          : CABAC / 5 Ref Frames
  7. Format settings, CABAC                   : Yes
  8. Format settings, Reference frames        : 5 frames
  9. Codec ID                                 : V_MPEG4/ISO/AVC
  10. Duration                                 : 1 h 23 min
  11. Bit rate                                 : 9 948 kb/s
  12. Width                                    : 1 920 pixels
  13. Height                                   : 800 pixels
  14. Display aspect ratio                     : 2.40:1
  15. Frame rate mode                          : Constant
  16. Frame rate                               : 23.976 (24000/1001/189150) FPS
  17. Color space                              : YUV
  18. Chroma subsampling                       : 4:2:0
  19. Bit depth                                : 8 bits
  20. Scan type                                : Progressive
  21. Bits/(Pixel*Frame)                       : 0.270
  22. Stream size                              : 5.78 GiB (96%)
  23. Writing library                          : x264 core 164 r3065 ae03d92
  24. Encoding settings                        : cabac=1 / ref=5 / deblock=1:-3:-3 / analyse=0x3:0x133 / me=umh / subme=10 / psy=1 / psy_rd=1.00:0.00 / mixed_ref=1 / me_range=32 / chroma_me=1 / trellis=2 / 8x8dct=1 / cqm=0 / deadzone=21,11 / fast_pskip=0 / chroma_qp_offset=-2 / threads=25 / lookahead_threads=6 / sliced_threads=0 / nr=0 / decimate=0 / interlaced=0 / bluray_compat=0 / constrained_intra=0 / bframes=16 / b_pyramid=2 / b_adapt=2 / b_bias=0 / direct=3 / weightb=1 / open_gop=0 / weightp=2 / keyint=240 / keyint_min=24 / scenecut=40 / intra_refresh=0 / rc_lookahead=60 / rc=crf / mbtree=0 / crf=14.0 / qcomp=0.60 / qpmin=0 / qpmax=69 / qpstep=4 / vbv_maxrate=62500 / vbv_bufsize=78125 / crf_max=0.0 / nal_hrd=none / filler=0 / ip_ratio=1.40 / pb_ratio=1.30 / aq=2:1.00
  25. Default                                  : Yes
  26. Forced                                   : No
  27. Color range                              : Limited
  28. Color primaries                          : BT.709
  29. Transfer characteristics                 : BT.709
  30. Matrix coefficients                      : BT.709
  31. Audio
  32. ID                                       : 2
  33. Format                                   : AC-3
  34. Format/Info                              : Audio Coding 3
  35. Commercial name                          : Dolby Digital
  36. Codec ID                                 : A_AC3
  37. Duration                                 : 1 h 23 min
  38. Bit rate mode                            : Constant
  39. Bit rate                                 : 448 kb/s
  40. Channel(s)                               : 6 channels
  41. Channel layout                           : L R C LFE Ls Rs
  42. Sampling rate                            : 48.0 kHz
  43. Frame rate                               : 31.250 FPS (1536 SPF)
  44. Compression mode                         : Lossy
  45. Stream size                              : 266 MiB (4%)
  46. Language                                 : English
  47. Service kind                             : Complete Main
  48. Default                                  : Yes
  49. Forced                                   : No
  50. Text #1
  51. ID                                       : 3
  52. Format                                   : UTF-8
  53. Codec ID                                 : S_TEXT/UTF8
  54. Codec ID/Info                            : UTF-8 Plain Text
  55. Duration                                 : 1 h 17 min
  56. Bit rate                                 : 47 b/s
  57. Frame rate                               : 0.216 FPS
  58. Count of elements                        : 1007
  59. Stream size                              : 26.8 KiB (0%)
  60. Language                                 : English
  61. Default                                  : No
  62. Forced                                   : No
  63. Text #2
  64. ID                                       : 4
  65. Format                                   : UTF-8
  66. Codec ID                                 : S_TEXT/UTF8
  67. Codec ID/Info                            : UTF-8 Plain Text
  68. Duration                                 : 1 h 22 min
  69. Bit rate                                 : 55 b/s
  70. Frame rate                               : 0.258 FPS
  71. Count of elements                        : 1274
  72. Stream size                              : 33.7 KiB (0%)
  73. Title                                    : SDH
  74. Language                                 : English
  75. Default                                  : No
  76. Forced                                   : No
  77. Menu
  78. 00:00:00.000                             : en:Start / Opening Credits
  79. 00:02:17.637                             : en:Divorce?
  80. 00:06:22.465                             : en:Meet Bearry
  81. 00:08:41.479                             : en:Meet Bearry
  82. 00:13:08.746                             : en:Blind Dates
  83. 00:23:04.592                             : en:First Murder
  84. 00:31:47.948                             : en:More Blind Dates
  85. 00:45:16.797                             : en:Interview with cops
  86. 00:55:42.381                             : en:The new love
  87. 01:01:33.190                             : en:Jealous Bearry
  88. 01:12:57.874                             : en:The Final Battle
  89. 01:20:28.324                             : en:Credits
复制代码




                                       
                                       

                                       
                                       
                                       




Bearry.2021.1080p.BluRay.x264.DD5.1-HANDJOB.torrent (15.7 KB, 下载次数: 0)
回复

使用道具 举报

您需要登录后才可以回帖 登录 | 立即注册

本版积分规则

QQ|Archiver|手机版|小黑屋|蓝光电影网

GMT+8, 2022-12-1 20:56 , Processed in 0.052872 second(s), 28 queries .

Powered by Discuz! X3.4

Copyright © 2001-2020, Tencent Cloud.

快速回复 返回顶部 返回列表