找回密码
 立即注册

QQ登录

只需一步,快速开始

查看: 103|回复: 0

[其他] 金发梦露 Blonde.2022.2160p.NF.WEB-DL.DDP5.1.Atmos.DV.MKV.x265-SMURF 23.39GB

[复制链接]

0

精华

0

好友

2

听众

新手上路

Rank: 2

蓝光币
5
发表于 2022-12-1 07:51:56 | 显示全部楼层 |阅读模式
[img][/img]

◎标  题 金发梦露
◎译  名 金发女郎 / 金发美人
◎片  名 Blonde
◎年  代 2022
◎产  地 美国
◎类  别 剧情 / 传记
◎语  言 英语
◎上映日期 2022-09-08(威尼斯电影节) / 2022-09-16(美国) / 2022-09-28(美国网络)
◎IMDb评分 6.3/10 (1693人评价)
◎IMDb链接 https://www.imdb.com/title/tt1655389/
◎豆瓣链接 https://movie.douban.com/subject/4840389/
◎片  长 166分钟
◎导  演 安德鲁·多米尼克 Andrew Dominik
◎编  剧 安德鲁·多米尼克 Andrew Dominik
       乔伊斯·卡罗尔·欧茨 Joyce Carol Oates
◎演  员 安娜·德·阿玛斯 Ana de Armas
       艾德里安·布洛迪 Adrien Brody
       鲍比·坎纳瓦尔 Bobby Cannavale
       朱丽安妮·尼科尔森 Julianne Nicholson
       泽维尔·塞缪尔 Xavier Samuel
       埃文·威廉斯 Evan Williams
       加瑞特·迪拉胡特 Garret Dillahunt
       萨拉·帕克斯顿 Sara Paxton
       斯科特·麦克纳里 Scoot McNairy
       托比·哈斯 Toby Huss
       瑞贝卡·薇索基 Rebecca Wisocky
       露西·德维托 Lucy DeVito
       凯瑟琳·丹特 Catherine Dent
       斯宾塞·加雷特 Spencer Garrett
       丹·巴特勒 Dan Butler
       海雷·韦伯 Haley Webb
       埃登·里格尔 Eden Riegel
       耐德·巴拉米 Ned Bellamy
       泰格·伦岩 Tygh Runyan
       卡斯珀·菲利普森 Caspar Phillipson
       大卫·沃肖夫斯基 David Warshofsky
       科琳·福伊 Colleen Foy
       拉维尔·伊斯亚诺夫 Ravil Isyanov
       克里斯·莱蒙 Chris Lemmon
       泰姆·温特斯 Time Winters
       桑尼·瓦利森蒂 Sonny Valicenti
       朱迪·凯恩 Judy Kain
       蒂姆伦森 Tim Ransom
       萨尔·兰迪 Sal Landi
       莉莉·费舍尔 Lily Fisher
       史蒂夫·班诺斯 Steve Bannos
       罗伯·奈格尔 Rob Nagle
       迈克尔·马西尼 Michael Masini
       Ethan Cohn Ethan Cohn
       埃姆利·贝赫什蒂 Emil Beheshti
       米娅·麦戈文·扎伊尼 Mia McGovern Zaini
       埃里克·马特尼 Eric Matheny
       斯科特·希斯洛普 Scott Hislop
       安德鲁·塔切尔 Andrew Thacher
       瑞安·文森特 Ryan Vincent
       多米尼克·李德 Dominic Leeder
       Lidia Sabljic Lidia Sabljic
       布莱恩·科诺瓦尔 Brian Konowal
       塔特姆·尚客 Tatum Shank
       Marshall Watson Marshall Watson
       特蕾莎·雷扎迪 Tereza Rizzardi
       琳达·迈克尔斯 Linda Michaels
       亚历山德罗·佩德拉齐 Alessandro Pedrazzi
       亚历山大·卡内拉科斯 Alexander Kanellakos
       布拉德·皮特 Brad Pitt
       蔡斯·欧文 Chayse Irvin
       詹妮弗·约翰逊 Jennifer Johnson
◎简  介

  《金发梦露》改编自乔伊思·卡罗尔·奥特兹的畅销小说,大胆地再现了好莱坞最不朽的偶像之一玛丽莲·梦露的生活。从她作为诺玛·简的动荡童年,到她的明星地位和爱情纠葛,《金发梦露》模糊了事实和虚构的界限,探索了她的公众自我和私人自我之间日益扩大的割裂。该片由安德鲁·多米尼克担任编剧和导演,由安娜·德·阿玛斯领衔主演,其他演员阵容包括鲍比·坎纳瓦尔、艾德里安·布洛迪、朱丽安妮·尼科尔森、泽维尔·塞缪尔和埃文·威廉斯。
  1. Video
  2. ID                                       : 1
  3. Format                                   : HEVC
  4. Format/Info                              : High Efficiency Video Coding
  5. Format profile                           : Main [email protected]@Main
  6. HDR format                               : Dolby Vision, Version 1.0, dvhe.05.06, BL+RPU
  7. Codec ID                                 : V_MPEGH/ISO/HEVC
  8. Duration                                 : 2 h 47 min
  9. Bit rate                                 : 19.2 Mb/s
  10. Width                                    : 3 840 pixels
  11. Height                                   : 2 160 pixels
  12. Display aspect ratio                     : 16:9
  13. Frame rate mode                          : Constant
  14. Frame rate                               : 24.000 FPS
  15. Color space                              : YUV
  16. Chroma subsampling                       : 4:2:0
  17. Bit depth                                : 10 bits
  18. Bits/(Pixel*Frame)                       : 0.097
  19. Stream size                              : 22.5 GiB (96%)
  20. Language                                 : English
  21. Default                                  : Yes
  22. Forced                                   : No
  23. Color range                              : Full
  24. Audio
  25. ID                                       : 2
  26. Format                                   : E-AC-3 JOC
  27. Format/Info                              : Enhanced AC-3 with Joint Object Coding
  28. Commercial name                          : Dolby Digital Plus with Dolby Atmos
  29. Codec ID                                 : A_EAC3
  30. Duration                                 : 2 h 47 min
  31. Bit rate mode                            : Constant
  32. Bit rate                                 : 768 kb/s
  33. Channel(s)                               : 6 channels
  34. Channel layout                           : L R C LFE Ls Rs
  35. Sampling rate                            : 48.0 kHz
  36. Frame rate                               : 31.250 FPS (1536 SPF)
  37. Compression mode                         : Lossy
  38. Stream size                              : 920 MiB (4%)
  39. Language                                 : English
  40. Service kind                             : Complete Main
  41. Default                                  : Yes
  42. Forced                                   : No
  43. Complexity index                         : 16
  44. Number of dynamic objects                : 15
  45. Bed channel count                        : 1 channel
  46. Bed channel configuration                : LFE
  47. Text #1
  48. ID                                       : 3
  49. Format                                   : UTF-8
  50. Codec ID                                 : S_TEXT/UTF8
  51. Codec ID/Info                            : UTF-8 Plain Text
  52. Duration                                 : 2 h 35 min
  53. Bit rate                                 : 34 b/s
  54. Frame rate                               : 0.141 FPS
  55. Count of elements                        : 1319
  56. Stream size                              : 39.6 KiB (0%)
  57. Language                                 : English
  58. Default                                  : No
  59. Forced                                   : No
  60. Text #2
  61. ID                                       : 4
  62. Format                                   : UTF-8
  63. Codec ID                                 : S_TEXT/UTF8
  64. Codec ID/Info                            : UTF-8 Plain Text
  65. Duration                                 : 2 h 38 min
  66. Bit rate                                 : 44 b/s
  67. Frame rate                               : 0.178 FPS
  68. Count of elements                        : 1687
  69. Stream size                              : 51.2 KiB (0%)
  70. Title                                    : SDH
  71. Language                                 : English
  72. Default                                  : No
  73. Forced                                   : No
  74. Text #3
  75. ID                                       : 5
  76. Format                                   : UTF-8
  77. Codec ID                                 : S_TEXT/UTF8
  78. Codec ID/Info                            : UTF-8 Plain Text
  79. Duration                                 : 2 h 45 min
  80. Bit rate                                 : 54 b/s
  81. Frame rate                               : 0.142 FPS
  82. Count of elements                        : 1410
  83. Stream size                              : 66.6 KiB (0%)
  84. Language                                 : Arabic
  85. Default                                  : No
  86. Forced                                   : No
  87. Text #4
  88. ID                                       : 6
  89. Format                                   : UTF-8
  90. Codec ID                                 : S_TEXT/UTF8
  91. Codec ID/Info                            : UTF-8 Plain Text
  92. Duration                                 : 2 h 44 min
  93. Bit rate                                 : 33 b/s
  94. Frame rate                               : 0.138 FPS
  95. Count of elements                        : 1357
  96. Stream size                              : 40.8 KiB (0%)
  97. Language                                 : Catalan
  98. Default                                  : No
  99. Forced                                   : No
  100. Text #5
  101. ID                                       : 7
  102. Format                                   : UTF-8
  103. Codec ID                                 : S_TEXT/UTF8
  104. Codec ID/Info                            : UTF-8 Plain Text
  105. Duration                                 : 2 h 45 min
  106. Bit rate                                 : 30 b/s
  107. Frame rate                               : 0.136 FPS
  108. Count of elements                        : 1354
  109. Stream size                              : 36.9 KiB (0%)
  110. Language                                 : Czech
  111. Default                                  : No
  112. Forced                                   : No
  113. Text #6
  114. ID                                       : 8
  115. Format                                   : UTF-8
  116. Codec ID                                 : S_TEXT/UTF8
  117. Codec ID/Info                            : UTF-8 Plain Text
  118. Duration                                 : 2 h 45 min
  119. Bit rate                                 : 32 b/s
  120. Frame rate                               : 0.133 FPS
  121. Count of elements                        : 1325
  122. Stream size                              : 39.7 KiB (0%)
  123. Language                                 : Danish
  124. Default                                  : No
  125. Forced                                   : No
  126. Text #7
  127. ID                                       : 9
  128. Format                                   : UTF-8
  129. Codec ID                                 : S_TEXT/UTF8
  130. Codec ID/Info                            : UTF-8 Plain Text
  131. Duration                                 : 2 h 45 min
  132. Bit rate                                 : 31 b/s
  133. Frame rate                               : 0.131 FPS
  134. Count of elements                        : 1301
  135. Stream size                              : 38.7 KiB (0%)
  136. Language                                 : German
  137. Default                                  : No
  138. Forced                                   : No
  139. Text #8
  140. ID                                       : 10
  141. Format                                   : UTF-8
  142. Codec ID                                 : S_TEXT/UTF8
  143. Codec ID/Info                            : UTF-8 Plain Text
  144. Duration                                 : 2 h 45 min
  145. Bit rate                                 : 55 b/s
  146. Frame rate                               : 0.138 FPS
  147. Count of elements                        : 1368
  148. Stream size                              : 67.2 KiB (0%)
  149. Language                                 : Greek
  150. Default                                  : No
  151. Forced                                   : No
  152. Text #9
  153. ID                                       : 11
  154. Format                                   : UTF-8
  155. Codec ID                                 : S_TEXT/UTF8
  156. Codec ID/Info                            : UTF-8 Plain Text
  157. Duration                                 : 2 h 35 min
  158. Bit rate                                 : 36 b/s
  159. Frame rate                               : 0.161 FPS
  160. Count of elements                        : 1506
  161. Stream size                              : 41.1 KiB (0%)
  162. Title                                    : Latin American
  163. Language                                 : Spanish
  164. Default                                  : No
  165. Forced                                   : No
  166. Text #10
  167. ID                                       : 12
  168. Format                                   : UTF-8
  169. Codec ID                                 : S_TEXT/UTF8
  170. Codec ID/Info                            : UTF-8 Plain Text
  171. Duration                                 : 2 h 45 min
  172. Bit rate                                 : 32 b/s
  173. Frame rate                               : 0.136 FPS
  174. Count of elements                        : 1350
  175. Stream size                              : 39.6 KiB (0%)
  176. Title                                    : Latin American
  177. Language                                 : Spanish
  178. Default                                  : No
  179. Forced                                   : No
  180. Text #11
  181. ID                                       : 13
  182. Format                                   : UTF-8
  183. Codec ID                                 : S_TEXT/UTF8
  184. Codec ID/Info                            : UTF-8 Plain Text
  185. Duration                                 : 2 h 38 min
  186. Bit rate                                 : 42 b/s
  187. Frame rate                               : 0.189 FPS
  188. Count of elements                        : 1791
  189. Stream size                              : 48.8 KiB (0%)
  190. Title                                    : Latin American (SDH)
  191. Language                                 : Spanish
  192. Default                                  : No
  193. Forced                                   : No
  194. Text #12
  195. ID                                       : 14
  196. Format                                   : UTF-8
  197. Codec ID                                 : S_TEXT/UTF8
  198. Codec ID/Info                            : UTF-8 Plain Text
  199. Duration                                 : 2 h 45 min
  200. Bit rate                                 : 32 b/s
  201. Frame rate                               : 0.137 FPS
  202. Count of elements                        : 1363
  203. Stream size                              : 39.4 KiB (0%)
  204. Language                                 : Spanish
  205. Default                                  : No
  206. Forced                                   : No
  207. Text #13
  208. ID                                       : 15
  209. Format                                   : UTF-8
  210. Codec ID                                 : S_TEXT/UTF8
  211. Codec ID/Info                            : UTF-8 Plain Text
  212. Duration                                 : 2 h 45 min
  213. Bit rate                                 : 31 b/s
  214. Frame rate                               : 0.137 FPS
  215. Count of elements                        : 1360
  216. Stream size                              : 37.8 KiB (0%)
  217. Language                                 : Basque
  218. Default                                  : No
  219. Forced                                   : No
  220. Text #14
  221. ID                                       : 16
  222. Format                                   : UTF-8
  223. Codec ID                                 : S_TEXT/UTF8
  224. Codec ID/Info                            : UTF-8 Plain Text
  225. Duration                                 : 2 h 45 min
  226. Bit rate                                 : 31 b/s
  227. Frame rate                               : 0.132 FPS
  228. Count of elements                        : 1309
  229. Stream size                              : 38.1 KiB (0%)
  230. Language                                 : Finnish
  231. Default                                  : No
  232. Forced                                   : No
  233. Text #15
  234. ID                                       : 17
  235. Format                                   : UTF-8
  236. Codec ID                                 : S_TEXT/UTF8
  237. Codec ID/Info                            : UTF-8 Plain Text
  238. Duration                                 : 2 h 45 min
  239. Bit rate                                 : 35 b/s
  240. Frame rate                               : 0.135 FPS
  241. Count of elements                        : 1342
  242. Stream size                              : 42.5 KiB (0%)
  243. Language                                 : fil
  244. Default                                  : No
  245. Forced                                   : No
  246. Text #16
  247. ID                                       : 18
  248. Format                                   : UTF-8
  249. Codec ID                                 : S_TEXT/UTF8
  250. Codec ID/Info                            : UTF-8 Plain Text
  251. Duration                                 : 2 h 45 min
  252. Bit rate                                 : 31 b/s
  253. Frame rate                               : 0.138 FPS
  254. Count of elements                        : 1368
  255. Stream size                              : 38.0 KiB (0%)
  256. Language                                 : French
  257. Default                                  : No
  258. Forced                                   : No
  259. Text #17
  260. ID                                       : 19
  261. Format                                   : UTF-8
  262. Codec ID                                 : S_TEXT/UTF8
  263. Codec ID/Info                            : UTF-8 Plain Text
  264. Duration                                 : 2 h 45 min
  265. Bit rate                                 : 31 b/s
  266. Frame rate                               : 0.137 FPS
  267. Count of elements                        : 1364
  268. Stream size                              : 38.6 KiB (0%)
  269. Language                                 : Galician
  270. Default                                  : No
  271. Forced                                   : No
  272. Text #18
  273. ID                                       : 20
  274. Format                                   : UTF-8
  275. Codec ID                                 : S_TEXT/UTF8
  276. Codec ID/Info                            : UTF-8 Plain Text
  277. Duration                                 : 2 h 45 min
  278. Bit rate                                 : 50 b/s
  279. Frame rate                               : 0.137 FPS
  280. Count of elements                        : 1364
  281. Stream size                              : 61.6 KiB (0%)
  282. Language                                 : Hebrew
  283. Default                                  : No
  284. Forced                                   : No
  285. Text #19
  286. ID                                       : 21
  287. Format                                   : UTF-8
  288. Codec ID                                 : S_TEXT/UTF8
  289. Codec ID/Info                            : UTF-8 Plain Text
  290. Duration                                 : 2 h 45 min
  291. Bit rate                                 : 29 b/s
  292. Frame rate                               : 0.137 FPS
  293. Count of elements                        : 1357
  294. Stream size                              : 36.1 KiB (0%)
  295. Language                                 : Croatian
  296. Default                                  : No
  297. Forced                                   : No
  298. Text #20
  299. ID                                       : 22
  300. Format                                   : UTF-8
  301. Codec ID                                 : S_TEXT/UTF8
  302. Codec ID/Info                            : UTF-8 Plain Text
  303. Duration                                 : 2 h 45 min
  304. Bit rate                                 : 33 b/s
  305. Frame rate                               : 0.135 FPS
  306. Count of elements                        : 1342
  307. Stream size                              : 40.4 KiB (0%)
  308. Language                                 : Hungarian
  309. Default                                  : No
  310. Forced                                   : No
  311. Text #21
  312. ID                                       : 23
  313. Format                                   : UTF-8
  314. Codec ID                                 : S_TEXT/UTF8
  315. Codec ID/Info                            : UTF-8 Plain Text
  316. Duration                                 : 2 h 45 min
  317. Bit rate                                 : 32 b/s
  318. Frame rate                               : 0.137 FPS
  319. Count of elements                        : 1357
  320. Stream size                              : 39.8 KiB (0%)
  321. Language                                 : Indonesian
  322. Default                                  : No
  323. Forced                                   : No
  324. Text #22
  325. ID                                       : 24
  326. Format                                   : UTF-8
  327. Codec ID                                 : S_TEXT/UTF8
  328. Codec ID/Info                            : UTF-8 Plain Text
  329. Duration                                 : 2 h 45 min
  330. Bit rate                                 : 31 b/s
  331. Frame rate                               : 0.132 FPS
  332. Count of elements                        : 1307
  333. Stream size                              : 37.8 KiB (0%)
  334. Language                                 : Italian
  335. Default                                  : No
  336. Forced                                   : No
  337. Text #23
  338. ID                                       : 25
  339. Format                                   : UTF-8
  340. Codec ID                                 : S_TEXT/UTF8
  341. Codec ID/Info                            : UTF-8 Plain Text
  342. Duration                                 : 2 h 45 min
  343. Bit rate                                 : 33 b/s
  344. Frame rate                               : 0.130 FPS
  345. Count of elements                        : 1292
  346. Stream size                              : 40.7 KiB (0%)
  347. Language                                 : Japanese
  348. Default                                  : No
  349. Forced                                   : No
  350. Text #24
  351. ID                                       : 26
  352. Format                                   : UTF-8
  353. Codec ID                                 : S_TEXT/UTF8
  354. Codec ID/Info                            : UTF-8 Plain Text
  355. Duration                                 : 2 h 45 min
  356. Bit rate                                 : 37 b/s
  357. Frame rate                               : 0.138 FPS
  358. Count of elements                        : 1368
  359. Stream size                              : 45.9 KiB (0%)
  360. Language                                 : Korean
  361. Default                                  : No
  362. Forced                                   : No
  363. Text #25
  364. ID                                       : 27
  365. Format                                   : UTF-8
  366. Codec ID                                 : S_TEXT/UTF8
  367. Codec ID/Info                            : UTF-8 Plain Text
  368. Duration                                 : 2 h 45 min
  369. Bit rate                                 : 31 b/s
  370. Frame rate                               : 0.137 FPS
  371. Count of elements                        : 1358
  372. Stream size                              : 38.5 KiB (0%)
  373. Language                                 : Malay
  374. Default                                  : No
  375. Forced                                   : No
  376. Text #26
  377. ID                                       : 28
  378. Format                                   : UTF-8
  379. Codec ID                                 : S_TEXT/UTF8
  380. Codec ID/Info                            : UTF-8 Plain Text
  381. Duration                                 : 2 h 45 min
  382. Bit rate                                 : 30 b/s
  383. Frame rate                               : 0.135 FPS
  384. Count of elements                        : 1336
  385. Stream size                              : 36.9 KiB (0%)
  386. Language                                 : Norwegian Bokmal
  387. Default                                  : No
  388. Forced                                   : No
  389. Text #27
  390. ID                                       : 29
  391. Format                                   : UTF-8
  392. Codec ID                                 : S_TEXT/UTF8
  393. Codec ID/Info                            : UTF-8 Plain Text
  394. Duration                                 : 2 h 45 min
  395. Bit rate                                 : 29 b/s
  396. Frame rate                               : 0.129 FPS
  397. Count of elements                        : 1285
  398. Stream size                              : 36.3 KiB (0%)
  399. Language                                 : Dutch
  400. Default                                  : No
  401. Forced                                   : No
  402. Text #28
  403. ID                                       : 30
  404. Format                                   : UTF-8
  405. Codec ID                                 : S_TEXT/UTF8
  406. Codec ID/Info                            : UTF-8 Plain Text
  407. Duration                                 : 2 h 45 min
  408. Bit rate                                 : 30 b/s
  409. Frame rate                               : 0.128 FPS
  410. Count of elements                        : 1271
  411. Stream size                              : 36.5 KiB (0%)
  412. Language                                 : Polish
  413. Default                                  : No
  414. Forced                                   : No
  415. Text #29
  416. ID                                       : 31
  417. Format                                   : UTF-8
  418. Codec ID                                 : S_TEXT/UTF8
  419. Codec ID/Info                            : UTF-8 Plain Text
  420. Duration                                 : 2 h 45 min
  421. Bit rate                                 : 33 b/s
  422. Frame rate                               : 0.140 FPS
  423. Count of elements                        : 1393
  424. Stream size                              : 40.2 KiB (0%)
  425. Title                                    : Brazilian
  426. Language                                 : Portuguese
  427. Default                                  : No
  428. Forced                                   : No
  429. Text #30
  430. ID                                       : 32
  431. Format                                   : UTF-8
  432. Codec ID                                 : S_TEXT/UTF8
  433. Codec ID/Info                            : UTF-8 Plain Text
  434. Duration                                 : 2 h 45 min
  435. Bit rate                                 : 32 b/s
  436. Frame rate                               : 0.136 FPS
  437. Count of elements                        : 1348
  438. Stream size                              : 39.6 KiB (0%)
  439. Language                                 : Portuguese
  440. Default                                  : No
  441. Forced                                   : No
  442. Text #31
  443. ID                                       : 33
  444. Format                                   : UTF-8
  445. Codec ID                                 : S_TEXT/UTF8
  446. Codec ID/Info                            : UTF-8 Plain Text
  447. Duration                                 : 2 h 45 min
  448. Bit rate                                 : 37 b/s
  449. Frame rate                               : 0.137 FPS
  450. Count of elements                        : 1356
  451. Stream size                              : 45.1 KiB (0%)
  452. Language                                 : Romanian
  453. Default                                  : No
  454. Forced                                   : No
  455. Text #32
  456. ID                                       : 34
  457. Format                                   : UTF-8
  458. Codec ID                                 : S_TEXT/UTF8
  459. Codec ID/Info                            : UTF-8 Plain Text
  460. Duration                                 : 2 h 45 min
  461. Bit rate                                 : 53 b/s
  462. Frame rate                               : 0.143 FPS
  463. Count of elements                        : 1422
  464. Stream size                              : 65.1 KiB (0%)
  465. Language                                 : Russian
  466. Default                                  : No
  467. Forced                                   : No
  468. Text #33
  469. ID                                       : 35
  470. Format                                   : UTF-8
  471. Codec ID                                 : S_TEXT/UTF8
  472. Codec ID/Info                            : UTF-8 Plain Text
  473. Duration                                 : 2 h 45 min
  474. Bit rate                                 : 31 b/s
  475. Frame rate                               : 0.132 FPS
  476. Count of elements                        : 1308
  477. Stream size                              : 38.3 KiB (0%)
  478. Language                                 : Swedish
  479. Default                                  : No
  480. Forced                                   : No
  481. Text #34
  482. ID                                       : 36
  483. Format                                   : UTF-8
  484. Codec ID                                 : S_TEXT/UTF8
  485. Codec ID/Info                            : UTF-8 Plain Text
  486. Duration                                 : 2 h 45 min
  487. Bit rate                                 : 80 b/s
  488. Frame rate                               : 0.138 FPS
  489. Count of elements                        : 1365
  490. Stream size                              : 97.1 KiB (0%)
  491. Language                                 : Thai
  492. Default                                  : No
  493. Forced                                   : No
  494. Text #35
  495. ID                                       : 37
  496. Format                                   : UTF-8
  497. Codec ID                                 : S_TEXT/UTF8
  498. Codec ID/Info                            : UTF-8 Plain Text
  499. Duration                                 : 2 h 45 min
  500. Bit rate                                 : 33 b/s
  501. Frame rate                               : 0.136 FPS
  502. Count of elements                        : 1351
  503. Stream size                              : 40.7 KiB (0%)
  504. Language                                 : Turkish
  505. Default                                  : No
  506. Forced                                   : No
  507. Text #36
  508. ID                                       : 38
  509. Format                                   : UTF-8
  510. Codec ID                                 : S_TEXT/UTF8
  511. Codec ID/Info                            : UTF-8 Plain Text
  512. Duration                                 : 2 h 45 min
  513. Bit rate                                 : 50 b/s
  514. Frame rate                               : 0.137 FPS
  515. Count of elements                        : 1360
  516. Stream size                              : 60.7 KiB (0%)
  517. Language                                 : Ukrainian
  518. Default                                  : No
  519. Forced                                   : No
  520. Text #37
  521. ID                                       : 39
  522. Format                                   : UTF-8
  523. Codec ID                                 : S_TEXT/UTF8
  524. Codec ID/Info                            : UTF-8 Plain Text
  525. Duration                                 : 2 h 45 min
  526. Bit rate                                 : 46 b/s
  527. Frame rate                               : 0.138 FPS
  528. Count of elements                        : 1367
  529. Stream size                              : 56.1 KiB (0%)
  530. Language                                 : Vietnamese
  531. Default                                  : No
  532. Forced                                   : No
  533. Text #38
  534. ID                                       : 40
  535. Format                                   : UTF-8
  536. Codec ID                                 : S_TEXT/UTF8
  537. Codec ID/Info                            : UTF-8 Plain Text
  538. Duration                                 : 2 h 45 min
  539. Bit rate                                 : 33 b/s
  540. Frame rate                               : 0.138 FPS
  541. Count of elements                        : 1368
  542. Stream size                              : 41.1 KiB (0%)
  543. Title                                    : Simplified
  544. Language                                 : Chinese
  545. Default                                  : No
  546. Forced                                   : No
  547. Text #39
  548. ID                                       : 41
  549. Format                                   : UTF-8
  550. Codec ID                                 : S_TEXT/UTF8
  551. Codec ID/Info                            : UTF-8 Plain Text
  552. Duration                                 : 2 h 45 min
  553. Bit rate                                 : 32 b/s
  554. Frame rate                               : 0.142 FPS
  555. Count of elements                        : 1413
  556. Stream size                              : 39.6 KiB (0%)
  557. Title                                    : Traditional
  558. Language                                 : Chinese
  559. Default                                  : No
  560. Forced                                   : No
  561. Menu
  562. 02:43:13.000                             : en:End Credits
复制代码




                                       
                                       

                                       
                                       
                                       




Blonde.2022.2160p.NF.WEB-DL.DDP5.1.Atmos.DV.MKV.x265-SMURF.torrent (29.89 KB, 下载次数: 0)
回复

使用道具 举报

您需要登录后才可以回帖 登录 | 立即注册

本版积分规则

QQ|Archiver|手机版|小黑屋|蓝光电影网

GMT+8, 2023-2-8 02:51 , Processed in 0.056912 second(s), 28 queries .

Powered by Discuz! X3.4

Copyright © 2001-2020, Tencent Cloud.

快速回复 返回顶部 返回列表