找回密码
 立即注册

QQ登录

只需一步,快速开始

查看: 20|回复: 0

[其他] 回归 Volver.2006.SPANISH.2160p.BluRay.x265.10bit.SDR.DTS-HD.MA.5.1-SWTYBLZ 35.35GB

[复制链接]

0

精华

0

好友

2

听众

新手上路

Rank: 2

蓝光币
5
发表于 7 天前 | 显示全部楼层 |阅读模式
[img][/img]

◎标  题 回归
◎译  名 浮花(港) / 玩美女人(台) / To Return
◎片  名 Volver
◎年  代 2006
◎产  地 西班牙
◎类  别 剧情 / 喜剧 / 悬疑 / 犯罪
◎语  言 西班牙语
◎上映日期 2006-03-17(西班牙)
◎IMDb评分 7.6/10 (98441人评价)
◎IMDb链接 https://www.imdb.com/title/tt0441909/
◎豆瓣评分 8.2/10 (41108人评价)
◎豆瓣链接 https://movie.douban.com/subject/1689787/
◎片  长 121 分钟
◎导  演 佩德罗·阿莫多瓦 Pedro Almodóvar
◎编  剧 佩德罗·阿莫多瓦 Pedro Almodóvar
◎演  员 佩内洛普·克鲁兹 Penélope Cruz
       卡门·毛拉 Carmen Maura
       洛拉·杜埃尼亚斯 Lola Dueñas
       布兰卡·波蒂略 Blanca Portillo
       约阿娜·科沃 Yohana Cobo
       丘斯·兰普雷亚维 Chus Lampreave
       安东尼奥·德·拉·托雷 Antonio de la Torre
       卡洛斯·布兰科 Carlos Blanco
       阿古斯丁·阿莫多瓦 Agustín Almodóvar
       友兰达·拉莫斯 Yolanda Ramos
       佩拉·卡斯特罗 Pilar Castro
       玛利亚·迪亚兹 María Isabel Díaz
       莱昂德洛·里维拉 Leandro Rivera
       内乌丝·桑兹 Neus Sanz
       卡门·马奇 Carmen Machi
        Carlos García Cambero
       阿古斯丁·阿莫多瓦 Agustín Almodóvar
       埃丝特·加西亚 Esther García
       阿尔维托·伊格莱西亚斯 Alberto Iglesias
       何塞·路易斯·阿尔凯内 José Luis Alcaine
       何塞·萨尔赛多 José Salcedo
       路易斯·纳斯克 Luis San Narciso
       Salvador Parra Salvador Parra
       佩纳·戴格勒 Bina Daigeler
       Ana Lozano Ana Lozano
       Mariló Osuna Mariló Osuna
       Massimo Gattabrusi Massimo Gattabrusi
       Thorsten Rienth Thorsten Rienth
       Ramón Ramos Ramón Ramos
       Eduardo Díaz Eduardo Díaz
◎标  签 西班牙 / 阿莫多瓦 / 女性 / 西班牙电影 / PedroAlmodóvar / 阿尔莫多瓦 / 2006 / 剧情
◎简  介

  雷蒙黛(佩内洛普•克鲁兹 Penélope Cruz饰)和他的酒鬼丈夫、年轻女儿共住,生活却不像别人平静。 雷蒙黛有个姐姐索尔(劳拉•杜纳丝 Lola Dueñas饰),小时候两人和父母生活贫寒。父母在一场火灾后遇难后,两姊妹就搬到了马德里生活,为着各自生活已经渐渐疏远。然而,一场意外和一个鬼魂,打破了两姐妹平静的生活。
  1. Video
  2. ID                                       : 1
  3. Format                                   : HEVC
  4. Format/Info                              : High Efficiency Video Coding
  5. Format profile                           : Main [email protected]@High
  6. Codec ID                                 : V_MPEGH/ISO/HEVC
  7. Duration                                 : 2 h 0 min
  8. Bit rate                                 : 38.8 Mb/s
  9. Width                                    : 3 840 pixels
  10. Height                                   : 1 634 pixels
  11. Display aspect ratio                     : 2.35:1
  12. Frame rate mode                          : Constant
  13. Frame rate                               : 23.976 (24000/1001/189150) FPS
  14. Color space                              : YUV
  15. Chroma subsampling                       : 4:2:0
  16. Bit depth                                : 10 bits
  17. Bits/(Pixel*Frame)                       : 0.258
  18. Stream size                              : 32.8 GiB (93%)
  19. Writing library                          : x265 3.0ed72af837053:[Windows][GCC 8.2.0][64 bit] 10bit
  20. Encoding settings                        : cpuid=1111039 / frame-threads=6 / numa-pools=40 / wpp / no-pmode / no-pme / no-psnr / no-ssim / log-level=2 / input-csp=1 / input-res=3840x1634 / interlace=0 / total-frames=173832 / level-idc=51 / high-tier=1 / uhd-bd=0 / ref=3 / no-allow-non-conformance / repeat-headers / annexb / aud / hrd / info / hash=0 / no-temporal-layers / no-open-gop / min-keyint=1 / keyint=24 / gop-lookahead=0 / bframes=4 / b-adapt=2 / b-pyramid / bframe-bias=0 / rc-lookahead=25 / lookahead-slices=4 / scenecut=40 / radl=0 / no-splice / no-intra-refresh / ctu=64 / min-cu-size=8 / no-rect / no-amp / max-tu-size=32 / tu-inter-depth=1 / tu-intra-depth=1 / limit-tu=0 / rdoq-level=0 / dynamic-rd=0.00 / no-ssim-rd / signhide / no-tskip / nr-intra=0 / nr-inter=0 / no-constrained-intra / strong-intra-smoothing / max-merge=2 / limit-refs=3 / no-limit-modes / me=1 / subme=2 / merange=57 / temporal-mvp / weightp / no-weightb / no-analyze-src-pics / deblock=0:0 / no-sao / no-sao-non-deblock / rd=3 / no-early-skip / rskip / no-fast-intra / no-tskip-fast / no-cu-lossless / no-b-intra / no-splitrd-skip / rdpenalty=0 / psy-rd=2.00 / psy-rdoq=0.00 / no-rd-refine / no-lossless / cbqpoffs=0 / crqpoffs=0 / rc=crf / crf=16.0 / qcomp=0.60 / qpstep=4 / stats-write=0 / stats-read=0 / vbv-maxrate=160000 / vbv-bufsize=160000 / vbv-init=0.9 / crf-max=0.0 / crf-min=0.0 / ipratio=1.40 / pbratio=1.30 / aq-mode=1 / aq-strength=1.00 / cutree / zone-count=0 / no-strict-cbr / qg-size=32 / no-rc-grain / qpmax=69 / qpmin=0 / no-const-vbv / sar=1 / overscan=0 / videoformat=5 / range=0 / colorprim=2 / transfer=2 / colormatrix=2 / chromaloc=0 / display-window=0 / max-cll=0,0 / min-luma=0 / max-luma=1023 / log2-max-poc-lsb=8 / vui-timing-info / vui-hrd-info / slices=1 / opt-qp-pps / opt-ref-list-length-pps / no-multi-pass-opt-rps / scenecut-bias=0.05 / no-opt-cu-delta-qp / no-aq-motion / no-hdr / no-hdr-opt / no-dhdr10-opt / no-idr-recovery-sei / analysis-reuse-level=5 / scale-factor=0 / refine-intra=0 / refine-inter=0 / refine-mv=0 / refine-ctu-distortion=0 / no-limit-sao / ctu-info=0 / no-lowpass-dct / refine-analysis-type=0 / copy-pic=1 / max-ausize-factor=1.0 / no-dynamic-refine / no-single-sei / no-hevc-aq / qp-adaptation-range=1.00
  21. Default                                  : Yes
  22. Forced                                   : No

  23. Audio #1
  24. ID                                       : 2
  25. ID in the original source medium         : 4352 (0x1100)
  26. Format                                   : DTS XLL
  27. Format/Info                              : Digital Theater Systems
  28. Commercial name                          : DTS-HD Master Audio
  29. Codec ID                                 : A_DTS
  30. Duration                                 : 2 h 0 min
  31. Bit rate mode                            : Variable
  32. Bit rate                                 : 2 144 kb/s
  33. Channel(s)                               : 6 channels
  34. Channel layout                           : C L R Ls Rs LFE
  35. Sampling rate                            : 48.0 kHz
  36. Frame rate                               : 93.750 FPS (512 SPF)
  37. Bit depth                                : 16 bits
  38. Compression mode                         : Lossless
  39. Stream size                              : 1.81 GiB (5%)
  40. Title                                    : DTS-HD MA 5.1
  41. Language                                 : Spanish
  42. Default                                  : Yes
  43. Forced                                   : No
  44. Original source medium                   : Blu-ray

  45. Audio #2
  46. ID                                       : 3
  47. Format                                   : AC-3
  48. Format/Info                              : Audio Coding 3
  49. Commercial name                          : Dolby Digital
  50. Codec ID                                 : A_AC3
  51. Duration                                 : 2 h 0 min
  52. Bit rate mode                            : Constant
  53. Bit rate                                 : 640 kb/s
  54. Channel(s)                               : 6 channels
  55. Channel layout                           : L R C LFE Ls Rs
  56. Sampling rate                            : 48.0 kHz
  57. Frame rate                               : 31.250 FPS (1536 SPF)
  58. Compression mode                         : Lossy
  59. Stream size                              : 553 MiB (2%)
  60. Title                                    : DD 5.1
  61. Language                                 : Spanish
  62. Service kind                             : Complete Main
  63. Default                                  : No
  64. Forced                                   : No

  65. Text #1
  66. ID                                       : 4
  67. Format                                   : UTF-8
  68. Codec ID                                 : S_TEXT/UTF8
  69. Codec ID/Info                            : UTF-8 Plain Text
  70. Duration                                 : 1 h 52 min
  71. Bit rate                                 : 56 b/s
  72. Frame rate                               : 0.232 FPS
  73. Count of elements                        : 1564
  74. Stream size                              : 46.8 KiB (0%)
  75. Language                                 : English
  76. Default                                  : Yes
  77. Forced                                   : No

  78. Text #2
  79. ID                                       : 5
  80. Format                                   : UTF-8
  81. Codec ID                                 : S_TEXT/UTF8
  82. Codec ID/Info                            : UTF-8 Plain Text
  83. Duration                                 : 1 h 53 min
  84. Bit rate                                 : 59 b/s
  85. Frame rate                               : 0.245 FPS
  86. Count of elements                        : 1666
  87. Stream size                              : 49.6 KiB (0%)
  88. Title                                    : SDH
  89. Language                                 : English
  90. Default                                  : No
  91. Forced                                   : No

  92. Text #3
  93. ID                                       : 6
  94. ID in the original source medium         : 4768 (0x12A0)
  95. Format                                   : PGS
  96. Muxing mode                              : zlib
  97. Codec ID                                 : S_HDMV/PGS
  98. Codec ID/Info                            : Picture based subtitle format used on BDs/HD-DVDs
  99. Duration                                 : 1 h 53 min
  100. Bit rate                                 : 35.2 kb/s
  101. Frame rate                               : 0.507 FPS
  102. Count of elements                        : 3454
  103. Stream size                              : 28.6 MiB (0%)
  104. Language                                 : English
  105. Default                                  : No
  106. Forced                                   : No
  107. Original source medium                   : Blu-ray

  108. Text #4
  109. ID                                       : 7
  110. ID in the original source medium         : 4769 (0x12A1)
  111. Format                                   : PGS
  112. Muxing mode                              : zlib
  113. Codec ID                                 : S_HDMV/PGS
  114. Codec ID/Info                            : Picture based subtitle format used on BDs/HD-DVDs
  115. Duration                                 : 1 h 52 min
  116. Bit rate                                 : 32.8 kb/s
  117. Frame rate                               : 0.475 FPS
  118. Count of elements                        : 3200
  119. Stream size                              : 26.4 MiB (0%)
  120. Language                                 : English
  121. Default                                  : No
  122. Forced                                   : No
  123. Original source medium                   : Blu-ray

  124. Text #5
  125. ID                                       : 8
  126. ID in the original source medium         : 4770 (0x12A2)
  127. Format                                   : PGS
  128. Muxing mode                              : zlib
  129. Codec ID                                 : S_HDMV/PGS
  130. Codec ID/Info                            : Picture based subtitle format used on BDs/HD-DVDs
  131. Duration                                 : 1 h 55 min
  132. Bit rate                                 : 62.6 kb/s
  133. Frame rate                               : 0.601 FPS
  134. Count of elements                        : 4173
  135. Stream size                              : 51.8 MiB (0%)
  136. Language                                 : English
  137. Default                                  : No
  138. Forced                                   : No
  139. Original source medium                   : Blu-ray

  140. Menu
  141. 00:00:00.000                             : en:Chapter 01
  142. 00:07:44.005                             : en:Chapter 02
  143. 00:12:26.454                             : en:Chapter 03
  144. 00:22:26.178                             : en:Chapter 04
  145. 00:26:48.315                             : en:Chapter 05
  146. 00:34:35.656                             : en:Chapter 06
  147. 00:40:51.907                             : en:Chapter 07
  148. 00:49:41.853                             : en:Chapter 08
  149. 00:59:01.287                             : en:Chapter 09
  150. 01:08:01.535                             : en:Chapter 10
  151. 01:15:57.219                             : en:Chapter 11
  152. 01:24:18.386                             : en:Chapter 12
  153. 01:30:43.938                             : en:Chapter 13
  154. 01:38:45.085                             : en:Chapter 14
  155. 01:44:07.491                             : en:Chapter 15
  156. 01:49:36.361                             : en:Chapter 16
复制代码




                                       
                                       

                                       
                                       
                                       




Volver.2006.SPANISH.2160p.BluRay.x265.10bit.SDR.DTS-HD.MA.5.1-SWTYBLZ.torrent (44.91 KB, 下载次数: 0)
回复

使用道具 举报

您需要登录后才可以回帖 登录 | 立即注册

本版积分规则

QQ|Archiver|手机版|小黑屋|蓝光电影网

GMT+8, 2022-11-30 12:03 , Processed in 0.051795 second(s), 28 queries .

Powered by Discuz! X3.4

Copyright © 2001-2020, Tencent Cloud.

快速回复 返回顶部 返回列表