找回密码
 立即注册

QQ登录

只需一步,快速开始

查看: 92|回复: 0

[剧情片] 太太请小心轻放 电影版 Caution.Hazardous.Wife.The.Movie.2021.JAPANESE.1080p.BluRay.x264.DD5.1-HANDJOB 9.75GB

[复制链接]

0

精华

0

好友

2

听众

新手上路

Rank: 2

蓝光币
5
发表于 2022-9-20 07:07:49 | 显示全部楼层 |阅读模式
[img][/img]

◎标  题 太太请小心轻放 电影版
◎译  名 太太请小心轻放 剧场版
◎片  名 劇場版 奥様は、取り扱い注意
◎年  代 2021
◎产  地 日本
◎类  别 剧情 / 动作
◎语  言 日语
◎上映日期 2021-03-19(日本)
◎IMDb评分 5.7/10 (234人评价)
◎IMDb链接 https://www.imdb.com/title/tt11477842/
◎豆瓣评分 5.5/10 (1716人评价)
◎豆瓣链接 https://movie.douban.com/subject/27205125/
◎导  演 佐藤东弥 Tôya Satô
◎编  剧 真锅由纪子 Yukiko Manabe
◎演  员 绫濑遥 Haruka Ayase
       西岛秀俊 Hidetoshi Nishijima
       铃木浩介 Kosuke Suzuki
       冈田健史 Kenshi Okada
       前田敦子 Atsuko Maeda
       小日向文世 Fumiyo Kohinata
       鹤见辰吾 Shingo Tsurumi
       六平直政 Naomasa Musaka
       佐野史郎 Shirô Sano
       檀丽 Rei Dan
       中林大树 Taiki Nakabayashi
       浅利阳介 Asari Yousuke
       渕野右登 Yûto Fuchino
       田中聪元 Sogen Tanaka
       得田真裕 Masahiro Oda
       柳岛克己 Katsumi Yanagijima
◎简  介

  有着特殊工作经历的主妇伊佐山菜美,她的丈夫是现役公安警察,同时也在每日监视着她。二人改了名字搬到了珠海市开始了新生活。就在珠海市发现了新能源,为了保护海洋而阻挠开发的反对派,和以市长为首的推进派,两方斗争日益激化。而在新能源开发的背后,其实是俄罗斯和其他勾结国家的阴谋,公安潜入其中意图阻止。其实就在半年前,菜美因为某件事丧失了记忆。恢复菜美记忆就意味着要让相爱的二人遭遇生离死别。被过去困扰、被国家追查,菜美逐渐被卷入了风暴之中。
  1. Video
  2. ID                                       : 1
  3. Format                                   : AVC
  4. Format/Info                              : Advanced Video Codec
  5. Format profile                           : [email protected]
  6. Format settings                          : CABAC / 5 Ref Frames
  7. Format settings, CABAC                   : Yes
  8. Format settings, Reference frames        : 5 frames
  9. Codec ID                                 : V_MPEG4/ISO/AVC
  10. Duration                                 : 2 h 0 min
  11. Bit rate                                 : 10.9 Mb/s
  12. Width                                    : 1 920 pixels
  13. Height                                   : 804 pixels
  14. Display aspect ratio                     : 2.40:1
  15. Frame rate mode                          : Constant
  16. Frame rate                               : 23.976 (24000/1001/189150) FPS
  17. Color space                              : YUV
  18. Chroma subsampling                       : 4:2:0
  19. Bit depth                                : 8 bits
  20. Scan type                                : Progressive
  21. Bits/(Pixel*Frame)                       : 0.296
  22. Stream size                              : 9.19 GiB (94%)
  23. Writing library                          : x264 core 164 r3065 ae03d92
  24. Encoding settings                        : cabac=1 / ref=5 / deblock=1:-3:-3 / analyse=0x3:0x133 / me=umh / subme=10 / psy=1 / psy_rd=1.00:0.00 / mixed_ref=1 / me_range=32 / chroma_me=1 / trellis=2 / 8x8dct=1 / cqm=0 / deadzone=21,11 / fast_pskip=0 / chroma_qp_offset=-2 / threads=24 / lookahead_threads=6 / sliced_threads=0 / nr=0 / decimate=0 / interlaced=0 / bluray_compat=0 / constrained_intra=0 / bframes=16 / b_pyramid=2 / b_adapt=2 / b_bias=0 / direct=3 / weightb=1 / open_gop=0 / weightp=2 / keyint=240 / keyint_min=24 / scenecut=40 / intra_refresh=0 / rc_lookahead=60 / rc=crf / mbtree=0 / crf=14.8 / qcomp=0.60 / qpmin=0 / qpmax=69 / qpstep=4 / vbv_maxrate=62500 / vbv_bufsize=78125 / crf_max=0.0 / nal_hrd=none / filler=0 / ip_ratio=1.40 / pb_ratio=1.30 / aq=2:1.00
  25. Default                                  : Yes
  26. Forced                                   : No
  27. Color range                              : Limited
  28. Color primaries                          : BT.709
  29. Transfer characteristics                 : BT.709
  30. Matrix coefficients                      : BT.709
  31. Audio
  32. ID                                       : 2
  33. Format                                   : AC-3
  34. Format/Info                              : Audio Coding 3
  35. Commercial name                          : Dolby Digital
  36. Codec ID                                 : A_AC3
  37. Duration                                 : 2 h 0 min
  38. Bit rate mode                            : Constant
  39. Bit rate                                 : 640 kb/s
  40. Channel(s)                               : 6 channels
  41. Channel layout                           : L R C LFE Ls Rs
  42. Sampling rate                            : 48.0 kHz
  43. Frame rate                               : 31.250 FPS (1536 SPF)
  44. Compression mode                         : Lossy
  45. Stream size                              : 550 MiB (6%)
  46. Language                                 : Japanese
  47. Service kind                             : Complete Main
  48. Default                                  : Yes
  49. Forced                                   : No
  50. Text #1
  51. ID                                       : 3
  52. Format                                   : UTF-8
  53. Codec ID                                 : S_TEXT/UTF8
  54. Codec ID/Info                            : UTF-8 Plain Text
  55. Duration                                 : 1 h 51 min
  56. Bit rate                                 : 25 b/s
  57. Frame rate                               : 0.125 FPS
  58. Count of elements                        : 833
  59. Stream size                              : 20.9 KiB (0%)
  60. Language                                 : English
  61. Default                                  : Yes
  62. Forced                                   : No
  63. Text #2
  64. ID                                       : 4
  65. Format                                   : PGS
  66. Muxing mode                              : zlib
  67. Codec ID                                 : S_HDMV/PGS
  68. Codec ID/Info                            : Picture based subtitle format used on BDs/HD-DVDs
  69. Duration                                 : 1 h 59 min
  70. Bit rate                                 : 73.5 kb/s
  71. Frame rate                               : 0.626 FPS
  72. Count of elements                        : 4480
  73. Stream size                              : 62.7 MiB (1%)
  74. Language                                 : Japanese
  75. Default                                  : No
  76. Forced                                   : No
  77. Text #3
  78. ID                                       : 5
  79. Format                                   : ASS
  80. Codec ID                                 : S_TEXT/ASS
  81. Codec ID/Info                            : Advanced Sub Station Alpha
  82. Duration                                 : 1 h 54 min
  83. Bit rate                                 : 56 b/s
  84. Frame rate                               : 0.151 FPS
  85. Count of elements                        : 1038
  86. Compression mode                         : Lossless
  87. Stream size                              : 47.2 KiB (0%)
  88. Title                                    : Simplified Chinese
  89. Language                                 : Chinese
  90. Default                                  : No
  91. Forced                                   : No
  92. Text #4
  93. ID                                       : 6
  94. Format                                   : ASS
  95. Codec ID                                 : S_TEXT/ASS
  96. Codec ID/Info                            : Advanced Sub Station Alpha
  97. Duration                                 : 1 h 54 min
  98. Bit rate                                 : 56 b/s
  99. Frame rate                               : 0.151 FPS
  100. Count of elements                        : 1038
  101. Compression mode                         : Lossless
  102. Stream size                              : 47.2 KiB (0%)
  103. Title                                    : Traditional Chinese
  104. Language                                 : Chinese
  105. Default                                  : No
  106. Forced                                   : No
  107. Menu
  108. 00:00:00.000                             : :Chapter 1
  109. 00:00:24.024                             : :Chapter 2
  110. 00:03:47.686                             : :Chapter 3
  111. 00:08:24.421                             : :Chapter 4
  112. 00:11:17.552                             : :Chapter 5
  113. 00:14:18.566                             : :Chapter 6
  114. 00:19:12.652                             : :Chapter 7
  115. 00:24:00.022                             : :Chapter 8
  116. 00:29:42.656                             : :Chapter 9
  117. 00:33:56.618                             : :Chapter 10
  118. 00:35:40.639                             : :Chapter 11
  119. 00:39:29.367                             : :Chapter 12
  120. 00:42:43.978                             : :Chapter 13
  121. 00:48:36.664                             : :Chapter 14
  122. 00:53:09.978                             : :Chapter 15
  123. 00:59:19.181                             : :Chapter 16
  124. 01:01:31.313                             : :Chapter 17
  125. 01:02:59.776                             : :Chapter 18
  126. 01:04:25.904                             : :Chapter 19
  127. 01:07:16.658                             : :Chapter 20
  128. 01:13:57.600                             : :Chapter 21
  129. 01:16:13.152                             : :Chapter 22
  130. 01:18:13.606                             : :Chapter 23
  131. 01:19:22.341                             : :Chapter 24
  132. 01:24:41.910                             : :Chapter 25
  133. 01:28:04.571                             : :Chapter 26
  134. 01:33:03.953                             : :Chapter 27
  135. 01:36:41.296                             : :Chapter 28
  136. 01:39:44.479                             : :Chapter 29
  137. 01:43:36.877                             : :Chapter 30
  138. 01:47:35.908                             : :Chapter 31
  139. 01:51:01.530                             : :Chapter 32
  140. 01:53:23.797                             : :Chapter 33
  141. 01:56:11.548                             : :Chapter 34
复制代码




                                       
                                       

                                       
                                       
                                       




Caution.Hazardous.Wife.The.Movie.2021.JAPANESE.1080p.BluRay.x264.DD5.1-HANDJOB.torrent (25.09 KB, 下载次数: 0)
回复

使用道具 举报

您需要登录后才可以回帖 登录 | 立即注册

本版积分规则

QQ|Archiver|手机版|小黑屋|蓝光电影网

GMT+8, 2022-12-1 21:39 , Processed in 0.053763 second(s), 28 queries .

Powered by Discuz! X3.4

Copyright © 2001-2020, Tencent Cloud.

快速回复 返回顶部 返回列表