找回密码
 立即注册

QQ登录

只需一步,快速开始

查看: 103|回复: 0

[动作片] 雷神4:爱与雷霆 Thor.Love.And.Thunder.2022.1080p.BluRay.x264.DTS-HD.MA.7.1-NOGRP 15.28GB

[复制链接]

0

精华

0

好友

2

听众

新手上路

Rank: 2

蓝光币
5
发表于 2022-9-20 07:06:58 | 显示全部楼层 |阅读模式
[img][/img]

◎标  题 雷神4:爱与雷霆
◎译  名 雷神4 / 雷神奇侠4:爱与雷霆(港) / 雷神索尔:爱与雷霆(台)
◎片  名 Thor: Love and Thunder
◎年  代 2022
◎产  地 美国 / 澳大利亚
◎类  别 动作 / 奇幻 / 冒险
◎语  言 英语
◎上映日期 2022(中国大陆) / 2022-07-06(中国香港) / 2022-07-08(美国)
◎IMDb链接 https://www.imdb.com/title/tt10648342/
◎豆瓣链接 https://movie.douban.com/subject/34477861/
◎片  长 119分钟
◎导  演 塔伊加·维迪提 Taika Waititi
◎编  剧 塔伊加·维迪提 Taika Waititi
       詹尼弗·凯廷·罗宾逊 Jennifer Kaytin Robinson
       斯坦·李 Stan Lee
◎演  员 克里斯·海姆斯沃斯 Chris Hemsworth
       娜塔莉·波特曼 Natalie Portman
       克里斯蒂安·贝尔 Christian Bale
       泰莎·汤普森 Tessa Thompson
       塔伊加·维迪提 Taika Waititi
       罗素·克劳 Russell Crowe
       杰米·亚历山大 Jaimie Alexander
       克里斯·帕拉特 Chris Pratt
       戴夫·巴蒂斯塔 Dave Bautista
       凯伦·吉兰 Karen Gillan
       庞·克莱门捷夫 Pom Klementieff
       肖恩·古恩 Sean Gunn
       范·迪塞尔 Vin Diesel
       布莱德利·库珀 Bradley Cooper
       本·法尔科内 Ben Falcone
       史蒂芬·库里 Stephen Curry
       鲍比·霍兰德·汉顿 Bobby Holland Hanton
       戴利·皮尔森 Daley Pearson
       西蒙·拉塞尔·比尔 Simon Russell Beale
       乔尼·布鲁 Jonny Brugh
       布鲁克·斯塔奇威尔 Brooke Satchwell
       埃尔莎·帕塔奇 Elsa Pataky
       埃莉扎·德苏扎 Eliza D'Souza
       卡恩·古尔杜尔 Kaan Guldur
       普里西拉·道伊西 Priscilla Doueihy
       斯蒂芬·亨特 Stephen Hunter
       印第安娜·伊万斯 Indiana Evans
       艾娃·卡约菲丽斯 Ava Caryofyllis
       本·辛克莱尔 Ben Sinclair
       博特·高登斯汀 Brett Goldstein
       卢克·海姆斯沃斯 Luke Hemsworth
       马特·达蒙 Matt Damon
       梅丽莎·麦卡西 Melissa McCarthy
       山姆·尼尔 Sam Neill
       马克·卡西米尔·戴妮奇斯 Mark Casimir Dyniewicz
       凯文·费奇 Kevin Feige
       马克·马瑟斯鲍夫 Mark Mothersbaugh
       玛耶斯·C·鲁贝奥 Mayes C. Rubeo
◎简  介

  影片故事发在在《复仇者联盟4:终局之战》事件之后,雷神索尔(克里斯·海姆斯沃斯 饰)踏上了一段他从未经历过的旅程:找回自我。但索尔的退休计划却被企图消灭众神的屠神者格尔(克里斯蒂安·贝尔 饰)打断,他只好与女武神瓦尔基里(泰莎·汤普森 饰)和寇格(塔伊加·维迪提 饰)再次联手,其间更发现自己八年未见的前女友简·福斯特(娜塔莉·波特曼 饰)获得了雷神之力、挥舞着多年前在自己面前毁灭的雷神之锤,令索尔惊讶不已。他们一起踏上了星际冒险,以揭开格尔的复仇之谜,并在为时已晚之前阻止他。
  1. Video
  2. ID                                       : 1
  3. Format                                   : AVC
  4. Format/Info                              : Advanced Video Codec
  5. Format profile                           : [email protected]
  6. Format settings                          : CABAC / 5 Ref Frames
  7. Format settings, CABAC                   : Yes
  8. Format settings, Reference frames        : 5 frames
  9. Codec ID                                 : V_MPEG4/ISO/AVC
  10. Duration                                 : 1 h 58 min
  11. Bit rate                                 : 14.2 Mb/s
  12. Width                                    : 1 920 pixels
  13. Height                                   : 804 pixels
  14. Display aspect ratio                     : 2.40:1
  15. Frame rate mode                          : Constant
  16. Frame rate                               : 23.976 (24000/1001/189150) FPS
  17. Color space                              : YUV
  18. Chroma subsampling                       : 4:2:0
  19. Bit depth                                : 8 bits
  20. Scan type                                : Progressive
  21. Bits/(Pixel*Frame)                       : 0.383
  22. Stream size                              : 11.8 GiB (77%)
  23. Writing library                          : x264 core 164 r3075+55M t_mod
  24. Encoding settings                        : cabac=1 / ref=5 / deblock=1:-3:-3 / analyse=0x3:0x133 / me=umh / subme=10 / psy=1 / fade_compensate=0.00 / psy_rd=1.00:0.00 / mixed_ref=1 / me_range=32 / chroma_me=1 / trellis=2 / 8x8dct=1 / cqm=0 / deadzone=21,11 / fast_pskip=0 / chroma_qp_offset=-2 / threads=12 / lookahead_threads=2 / sliced_threads=0 / nr=0 / decimate=0 / interlaced=0 / bluray_compat=0 / constrained_intra=0 / fgo=0 / bframes=9 / b_pyramid=2 / b_adapt=2 / b_bias=0 / direct=3 / weightb=1 / open_gop=0 / weightp=2 / keyint=250 / keyint_min=23 / scenecut=40 / intra_refresh=0 / rc=crf / mbtree=0 / crf=14.5000 / qcomp=0.60 / qpmin=0:0:0 / qpmax=69:69:69 / qpstep=4 / ip_ratio=1.30 / pb_ratio=1.20 / aq=3:0.85 / aq-sensitivity=10.00 / aq-factor=1.00:1.00:1.00 / aq2=0 / aq3=0
  25. Language                                 : English
  26. Default                                  : Yes
  27. Forced                                   : No
  28. Audio #1
  29. ID                                       : 2
  30. Format                                   : DTS XLL
  31. Format/Info                              : Digital Theater Systems
  32. Commercial name                          : DTS-HD Master Audio
  33. Codec ID                                 : A_DTS
  34. Duration                                 : 1 h 58 min
  35. Bit rate mode                            : Variable
  36. Bit rate                                 : 3 921 kb/s
  37. Channel(s)                               : 8 channels
  38. Channel layout                           : C L R LFE Lb Rb Lss Rss
  39. Sampling rate                            : 48.0 kHz
  40. Frame rate                               : 93.750 FPS (512 SPF)
  41. Bit depth                                : 24 bits
  42. Compression mode                         : Lossless
  43. Stream size                              : 3.25 GiB (21%)
  44. Title                                    : DTS-HD MA 7.1
  45. Language                                 : English
  46. Default                                  : No
  47. Forced                                   : No
  48. Audio #2
  49. ID                                       : 3
  50. Format                                   : AC-3
  51. Format/Info                              : Audio Coding 3
  52. Commercial name                          : Dolby Digital
  53. Codec ID                                 : A_AC3
  54. Duration                                 : 1 h 58 min
  55. Bit rate mode                            : Constant
  56. Bit rate                                 : 192 kb/s
  57. Channel(s)                               : 2 channels
  58. Channel layout                           : L R
  59. Sampling rate                            : 48.0 kHz
  60. Frame rate                               : 31.250 FPS (1536 SPF)
  61. Compression mode                         : Lossy
  62. Stream size                              : 163 MiB (1%)
  63. Title                                    : Commentary by writer/director Taika Waititi
  64. Language                                 : English
  65. Service kind                             : Complete Main
  66. Default                                  : Yes
  67. Forced                                   : No
  68. Text #1
  69. ID                                       : 4
  70. Format                                   : UTF-8
  71. Codec ID                                 : S_TEXT/UTF8
  72. Codec ID/Info                            : UTF-8 Plain Text
  73. Duration                                 : 1 h 57 min
  74. Bit rate                                 : 56 b/s
  75. Frame rate                               : 0.252 FPS
  76. Count of elements                        : 1782
  77. Stream size                              : 48.8 KiB (0%)
  78. Language                                 : English
  79. Default                                  : Yes
  80. Forced                                   : No
  81. Text #2
  82. ID                                       : 5
  83. Format                                   : UTF-8
  84. Codec ID                                 : S_TEXT/UTF8
  85. Codec ID/Info                            : UTF-8 Plain Text
  86. Duration                                 : 1 h 58 min
  87. Bit rate                                 : 69 b/s
  88. Frame rate                               : 0.319 FPS
  89. Count of elements                        : 2262
  90. Stream size                              : 60.2 KiB (0%)
  91. Title                                    : SDH
  92. Language                                 : English
  93. Default                                  : No
  94. Forced                                   : No
  95. Text #3
  96. ID                                       : 6
  97. Format                                   : UTF-8
  98. Codec ID                                 : S_TEXT/UTF8
  99. Codec ID/Info                            : UTF-8 Plain Text
  100. Duration                                 : 1 h 57 min
  101. Bit rate                                 : 48 b/s
  102. Frame rate                               : 0.227 FPS
  103. Count of elements                        : 1607
  104. Stream size                              : 41.8 KiB (0%)
  105. Language                                 : Czech
  106. Default                                  : No
  107. Forced                                   : No
  108. Text #4
  109. ID                                       : 7
  110. Format                                   : UTF-8
  111. Codec ID                                 : S_TEXT/UTF8
  112. Codec ID/Info                            : UTF-8 Plain Text
  113. Duration                                 : 1 h 57 min
  114. Bit rate                                 : 44 b/s
  115. Frame rate                               : 0.140 FPS
  116. Count of elements                        : 990
  117. Stream size                              : 38.4 KiB (0%)
  118. Language                                 : Danish
  119. Default                                  : No
  120. Forced                                   : No
  121. Text #5
  122. ID                                       : 8
  123. Format                                   : UTF-8
  124. Codec ID                                 : S_TEXT/UTF8
  125. Codec ID/Info                            : UTF-8 Plain Text
  126. Duration                                 : 1 h 57 min
  127. Bit rate                                 : 50 b/s
  128. Frame rate                               : 0.196 FPS
  129. Count of elements                        : 1388
  130. Stream size                              : 43.4 KiB (0%)
  131. Language                                 : Dutch
  132. Default                                  : No
  133. Forced                                   : No
  134. Text #6
  135. ID                                       : 9
  136. Format                                   : UTF-8
  137. Codec ID                                 : S_TEXT/UTF8
  138. Codec ID/Info                            : UTF-8 Plain Text
  139. Duration                                 : 1 h 57 min
  140. Bit rate                                 : 55 b/s
  141. Frame rate                               : 0.227 FPS
  142. Count of elements                        : 1606
  143. Stream size                              : 47.6 KiB (0%)
  144. Language                                 : Finnish
  145. Default                                  : No
  146. Forced                                   : No
  147. Text #7
  148. ID                                       : 10
  149. Format                                   : UTF-8
  150. Codec ID                                 : S_TEXT/UTF8
  151. Codec ID/Info                            : UTF-8 Plain Text
  152. Duration                                 : 1 h 57 min
  153. Bit rate                                 : 45 b/s
  154. Frame rate                               : 0.213 FPS
  155. Count of elements                        : 1504
  156. Stream size                              : 39.0 KiB (0%)
  157. Language                                 : French
  158. Default                                  : No
  159. Forced                                   : No
  160. Text #8
  161. ID                                       : 11
  162. Format                                   : UTF-8
  163. Codec ID                                 : S_TEXT/UTF8
  164. Codec ID/Info                            : UTF-8 Plain Text
  165. Duration                                 : 1 h 57 min
  166. Bit rate                                 : 46 b/s
  167. Frame rate                               : 0.208 FPS
  168. Count of elements                        : 1472
  169. Stream size                              : 40.5 KiB (0%)
  170. Language                                 : German
  171. Default                                  : No
  172. Forced                                   : No
  173. Text #9
  174. ID                                       : 12
  175. Format                                   : UTF-8
  176. Codec ID                                 : S_TEXT/UTF8
  177. Codec ID/Info                            : UTF-8 Plain Text
  178. Duration                                 : 1 h 57 min
  179. Bit rate                                 : 88 b/s
  180. Frame rate                               : 0.227 FPS
  181. Count of elements                        : 1602
  182. Stream size                              : 76.7 KiB (0%)
  183. Language                                 : Greek
  184. Default                                  : No
  185. Forced                                   : No
  186. Text #10
  187. ID                                       : 13
  188. Format                                   : UTF-8
  189. Codec ID                                 : S_TEXT/UTF8
  190. Codec ID/Info                            : UTF-8 Plain Text
  191. Duration                                 : 1 h 57 min
  192. Bit rate                                 : 46 b/s
  193. Frame rate                               : 0.228 FPS
  194. Count of elements                        : 1611
  195. Stream size                              : 40.5 KiB (0%)
  196. Language                                 : Hungarian
  197. Default                                  : No
  198. Forced                                   : No
  199. Text #11
  200. ID                                       : 14
  201. Format                                   : UTF-8
  202. Codec ID                                 : S_TEXT/UTF8
  203. Codec ID/Info                            : UTF-8 Plain Text
  204. Duration                                 : 1 h 57 min
  205. Bit rate                                 : 51 b/s
  206. Frame rate                               : 0.226 FPS
  207. Count of elements                        : 1601
  208. Stream size                              : 44.7 KiB (0%)
  209. Language                                 : Icelandic
  210. Default                                  : No
  211. Forced                                   : No
  212. Text #12
  213. ID                                       : 15
  214. Format                                   : UTF-8
  215. Codec ID                                 : S_TEXT/UTF8
  216. Codec ID/Info                            : UTF-8 Plain Text
  217. Duration                                 : 1 h 57 min
  218. Bit rate                                 : 56 b/s
  219. Frame rate                               : 0.227 FPS
  220. Count of elements                        : 1607
  221. Stream size                              : 48.8 KiB (0%)
  222. Language                                 : Italian
  223. Default                                  : No
  224. Forced                                   : No
  225. Text #13
  226. ID                                       : 16
  227. Format                                   : UTF-8
  228. Codec ID                                 : S_TEXT/UTF8
  229. Codec ID/Info                            : UTF-8 Plain Text
  230. Duration                                 : 1 h 57 min
  231. Bit rate                                 : 47 b/s
  232. Frame rate                               : 0.228 FPS
  233. Count of elements                        : 1612
  234. Stream size                              : 41.3 KiB (0%)
  235. Language                                 : Norwegian
  236. Default                                  : No
  237. Forced                                   : No
  238. Text #14
  239. ID                                       : 17
  240. Format                                   : UTF-8
  241. Codec ID                                 : S_TEXT/UTF8
  242. Codec ID/Info                            : UTF-8 Plain Text
  243. Duration                                 : 1 h 57 min
  244. Bit rate                                 : 42 b/s
  245. Frame rate                               : 0.228 FPS
  246. Count of elements                        : 1610
  247. Stream size                              : 37.0 KiB (0%)
  248. Language                                 : Polish
  249. Default                                  : No
  250. Forced                                   : No
  251. Text #15
  252. ID                                       : 18
  253. Format                                   : UTF-8
  254. Codec ID                                 : S_TEXT/UTF8
  255. Codec ID/Info                            : UTF-8 Plain Text
  256. Duration                                 : 1 h 58 min
  257. Bit rate                                 : 52 b/s
  258. Frame rate                               : 0.221 FPS
  259. Count of elements                        : 1573
  260. Stream size                              : 45.8 KiB (0%)
  261. Language                                 : Portuguese
  262. Default                                  : No
  263. Forced                                   : No
  264. Text #16
  265. ID                                       : 19
  266. Format                                   : UTF-8
  267. Codec ID                                 : S_TEXT/UTF8
  268. Codec ID/Info                            : UTF-8 Plain Text
  269. Duration                                 : 1 h 57 min
  270. Bit rate                                 : 55 b/s
  271. Frame rate                               : 0.211 FPS
  272. Count of elements                        : 1492
  273. Stream size                              : 47.6 KiB (0%)
  274. Language                                 : Romanian
  275. Default                                  : No
  276. Forced                                   : No
  277. Text #17
  278. ID                                       : 20
  279. Format                                   : UTF-8
  280. Codec ID                                 : S_TEXT/UTF8
  281. Codec ID/Info                            : UTF-8 Plain Text
  282. Duration                                 : 1 h 57 min
  283. Bit rate                                 : 46 b/s
  284. Frame rate                               : 0.228 FPS
  285. Count of elements                        : 1612
  286. Stream size                              : 39.8 KiB (0%)
  287. Language                                 : Slovak
  288. Default                                  : No
  289. Forced                                   : No
  290. Text #18
  291. ID                                       : 21
  292. Format                                   : UTF-8
  293. Codec ID                                 : S_TEXT/UTF8
  294. Codec ID/Info                            : UTF-8 Plain Text
  295. Duration                                 : 1 h 57 min
  296. Bit rate                                 : 49 b/s
  297. Frame rate                               : 0.227 FPS
  298. Count of elements                        : 1603
  299. Stream size                              : 42.7 KiB (0%)
  300. Language                                 : Spanish
  301. Default                                  : No
  302. Forced                                   : No
  303. Text #19
  304. ID                                       : 22
  305. Format                                   : UTF-8
  306. Codec ID                                 : S_TEXT/UTF8
  307. Codec ID/Info                            : UTF-8 Plain Text
  308. Duration                                 : 1 h 57 min
  309. Bit rate                                 : 47 b/s
  310. Frame rate                               : 0.165 FPS
  311. Count of elements                        : 1166
  312. Stream size                              : 41.1 KiB (0%)
  313. Language                                 : Swedish
  314. Default                                  : No
  315. Forced                                   : No
  316. Text #20
  317. ID                                       : 23
  318. Format                                   : UTF-8
  319. Codec ID                                 : S_TEXT/UTF8
  320. Codec ID/Info                            : UTF-8 Plain Text
  321. Duration                                 : 1 h 57 min
  322. Bit rate                                 : 53 b/s
  323. Frame rate                               : 0.228 FPS
  324. Count of elements                        : 1609
  325. Stream size                              : 46.1 KiB (0%)
  326. Language                                 : Turkish
  327. Default                                  : No
  328. Forced                                   : No
  329. Text #21
  330. ID                                       : 24
  331. Format                                   : PGS
  332. Muxing mode                              : zlib
  333. Codec ID                                 : S_HDMV/PGS
  334. Codec ID/Info                            : Picture based subtitle format used on BDs/HD-DVDs
  335. Duration                                 : 1 h 58 min
  336. Bit rate                                 : 52.5 kb/s
  337. Frame rate                               : 0.641 FPS
  338. Count of elements                        : 4548
  339. Stream size                              : 44.4 MiB (0%)
  340. Title                                    : SDH
  341. Language                                 : English
  342. Default                                  : No
  343. Forced                                   : No
  344. Text #22
  345. ID                                       : 25
  346. Format                                   : PGS
  347. Muxing mode                              : zlib
  348. Codec ID                                 : S_HDMV/PGS
  349. Codec ID/Info                            : Picture based subtitle format used on BDs/HD-DVDs
  350. Duration                                 : 1 h 57 min
  351. Bit rate                                 : 27.2 kb/s
  352. Frame rate                               : 0.280 FPS
  353. Count of elements                        : 1980
  354. Stream size                              : 22.9 MiB (0%)
  355. Language                                 : Danish
  356. Default                                  : No
  357. Forced                                   : No
  358. Text #23
  359. ID                                       : 26
  360. Format                                   : PGS
  361. Muxing mode                              : zlib
  362. Codec ID                                 : S_HDMV/PGS
  363. Codec ID/Info                            : Picture based subtitle format used on BDs/HD-DVDs
  364. Duration                                 : 1 h 57 min
  365. Bit rate                                 : 31.6 kb/s
  366. Frame rate                               : 0.392 FPS
  367. Count of elements                        : 2772
  368. Stream size                              : 26.6 MiB (0%)
  369. Language                                 : Dutch
  370. Default                                  : No
  371. Forced                                   : No
  372. Text #24
  373. ID                                       : 27
  374. Format                                   : PGS
  375. Muxing mode                              : zlib
  376. Codec ID                                 : S_HDMV/PGS
  377. Codec ID/Info                            : Picture based subtitle format used on BDs/HD-DVDs
  378. Duration                                 : 1 h 57 min
  379. Bit rate                                 : 35.0 kb/s
  380. Frame rate                               : 0.453 FPS
  381. Count of elements                        : 3206
  382. Stream size                              : 29.5 MiB (0%)
  383. Language                                 : Finnish
  384. Default                                  : No
  385. Forced                                   : No
  386. Text #25
  387. ID                                       : 28
  388. Format                                   : PGS
  389. Muxing mode                              : zlib
  390. Codec ID                                 : S_HDMV/PGS
  391. Codec ID/Info                            : Picture based subtitle format used on BDs/HD-DVDs
  392. Duration                                 : 1 h 57 min
  393. Bit rate                                 : 27.5 kb/s
  394. Frame rate                               : 0.425 FPS
  395. Count of elements                        : 3006
  396. Stream size                              : 23.2 MiB (0%)
  397. Title                                    : Parisian
  398. Language                                 : French
  399. Default                                  : No
  400. Forced                                   : No
  401. Text #26
  402. ID                                       : 29
  403. Format                                   : PGS
  404. Muxing mode                              : zlib
  405. Codec ID                                 : S_HDMV/PGS
  406. Codec ID/Info                            : Picture based subtitle format used on BDs/HD-DVDs
  407. Duration                                 : 1 h 57 min
  408. Bit rate                                 : 38.7 kb/s
  409. Frame rate                               : 0.462 FPS
  410. Count of elements                        : 3270
  411. Stream size                              : 32.6 MiB (0%)
  412. Language                                 : French
  413. Default                                  : No
  414. Forced                                   : No
  415. Text #27
  416. ID                                       : 30
  417. Format                                   : PGS
  418. Muxing mode                              : zlib
  419. Codec ID                                 : S_HDMV/PGS
  420. Codec ID/Info                            : Picture based subtitle format used on BDs/HD-DVDs
  421. Duration                                 : 1 h 57 min
  422. Bit rate                                 : 30.5 kb/s
  423. Frame rate                               : 0.416 FPS
  424. Count of elements                        : 2940
  425. Stream size                              : 25.7 MiB (0%)
  426. Language                                 : German
  427. Default                                  : No
  428. Forced                                   : No
  429. Text #28
  430. ID                                       : 31
  431. Format                                   : PGS
  432. Muxing mode                              : zlib
  433. Codec ID                                 : S_HDMV/PGS
  434. Codec ID/Info                            : Picture based subtitle format used on BDs/HD-DVDs
  435. Duration                                 : 1 h 57 min
  436. Bit rate                                 : 23.9 kb/s
  437. Frame rate                               : 0.439 FPS
  438. Count of elements                        : 3106
  439. Stream size                              : 20.1 MiB (0%)
  440. Language                                 : Japanese
  441. Default                                  : No
  442. Forced                                   : No
  443. Text #29
  444. ID                                       : 32
  445. Format                                   : PGS
  446. Muxing mode                              : zlib
  447. Codec ID                                 : S_HDMV/PGS
  448. Codec ID/Info                            : Picture based subtitle format used on BDs/HD-DVDs
  449. Duration                                 : 1 h 57 min
  450. Bit rate                                 : 29.6 kb/s
  451. Frame rate                               : 0.455 FPS
  452. Count of elements                        : 3218
  453. Stream size                              : 25.0 MiB (0%)
  454. Language                                 : Norwegian
  455. Default                                  : No
  456. Forced                                   : No
  457. Text #30
  458. ID                                       : 33
  459. Format                                   : PGS
  460. Muxing mode                              : zlib
  461. Codec ID                                 : S_HDMV/PGS
  462. Codec ID/Info                            : Picture based subtitle format used on BDs/HD-DVDs
  463. Duration                                 : 1 h 57 min
  464. Bit rate                                 : 38.1 kb/s
  465. Frame rate                               : 0.456 FPS
  466. Count of elements                        : 3224
  467. Stream size                              : 32.1 MiB (0%)
  468. Title                                    : Latin American
  469. Language                                 : Spanish
  470. Default                                  : No
  471. Forced                                   : No
  472. Text #31
  473. ID                                       : 34
  474. Format                                   : PGS
  475. Muxing mode                              : zlib
  476. Codec ID                                 : S_HDMV/PGS
  477. Codec ID/Info                            : Picture based subtitle format used on BDs/HD-DVDs
  478. Duration                                 : 1 h 57 min
  479. Bit rate                                 : 28.7 kb/s
  480. Frame rate                               : 0.331 FPS
  481. Count of elements                        : 2338
  482. Stream size                              : 24.2 MiB (0%)
  483. Language                                 : Swedish
  484. Default                                  : No
  485. Forced                                   : No
  486. Menu
  487. 00:00:00.000                             : :Chapter 01
  488. 00:06:45.155                             : :Chapter 02
  489. 00:10:11.319                             : :Chapter 03
  490. 00:14:23.780                             : :Chapter 04
  491. 00:18:13.426                             : :Chapter 05
  492. 00:20:59.508                             : :Chapter 06
  493. 00:21:47.806                             : :Chapter 07
  494. 00:27:00.994                             : :Chapter 08
  495. 00:28:16.194                             : :Chapter 09
  496. 00:29:52.249                             : :Chapter 10
  497. 00:31:24.508                             : :Chapter 11
  498. 00:35:15.113                             : :Chapter 12
  499. 00:38:40.443                             : :Chapter 13
  500. 00:45:37.443                             : :Chapter 14
  501. 00:53:04.223                             : :Chapter 15
  502. 01:06:19.392                             : :Chapter 16
  503. 01:14:16.911                             : :Chapter 17
  504. 01:24:35.821                             : :Chapter 18
  505. 01:28:31.181                             : :Chapter 19
  506. 01:30:19.998                             : :Chapter 20
  507. 01:34:17.652                             : :Chapter 21
  508. 01:38:12.678                             : :Chapter 22
  509. 01:44:45.529                             : :Chapter 23
  510. 01:48:17.616                             : :Chapter 24
  511. 01:50:03.430                             : :Chapter 25
  512. 01:51:14.710                             : :Chapter 26
复制代码




                                       
                                       

                                       
                                       
                                       




Thor.Love.And.Thunder.2022.1080p.BluRay.x264.DTS-HD.MA.7.1-NOGRP.torrent (19.76 KB, 下载次数: 3)
回复

使用道具 举报

您需要登录后才可以回帖 登录 | 立即注册

本版积分规则

QQ|Archiver|手机版|小黑屋|蓝光电影网

GMT+8, 2022-12-1 20:29 , Processed in 0.059499 second(s), 28 queries .

Powered by Discuz! X3.4

Copyright © 2001-2020, Tencent Cloud.

快速回复 返回顶部 返回列表