找回密码
 立即注册

QQ登录

只需一步,快速开始

查看: 53|回复: 0

[喜剧片] 去西部吧年轻人 Go.West.Young.Man.1936.720p.BluRay.x264-ORBS 3.64GB

[复制链接]

0

精华

0

好友

2

听众

新手上路

Rank: 2

蓝光币
5
发表于 2022-5-7 06:54:27 | 显示全部楼层 |阅读模式


◎译  名 去西部吧年轻人 / 银星艳史
◎片  名 Go West Young Man
◎年  代 1936
◎产  地 美国
◎类  别 喜剧
◎语  言 英语
◎上映日期 1936-11-18
◎IMDb链接 https://www.imdb.com/title/tt0027684/
◎豆瓣链接 https://movie.douban.com/subject/1721331/
◎片  长 82 分钟
◎导  演 亨利·哈撒韦 Henry Hathaway (id:1032387)
◎编  剧 梅·韦斯特 Mae West (id:1022806)
◎演  员 梅·韦斯特 Mae West (id:1022806)
       华伦·威廉 Warren William (id:1037036)
       兰道夫·斯科特 Randolph Scott (id:1055890)
       约翰·因德里萨诺 John Indrisano (id:1104545)
       G·P·亨特利 G.P. Huntley (id:1104552)
       Si Jenks Si Jenks (id:1108146)
       Tom Hanlon Tom Hanlon (id:1096948)
       Charles Irwin Charles Irwin (id:1108494)
       Harold Minjir Harold Minjir (id:1114735)
       拉斯·鲍威尔 Russ Powell (id:1126593)
       Jack Perrin Jack Perrin (id:1131558)
       Lee Shumway Lee Shumway (id:1137562)
       西里尔·环 Cyril Ring (id:1143301)
       Nick Stewart Nick Stewart (id:1149695)
       莱尔·塔尔博特 Lyle Talbot (id:1155396)
       Walter Walker Walter Walker (id:1165104)
       Etienne Girardot Etienne Girardot (id:1094978)
       埃迪·凡特思顿 Eddie Fetherston (id:1090011)
       伊莎贝尔·朱尔 Isabel Jewell (id:1012609)
       Margaret Perry Margaret Perry (id:1033038)
       瑞秋·托里斯 Raquel Torres (id:1040794)
       艾丽丝·布雷迪 Alice Brady (id:1041487)
       伊丽莎白·帕特森 Elizabeth Patterson (id:1041567)
       杰克·拉鲁 Jack La Rue (id:1048391)
       Alyce Ardell Alyce Ardell (id:1058550)
       哈维尔·库加特 Xavier Cugat (id:1073520)
       迪克·埃利奥特 Dick Elliott (id:1080999)
       Lester Dorr Lester Dorr (id:1085148)
       埃迪·邓恩 Eddie Dunn (id:1003526)
       阿道夫·朱克 Adolph Zukor (id:1016879)
       Emanuel Cohen Emanuel Cohen (id:1026101)
       乔治·斯托尔 George Stoll (id:1048568)
       卡尔·斯特勒斯 Karl Struss (id:1037805)
       Ray Curtiss Ray Curtiss (id:1008917)
       怀亚德·依能 Wiard Ihnen (id:1025791)
◎简  介

  电影明星玛丽外表端庄典雅在众人面前纯洁天真,私底下却是个银娃,不堪被政治家摩根的追求,微服私访冷僻偏远的小村庄散散心,不料却住进家黑点,老板娘一把年纪还是个处女,她以驱赶前来追求玛丽的粉丝为乐。在这里玛丽认识的年轻强壮的机修师伯德,伯德正式玛丽喜欢的类型,旋即两人大胆玩起了爱情游戏。
  1. Video
  2. ID                                       : 1
  3. Format                                   : AVC
  4. Format/Info                              : Advanced Video Codec
  5. Format profile                           : [email protected]
  6. Format settings                          : CABAC / 11 Ref Frames
  7. Format settings, CABAC                   : Yes
  8. Format settings, Reference frames        : 11 frames
  9. Codec ID                                 : V_MPEG4/ISO/AVC
  10. Duration                                 : 1 h 19 min
  11. Bit rate                                 : 5 879 kb/s
  12. Width                                    : 972 pixels
  13. Height                                   : 720 pixels
  14. Display aspect ratio                     : 4:3
  15. Frame rate mode                          : Constant
  16. Frame rate                               : 23.976 (24000/1001/189150) FPS
  17. Color space                              : YUV
  18. Chroma subsampling                       : 4:2:0
  19. Bit depth                                : 8 bits
  20. Scan type                                : Progressive
  21. Bits/(Pixel*Frame)                       : 0.350
  22. Stream size                              : 3.26 GiB (89%)
  23. Writing library                          : x264 core 164 r3094 bfc87b7
  24. Encoding settings                        : cabac=1 / ref=11 / deblock=1:-3:-3 / analyse=0x3:0x133 / me=umh / subme=10 / psy=1 / psy_rd=1.20:0.00 / mixed_ref=1 / me_range=24 / chroma_me=1 / trellis=2 / 8x8dct=1 / cqm=0 / deadzone=21,11 / fast_pskip=0 / chroma_qp_offset=-2 / threads=22 / lookahead_threads=3 / sliced_threads=0 / nr=0 / decimate=0 / interlaced=0 / bluray_compat=0 / constrained_intra=0 / bframes=8 / b_pyramid=2 / b_adapt=2 / b_bias=0 / direct=3 / weightb=1 / open_gop=0 / weightp=2 / keyint=250 / keyint_min=23 / scenecut=40 / intra_refresh=0 / rc_lookahead=60 / rc=crf / mbtree=1 / crf=21.0 / qcomp=0.60 / qpmin=0 / qpmax=69 / qpstep=4 / ip_ratio=1.40 / aq=3:0.90
  25. Default                                  : Yes
  26. Forced                                   : No
  27. Color range                              : Limited
  28. Matrix coefficients                      : BT.709

  29. Audio #1
  30. ID                                       : 2
  31. Format                                   : FLAC
  32. Format/Info                              : Free Lossless Audio Codec
  33. Codec ID                                 : A_FLAC
  34. Duration                                 : 1 h 19 min
  35. Bit rate mode                            : Variable
  36. Bit rate                                 : 537 kb/s
  37. Channel(s)                               : 1 channel
  38. Channel layout                           : C
  39. Sampling rate                            : 48.0 kHz
  40. Frame rate                               : 11.719 FPS (4096 SPF)
  41. Bit depth                                : 24 bits
  42. Compression mode                         : Lossless
  43. Stream size                              : 305 MiB (8%)
  44. Writing library                          : libFLAC 1.3.3 (UTC 2019-08-04)
  45. Language                                 : English
  46. Default                                  : Yes
  47. Forced                                   : No

  48. Audio #2
  49. ID                                       : 3
  50. Format                                   : AAC LC
  51. Format/Info                              : Advanced Audio Codec Low Complexity
  52. Codec ID                                 : A_AAC-2
  53. Duration                                 : 1 h 19 min
  54. Bit rate                                 : 132 kb/s
  55. Channel(s)                               : 2 channels
  56. Channel layout                           : L R
  57. Sampling rate                            : 48.0 kHz
  58. Frame rate                               : 46.875 FPS (1024 SPF)
  59. Compression mode                         : Lossy
  60. Delay relative to video                  : 20 ms
  61. Stream size                              : 75.9 MiB (2%)
  62. Title                                    : Commentary
  63. Language                                 : English
  64. Default                                  : No
  65. Forced                                   : No

  66. Text
  67. ID                                       : 4
  68. Format                                   : PGS
  69. Muxing mode                              : zlib
  70. Codec ID                                 : S_HDMV/PGS
  71. Codec ID/Info                            : Picture based subtitle format used on BDs/HD-DVDs
  72. Duration                                 : 1 h 16 min
  73. Bit rate                                 : 63.7 kb/s
  74. Count of elements                        : 2746
  75. Stream size                              : 35.0 MiB (1%)
  76. Title                                    : SDH
  77. Language                                 : English
  78. Default                                  : No
  79. Forced                                   : No

  80. Menu
  81. 00:00:00.000                             : Chapter 01
  82. 00:07:52.138                             : Chapter 02
  83. 00:15:44.485                             : Chapter 03
  84. 00:22:43.946                             : Chapter 04
  85. 00:32:35.328                             : Chapter 05
  86. 00:38:46.783                             : Chapter 06
  87. 00:47:10.369                             : Chapter 07
  88. 00:56:25.924                             : Chapter 08
  89. 01:01:15.088                             : Chapter 09
  90. 01:13:32.491                             : Chapter 10
  91. 01:19:17.378                             : Chapter 11
复制代码





                                       
                                       

                                       
                                       
                                       




Go.West.Young.Man.1936.720p.BluRay.x264-ORBS.torrent (18.94 KB, 下载次数: 0)
回复

使用道具 举报

您需要登录后才可以回帖 登录 | 立即注册

本版积分规则

QQ|Archiver|手机版|小黑屋|蓝光电影网

GMT+8, 2022-7-4 22:38 , Processed in 0.054561 second(s), 28 queries .

Powered by Discuz! X3.4

Copyright © 2001-2020, Tencent Cloud.

快速回复 返回顶部 返回列表