找回密码
 立即注册

QQ登录

只需一步,快速开始

查看: 104|回复: 0

[UHD.HEVC] 金刚 King.Kong.2005.PROPER.EXTENDED.2160p.BluRay.REMUX.HEVC.DTS-X.7.1-FGT 80.81GB

[复制链接]

0

精华

0

好友

2

听众

新手上路

Rank: 2

蓝光币
5
发表于 2022-12-22 07:59:11 | 显示全部楼层 |阅读模式
[img][/img]

◎标  题 金刚
◎译  名 King Kong: The Eighth Wonder of the World
◎片  名 King Kong
◎年  代 2005
◎产  地 新西兰 / 美国 / 德国
◎类  别 动作 / 奇幻 / 冒险
◎语  言 英语
◎上映日期 2006-01-12(中国大陆) / 2005-12-05(纽约首映) / 2005-12-14(美国)
◎IMDb评分 7.2/10 (409244人评价)
◎IMDb链接 https://www.imdb.com/title/tt0360717/
◎豆瓣评分 8.0/10 (280979人评价)
◎豆瓣链接 https://movie.douban.com/subject/1309043/
◎片  长 187分钟 / 201分钟(加长版)
◎导  演 彼得·杰克逊 Peter Jackson
◎编  剧 弗兰·威尔士 Fran Walsh
       菲利帕·鲍恩斯 Philippa Boyens
       彼得·杰克逊 Peter Jackson
       梅里安·C·库珀 Merian C. Cooper
       埃德加·华莱士 Edgar Wallace
◎演  员 安迪·瑟金斯 Andy Serkis
       娜奥米·沃茨 Naomi Watts
       杰克·布莱克 Jack Black
       艾德里安·布洛迪 Adrien Brody
       托马斯·克莱舒曼 Thomas Kretschmann
       科林·汉克斯 Colin Hanks
       伊万·帕克 Evan Parke
       杰米·贝尔 Jamie Bell
       洛博·陈 Lobo Chan
       约翰·萨莫尔 John Sumner
       克里格·霍尔 Craig Hall
       凯尔·钱德勒 Kyle Chandler
       威廉·约翰逊 William Johnson
       马克·哈德洛 Mark Hadlow
       杰拉丁·博若飞 Geraldine Brophy
       大卫·皮图 David Pittu
       蒂姆·戈登 Tim Gordon
       卡德罗莎·奥娜·卡罗尔
       汤姆·霍布斯 Tom Hobbs
       蒂姆·王 Tim Wong
       菲利普·格里夫 Philip Grieve
       彼得·麦肯齐 Peter McKenzie
       洛琳·艾什本 Lorraine Ashbourne
       玛丽亚·沃克 Maria Walker
       里克·贝克 Rick Baker
       卢安·戈登 Luanne Gordon
       克里斯蒂安·瑞沃斯 Christian Rivers
       薇姬·浩顿 Vicky Haughton
       兰德尔·威廉·库克 Randall William Cook
       卡米尔·基南 Camille Keenan
       弗兰克·德拉邦特 Frank Darabont
       彼得·杰克逊 Peter Jackson
       杰德·布罗菲 Jed Brophy
◎标  签 科幻 / 美国 / 金刚 / 爱情 / 经典 / 魔幻 / 冒险 / 电影
◎简  介

    导演率领拍摄组来到神秘的骷髅岛开始了一部电影的拍摄,女主角是漂亮娇小的安(娜奥米•沃茨 Naomi Watts 饰),她在纽约的演艺事业陷入了低谷,这是她时来运转的大好机会。他们乘坐轮船来到岛上,却不知在岛上即将要险象横生。                                                                      正当导演要开始开机拍摄时,他们遭到了当地土著的袭击,几个随行人员遇难身亡。摄制组慌忙逃离,幸好起航离去,却发现不见了女主角安。                                                                      原来安土著野人抓走,被当作祭品。安尖声惊叫,引来了传说中骷髅岛的猩猩——金刚的关注。金刚在岛上很有霸气,连恐龙都要忌它几分。然而,野兽爱上了美人,金刚搭救安脱离困境,不料却让自己陷入了一场悲剧。
  1. Video
  2. ID                                       : 1
  3. ID in the original source medium         : 4113 (0x1011)
  4. Format                                   : HEVC
  5. Format/Info                              : High Efficiency Video Coding
  6. Format profile                           : Main [email protected]@High
  7. HDR format                               : SMPTE ST 2086, HDR10 compatible
  8. Codec ID                                 : V_MPEGH/ISO/HEVC
  9. Duration                                 : 3 h 20 min
  10. Bit rate                                 : 46.2 Mb/s
  11. Width                                    : 3 840 pixels
  12. Height                                   : 2 160 pixels
  13. Display aspect ratio                     : 16:9
  14. Frame rate mode                          : Constant
  15. Frame rate                               : 23.976 (24000/1001/189150) FPS
  16. Color space                              : YUV
  17. Chroma subsampling                       : 4:2:0 (Type 2)
  18. Bit depth                                : 10 bits
  19. Bits/(Pixel*Frame)                       : 0.232
  20. Stream size                              : 64.5 GiB (80%)
  21. Writing library                          : ATEME Titan File 3.7.9 (4.7.9.0)
  22. Language                                 : English
  23. Default                                  : No
  24. Forced                                   : No
  25. Color range                              : Limited
  26. Color primaries                          : BT.2020
  27. Transfer characteristics                 : PQ
  28. Matrix coefficients                      : BT.2020 non-constant
  29. Mastering display color primaries        : Display P3
  30. Mastering display luminance              : min: 0.0050 cd/m2, max: 1000 cd/m2
  31. Maximum Content Light Level              : 1000 cd/m2
  32. Maximum Frame-Average Light Level        : 96 cd/m2
  33. Original source medium                   : Blu-ray
  34. Audio #1
  35. ID                                       : 2
  36. ID in the original source medium         : 4352 (0x1100)
  37. Format                                   : DTS XLL X
  38. Format/Info                              : Digital Theater Systems
  39. Commercial name                          : DTS-HD Master Audio
  40. Codec ID                                 : A_DTS
  41. Duration                                 : 3 h 20 min
  42. Bit rate mode                            : Variable
  43. Bit rate                                 : 7 413 kb/s
  44. Channel(s)                               : 8 channels
  45. Channel(s)_Original                      : Object Based
  46. ChannelLayout_Original                   : Object Based
  47. Sampling rate                            : 48.0 kHz
  48. Frame rate                               : 93.750 FPS (512 SPF)
  49. Bit depth                                : 24 bits
  50. Stream size                              : 10.4 GiB (13%)
  51. Title                                    : DTS-X 7.1
  52. Language                                 : English
  53. Default                                  : Yes
  54. Forced                                   : No
  55. Original source medium                   : Blu-ray
  56. Audio #2
  57. ID                                       : 3
  58. Format                                   : AC-3
  59. Format/Info                              : Audio Coding 3
  60. Commercial name                          : Dolby Digital
  61. Codec ID                                 : A_AC3
  62. Duration                                 : 3 h 20 min
  63. Bit rate mode                            : Constant
  64. Bit rate                                 : 640 kb/s
  65. Channel(s)                               : 6 channels
  66. Channel layout                           : L R C LFE Ls Rs
  67. Sampling rate                            : 48.0 kHz
  68. Frame rate                               : 31.250 FPS (1536 SPF)
  69. Compression mode                         : Lossy
  70. Stream size                              : 916 MiB (1%)
  71. Title                                    : DD 5.1
  72. Language                                 : English
  73. Service kind                             : Complete Main
  74. Default                                  : No
  75. Forced                                   : No
  76. Audio #3
  77. ID                                       : 4
  78. ID in the original source medium         : 4353 (0x1101)
  79. Format                                   : DTS
  80. Format/Info                              : Digital Theater Systems
  81. Codec ID                                 : A_DTS
  82. Duration                                 : 3 h 20 min
  83. Bit rate mode                            : Constant
  84. Bit rate                                 : 255 kb/s
  85. Channel(s)                               : 2 channels
  86. Channel layout                           : L R
  87. Sampling rate                            : 48.0 kHz
  88. Frame rate                               : 93.750 FPS (512 SPF)
  89. Bit depth                                : 24 bits
  90. Compression mode                         : Lossy
  91. Stream size                              : 365 MiB (0%)
  92. Title                                    : DTS 2.0
  93. Language                                 : English
  94. Default                                  : No
  95. Forced                                   : No
  96. Original source medium                   : Blu-ray
  97. Audio #4
  98. ID                                       : 5
  99. ID in the original source medium         : 4354 (0x1102)
  100. Format                                   : DTS
  101. Format/Info                              : Digital Theater Systems
  102. Codec ID                                 : A_DTS
  103. Duration                                 : 3 h 20 min
  104. Bit rate mode                            : Constant
  105. Bit rate                                 : 768 kb/s
  106. Channel(s)                               : 6 channels
  107. Channel layout                           : C L R Ls Rs LFE
  108. Sampling rate                            : 48.0 kHz
  109. Frame rate                               : 93.750 FPS (512 SPF)
  110. Bit depth                                : 24 bits
  111. Compression mode                         : Lossy
  112. Stream size                              : 1.07 GiB (1%)
  113. Title                                    : DTS 5.1
  114. Language                                 : French
  115. Default                                  : No
  116. Forced                                   : No
  117. Original source medium                   : Blu-ray
  118. Audio #5
  119. ID                                       : 6
  120. ID in the original source medium         : 4355 (0x1103)
  121. Format                                   : DTS
  122. Format/Info                              : Digital Theater Systems
  123. Codec ID                                 : A_DTS
  124. Duration                                 : 3 h 20 min
  125. Bit rate mode                            : Constant
  126. Bit rate                                 : 768 kb/s
  127. Channel(s)                               : 6 channels
  128. Channel layout                           : C L R Ls Rs LFE
  129. Sampling rate                            : 48.0 kHz
  130. Frame rate                               : 93.750 FPS (512 SPF)
  131. Bit depth                                : 24 bits
  132. Compression mode                         : Lossy
  133. Stream size                              : 1.07 GiB (1%)
  134. Title                                    : DTS 5.1
  135. Language                                 : Spanish
  136. Default                                  : No
  137. Forced                                   : No
  138. Original source medium                   : Blu-ray
  139. Audio #6
  140. ID                                       : 7
  141. ID in the original source medium         : 4356 (0x1104)
  142. Format                                   : DTS
  143. Format/Info                              : Digital Theater Systems
  144. Codec ID                                 : A_DTS
  145. Duration                                 : 3 h 20 min
  146. Bit rate mode                            : Constant
  147. Bit rate                                 : 768 kb/s
  148. Channel(s)                               : 6 channels
  149. Channel layout                           : C L R Ls Rs LFE
  150. Sampling rate                            : 48.0 kHz
  151. Frame rate                               : 93.750 FPS (512 SPF)
  152. Bit depth                                : 24 bits
  153. Compression mode                         : Lossy
  154. Stream size                              : 1.07 GiB (1%)
  155. Title                                    : DTS 5.1
  156. Language                                 : Japanese
  157. Default                                  : No
  158. Forced                                   : No
  159. Original source medium                   : Blu-ray
  160. Audio #7
  161. ID                                       : 8
  162. ID in the original source medium         : 4357 (0x1105)
  163. Format                                   : DTS
  164. Format/Info                              : Digital Theater Systems
  165. Codec ID                                 : A_DTS
  166. Duration                                 : 3 h 20 min
  167. Bit rate mode                            : Constant
  168. Bit rate                                 : 768 kb/s
  169. Channel(s)                               : 6 channels
  170. Channel layout                           : C L R Ls Rs LFE
  171. Sampling rate                            : 48.0 kHz
  172. Frame rate                               : 93.750 FPS (512 SPF)
  173. Bit depth                                : 24 bits
  174. Compression mode                         : Lossy
  175. Stream size                              : 1.07 GiB (1%)
  176. Title                                    : DTS 5.1
  177. Language                                 : Portuguese
  178. Default                                  : No
  179. Forced                                   : No
  180. Original source medium                   : Blu-ray
  181. Audio #8
  182. ID                                       : 9
  183. ID in the original source medium         : 4358 (0x1106)
  184. Format                                   : AC-3
  185. Format/Info                              : Audio Coding 3
  186. Commercial name                          : Dolby Digital
  187. Format settings                          : Dolby Surround
  188. Codec ID                                 : A_AC3
  189. Duration                                 : 3 h 20 min
  190. Bit rate mode                            : Constant
  191. Bit rate                                 : 192 kb/s
  192. Channel(s)                               : 2 channels
  193. Channel layout                           : L R
  194. Sampling rate                            : 48.0 kHz
  195. Frame rate                               : 31.250 FPS (1536 SPF)
  196. Compression mode                         : Lossy
  197. Stream size                              : 275 MiB (0%)
  198. Title                                    : DD 2.0
  199. Language                                 : English
  200. Service kind                             : Complete Main
  201. Default                                  : No
  202. Forced                                   : No
  203. Original source medium                   : Blu-ray
  204. Text #1
  205. ID                                       : 10
  206. Format                                   : UTF-8
  207. Codec ID                                 : S_TEXT/UTF8
  208. Codec ID/Info                            : UTF-8 Plain Text
  209. Duration                                 : 3 h 8 min
  210. Bit rate                                 : 27 b/s
  211. Frame rate                               : 0.113 FPS
  212. Count of elements                        : 1276
  213. Stream size                              : 37.4 KiB (0%)
  214. Language                                 : English
  215. Default                                  : Yes
  216. Forced                                   : No
  217. Text #2
  218. ID                                       : 11
  219. Format                                   : UTF-8
  220. Codec ID                                 : S_TEXT/UTF8
  221. Codec ID/Info                            : UTF-8 Plain Text
  222. Duration                                 : 3 h 9 min
  223. Bit rate                                 : 30 b/s
  224. Frame rate                               : 0.149 FPS
  225. Count of elements                        : 1691
  226. Stream size                              : 42.8 KiB (0%)
  227. Title                                    : SDH
  228. Language                                 : English
  229. Default                                  : No
  230. Forced                                   : No
  231. Text #3
  232. ID                                       : 12
  233. ID in the original source medium         : 4768 (0x12A0)
  234. Format                                   : PGS
  235. Muxing mode                              : zlib
  236. Codec ID                                 : S_HDMV/PGS
  237. Codec ID/Info                            : Picture based subtitle format used on BDs/HD-DVDs
  238. Duration                                 : 3 h 9 min
  239. Bit rate                                 : 21.8 kb/s
  240. Frame rate                               : 0.303 FPS
  241. Count of elements                        : 3438
  242. Stream size                              : 29.5 MiB (0%)
  243. Language                                 : English
  244. Default                                  : No
  245. Forced                                   : No
  246. Original source medium                   : Blu-ray
  247. Text #4
  248. ID                                       : 13
  249. ID in the original source medium         : 4769 (0x12A1)
  250. Format                                   : PGS
  251. Muxing mode                              : zlib
  252. Codec ID                                 : S_HDMV/PGS
  253. Codec ID/Info                            : Picture based subtitle format used on BDs/HD-DVDs
  254. Duration                                 : 3 h 18 min
  255. Bit rate                                 : 16.7 kb/s
  256. Frame rate                               : 0.217 FPS
  257. Count of elements                        : 2592
  258. Stream size                              : 23.7 MiB (0%)
  259. Language                                 : French
  260. Default                                  : No
  261. Forced                                   : No
  262. Original source medium                   : Blu-ray
  263. Text #5
  264. ID                                       : 14
  265. ID in the original source medium         : 4770 (0x12A2)
  266. Format                                   : PGS
  267. Muxing mode                              : zlib
  268. Codec ID                                 : S_HDMV/PGS
  269. Codec ID/Info                            : Picture based subtitle format used on BDs/HD-DVDs
  270. Duration                                 : 3 h 18 min
  271. Bit rate                                 : 15.4 kb/s
  272. Frame rate                               : 0.218 FPS
  273. Count of elements                        : 2596
  274. Stream size                              : 22.0 MiB (0%)
  275. Language                                 : Spanish
  276. Default                                  : No
  277. Forced                                   : No
  278. Original source medium                   : Blu-ray
  279. Text #6
  280. ID                                       : 15
  281. ID in the original source medium         : 4771 (0x12A3)
  282. Format                                   : PGS
  283. Muxing mode                              : zlib
  284. Codec ID                                 : S_HDMV/PGS
  285. Codec ID/Info                            : Picture based subtitle format used on BDs/HD-DVDs
  286. Duration                                 : 3 h 18 min
  287. Bit rate                                 : 10.9 kb/s
  288. Frame rate                               : 0.199 FPS
  289. Count of elements                        : 2370
  290. Stream size                              : 15.6 MiB (0%)
  291. Language                                 : Japanese
  292. Default                                  : No
  293. Forced                                   : No
  294. Original source medium                   : Blu-ray
  295. Text #7
  296. ID                                       : 16
  297. ID in the original source medium         : 4772 (0x12A4)
  298. Format                                   : PGS
  299. Muxing mode                              : zlib
  300. Codec ID                                 : S_HDMV/PGS
  301. Codec ID/Info                            : Picture based subtitle format used on BDs/HD-DVDs
  302. Duration                                 : 3 h 17 min
  303. Bit rate                                 : 15.5 kb/s
  304. Frame rate                               : 0.212 FPS
  305. Count of elements                        : 2520
  306. Stream size                              : 21.9 MiB (0%)
  307. Language                                 : Portuguese
  308. Default                                  : No
  309. Forced                                   : No
  310. Original source medium                   : Blu-ray
  311. Text #8
  312. ID                                       : 17
  313. ID in the original source medium         : 4773 (0x12A5)
  314. Format                                   : PGS
  315. Muxing mode                              : zlib
  316. Codec ID                                 : S_HDMV/PGS
  317. Codec ID/Info                            : Picture based subtitle format used on BDs/HD-DVDs
  318. Duration                                 : 3 h 19 min
  319. Bit rate                                 : 80.1 kb/s
  320. Frame rate                               : 0.598 FPS
  321. Count of elements                        : 7162
  322. Stream size                              : 114 MiB (0%)
  323. Title                                    : COMMENTARY
  324. Language                                 : English
  325. Default                                  : No
  326. Forced                                   : No
  327. Original source medium                   : Blu-ray
  328. Text #9
  329. ID                                       : 18
  330. ID in the original source medium         : 4774 (0x12A6)
  331. Format                                   : PGS
  332. Muxing mode                              : zlib
  333. Codec ID                                 : S_HDMV/PGS
  334. Codec ID/Info                            : Picture based subtitle format used on BDs/HD-DVDs
  335. Duration                                 : 3 h 19 min
  336. Bit rate                                 : 45.2 kb/s
  337. Frame rate                               : 0.462 FPS
  338. Count of elements                        : 5534
  339. Stream size                              : 64.5 MiB (0%)
  340. Title                                    : FORCED
  341. Language                                 : Japanese
  342. Default                                  : No
  343. Forced                                   : No
  344. Original source medium                   : Blu-ray
  345. Text #10
  346. ID                                       : 19
  347. ID in the original source medium         : 4775 (0x12A7)
  348. Format                                   : PGS
  349. Muxing mode                              : zlib
  350. Codec ID                                 : S_HDMV/PGS
  351. Codec ID/Info                            : Picture based subtitle format used on BDs/HD-DVDs
  352. Duration                                 : 3 h 16 min
  353. Bit rate                                 : 413 b/s
  354. Frame rate                               : 0.006 FPS
  355. Count of elements                        : 76
  356. Stream size                              : 595 KiB (0%)
  357. Title                                    : FORCED
  358. Language                                 : French
  359. Default                                  : No
  360. Forced                                   : No
  361. Original source medium                   : Blu-ray
  362. Text #11
  363. ID                                       : 20
  364. ID in the original source medium         : 4776 (0x12A8)
  365. Format                                   : PGS
  366. Muxing mode                              : zlib
  367. Codec ID                                 : S_HDMV/PGS
  368. Codec ID/Info                            : Picture based subtitle format used on BDs/HD-DVDs
  369. Duration                                 : 3 h 16 min
  370. Bit rate                                 : 434 b/s
  371. Frame rate                               : 0.007 FPS
  372. Count of elements                        : 80
  373. Stream size                              : 625 KiB (0%)
  374. Title                                    : FORCED
  375. Language                                 : Spanish
  376. Default                                  : No
  377. Forced                                   : No
  378. Original source medium                   : Blu-ray
  379. Text #12
  380. ID                                       : 21
  381. ID in the original source medium         : 4777 (0x12A9)
  382. Format                                   : PGS
  383. Muxing mode                              : zlib
  384. Codec ID                                 : S_HDMV/PGS
  385. Codec ID/Info                            : Picture based subtitle format used on BDs/HD-DVDs
  386. Duration                                 : 3 h 18 min
  387. Bit rate                                 : 575 b/s
  388. Frame rate                               : 0.011 FPS
  389. Count of elements                        : 136
  390. Stream size                              : 837 KiB (0%)
  391. Title                                    : FORCED
  392. Language                                 : Japanese
  393. Default                                  : No
  394. Forced                                   : No
  395. Original source medium                   : Blu-ray
  396. Text #13
  397. ID                                       : 22
  398. ID in the original source medium         : 4778 (0x12AA)
  399. Format                                   : PGS
  400. Muxing mode                              : zlib
  401. Codec ID                                 : S_HDMV/PGS
  402. Codec ID/Info                            : Picture based subtitle format used on BDs/HD-DVDs
  403. Duration                                 : 3 h 16 min
  404. Bit rate                                 : 1 067 b/s
  405. Frame rate                               : 0.016 FPS
  406. Count of elements                        : 186
  407. Stream size                              : 1.50 MiB (0%)
  408. Title                                    : FORCED
  409. Language                                 : Portuguese
  410. Default                                  : No
  411. Forced                                   : No
  412. Original source medium                   : Blu-ray
  413. Menu
  414. 00:00:00.000                             : en:Chapter 01
  415. 00:03:01.806                             : en:Chapter 02
  416. 00:04:19.801                             : en:Chapter 03
  417. 00:06:42.693                             : en:Chapter 04
  418. 00:10:28.669                             : en:Chapter 05
  419. 00:12:32.209                             : en:Chapter 06
  420. 00:14:17.398                             : en:Chapter 07
  421. 00:17:39.641                             : en:Chapter 08
  422. 00:20:24.848                             : en:Chapter 09
  423. 00:24:12.284                             : en:Chapter 10
  424. 00:25:54.636                             : en:Chapter 11
  425. 00:26:12.362                             : en:Chapter 12
  426. 00:27:59.636                             : en:Chapter 13
  427. 00:30:28.535                             : en:Chapter 14
  428. 00:31:06.447                             : en:Chapter 15
  429. 00:33:06.359                             : en:Chapter 16
  430. 00:34:13.509                             : en:Chapter 17
  431. 00:36:54.795                             : en:Chapter 18
  432. 00:39:44.340                             : en:Chapter 19
  433. 00:41:06.297                             : en:Chapter 20
  434. 00:42:30.714                             : en:Chapter 21
  435. 00:43:44.622                             : en:Chapter 22
  436. 00:52:19.177                             : en:Chapter 23
  437. 00:55:48.928                             : en:Chapter 24
  438. 01:02:06.264                             : en:Chapter 25
  439. 01:07:31.714                             : en:Chapter 26
  440. 01:12:38.145                             : en:Chapter 27
  441. 01:14:13.657                             : en:Chapter 28
  442. 01:16:57.946                             : en:Chapter 29
  443. 01:20:22.484                             : en:Chapter 30
  444. 01:22:41.164                             : en:Chapter 31
  445. 01:29:19.520                             : en:Chapter 32
  446. 01:30:15.576                             : en:Chapter 33
  447. 01:32:08.814                             : en:Chapter 34
  448. 01:38:54.345                             : en:Chapter 35
  449. 01:44:43.110                             : en:Chapter 36
  450. 01:46:16.953                             : en:Chapter 37
  451. 01:50:01.011                             : en:Chapter 38
  452. 02:01:39.917                             : en:Chapter 39
  453. 02:09:07.656                             : en:Chapter 40
  454. 02:13:17.698                             : en:Chapter 41
  455. 02:15:50.267                             : en:Chapter 42
  456. 02:21:34.694                             : en:Chapter 43
  457. 02:30:15.464                             : en:Chapter 44
  458. 02:32:10.496                             : en:Chapter 45
  459. 02:34:01.148                             : en:Chapter 46
  460. 02:43:13.617                             : en:Chapter 47
  461. 02:47:49.559                             : en:Chapter 48
  462. 02:52:22.874                             : en:Chapter 49
  463. 02:54:04.142                             : en:Chapter 50
  464. 02:56:22.905                             : en:Chapter 51
  465. 03:03:56.483                             : en:Chapter 52
  466. 03:10:35.382                             : en:Chapter 53
  467. 03:20:07.829                             : en:Chapter 54
复制代码




                                       
                                       

                                       
                                       
                                       




King.Kong.2005.PROPER.EXTENDED.2160p.BluRay.REMUX.HEVC.DTS-X.7.1-FGT.torrent (101.69 KB, 下载次数: 4)
回复

使用道具 举报

您需要登录后才可以回帖 登录 | 立即注册

本版积分规则

QQ|Archiver|手机版|小黑屋|蓝光电影网

GMT+8, 2023-2-8 02:23 , Processed in 0.054718 second(s), 28 queries .

Powered by Discuz! X3.4

Copyright © 2001-2020, Tencent Cloud.

快速回复 返回顶部 返回列表