找回密码
 立即注册

QQ登录

只需一步,快速开始

查看: 140|回复: 0

[UHD.HEVC] 阿丽塔:战斗天使 Alita.Battle.Angel.2019.PROPER.2160p.BluRay.REMUX.HEVC.DTS-HD.MA.TrueHD.7.1.Atmos-FGT 53.30GB

[复制链接]

0

精华

0

好友

2

听众

新手上路

Rank: 2

蓝光币
5
发表于 2022-12-22 07:58:59 | 显示全部楼层 |阅读模式
[img][/img]

◎标  题 阿丽塔:战斗天使
◎译  名 铳梦 / 铳梦:战斗天使(港) / 艾莉塔:战斗天使(台)
◎片  名 Alita: Battle Angel
◎年  代 2019
◎产  地 美国 / 日本 / 加拿大
◎类  别 动作 / 科幻 / 冒险
◎语  言 英语 / 西班牙语
◎上映日期 2019-02-22(中国大陆) / 2019-02-05(中国台湾) / 2019-02-14(美国)
◎IMDb评分 7.3/10 (251239人评价)
◎IMDb链接 https://www.imdb.com/title/tt0437086/
◎豆瓣评分 7.5/10 (546027人评价)
◎豆瓣链接 https://movie.douban.com/subject/1652592/
◎片  长 122分钟
◎导  演 罗伯特·罗德里格兹 Robert Rodriguez
◎编  剧 詹姆斯·卡梅隆 James Cameron
       莱塔·卡罗格里迪斯 Laeta Kalogridis
       木城幸人 Yukito Kishiro
◎演  员 罗莎·萨拉查 Rosa Salazar
       克里斯托弗·瓦尔兹 Christoph Waltz
       基恩·约翰逊 Keean Johnson
       艾德·斯克林 Ed Skrein
       马赫沙拉·阿里 Mahershala Ali
       詹妮弗·康纳利 Jennifer Connelly
       杰基·厄尔·哈利 Jackie Earle Haley
       拉娜·康多 Lana Condor
       小豪尔赫·兰登伯格 Jorge Lendeborg Jr.
       艾莎·冈萨雷斯 Eiza González
       卡斯帕·范·迪恩 Casper Van Dien
       米歇尔·罗德里格兹 Michelle Rodriguez
       爱德华·诺顿 Edward Norton
       杰夫·法赫 Jeff Fahey
       山姆麦地那 Sam Medina
       德里克·梅耶斯 Derek Mears
       艾丽·拉蒙特 Elle LaMont
       豪尔赫·A·希门尼斯 Jorge A. Jimenez
       马克·扎罗 Marko Zaror
       比利·布莱尔 Billy Blair
       伦纳德·吴 Leonard Wu
       特里斯坦·里格斯 Tristan Riggs
       迈克尔·洛夫·托利弗 Michael Love Toliver
       金 King
       达塞尔·丹妮尔 Darcel Danielle
       马克·A·怀特 Mark A. White
       杰·科特尼 Jai Courtney
       詹姆斯·卡梅隆 James Cameron
       乔恩·兰道 Jon Landau
       程武 Wu Cheng
       琼基·XL Junkie XL
       杜阿·利帕 Dua Lipa
       伊恩·西尔弗斯坦 Ian Silverstein
       迈克尔·科琴斯 Michael Cozens
       戴恩·艾伦·史密斯 Dane Allan Smith
       埃里克·赛恩登 Eric Saindon
       克里斯·霍珀 Chris Hopper
       阿曼·加洛 Aman Gahlot
       扎克·贾德森 Zack Judson
       特伦特·牛顿 Trent Newton
       艾米丽·皮德 Emily Pead
       英德里普·拉哈 Indreep Raha
       亚当·沃特斯 Adam Waters
       特伦斯·伯杰龙 Terrence Bergeron
       保罗·哈林 Paul Harling
       瑞秋·劳伦森 Rachel Laurenson
       黄海 Hai Huang
◎标  签 科幻 / 机器人 / 动作 / 漫画改编 / 赛博朋克 / 美国 / 2019 / 动画
◎简  介

  故事发生在遥远的26世纪,外科医生依德(克里斯托弗·瓦尔兹 Christoph Waltz 饰)在垃圾场里捡到了只剩下头部的机械少女将她带回家中,给她装上了本来为自己已故的女儿所准备的义体,并取名阿丽塔(罗莎·萨拉扎尔 Rosa Salazar 饰)。苏醒后的阿丽塔对这个五彩斑斓但却暴力而又残酷的世界产生了浓厚的兴趣,在结识了青年雨果(基恩·约翰逊 Keean Johnson 饰)后,阿丽塔开始接触名为机动球的运动,并在比赛中展现出了惊人的格斗天赋。                                       
                                    在废铁城居民们的头顶,漂浮着巨大的浮空城市撒冷,废铁城居民们的一切劳作和付出,都是为了给撒冷提供继续运作的燃料。在大财阀维克特(马赫沙拉·阿里 Mahershala Ali 饰)所设立的机动球比赛中,最终获得冠军的人能够获得前往撒冷生活的资格,阿丽塔决定利用自己的格斗天赋参加比赛,却被卷入了一个巨大的阴...
  1. Video
  2. ID                                       : 1
  3. ID in the original source medium         : 4113 (0x1011)
  4. Format                                   : HEVC
  5. Format/Info                              : High Efficiency Video Coding
  6. Format profile                           : Main [email protected]@High
  7. HDR format                               : Dolby Vision, Version 1.0, dvhe.07.06, BL+EL+RPU, Blu-ray compatible / SMPTE ST 2094 App 4, Version 1, HDR10+ Profile A compatible
  8. Codec ID                                 : V_MPEGH/ISO/HEVC
  9. Duration                                 : 2 h 1 min
  10. Bit rate                                 : 43.5 Mb/s
  11. Width                                    : 3 840 pixels
  12. Height                                   : 2 160 pixels
  13. Display aspect ratio                     : 16:9
  14. Frame rate mode                          : Constant
  15. Frame rate                               : 23.976 (24000/1001/189150) FPS
  16. Color space                              : YUV
  17. Chroma subsampling                       : 4:2:0 (Type 2)
  18. Bit depth                                : 10 bits
  19. Bits/(Pixel*Frame)                       : 0.219
  20. Stream size                              : 37.1 GiB (70%)
  21. Language                                 : English
  22. Default                                  : No
  23. Forced                                   : No
  24. Color range                              : Limited
  25. Color primaries                          : BT.2020
  26. Transfer characteristics                 : PQ
  27. Matrix coefficients                      : BT.2020 non-constant
  28. Mastering display color primaries        : Display P3
  29. Mastering display luminance              : min: 0.0001 cd/m2, max: 1000 cd/m2
  30. Maximum Content Light Level              : 233 cd/m2
  31. Maximum Frame-Average Light Level        : 63 cd/m2
  32. Original source medium                   : Blu-ray
  33. Audio #1
  34. ID                                       : 2
  35. ID in the original source medium         : 4352 (0x1100)
  36. Format                                   : MLP FBA 16-ch
  37. Format/Info                              : Meridian Lossless Packing FBA with 16-channel presentation
  38. Commercial name                          : Dolby TrueHD with Dolby Atmos
  39. Codec ID                                 : A_TRUEHD
  40. Duration                                 : 2 h 1 min
  41. Bit rate mode                            : Variable
  42. Bit rate                                 : 5 013 kb/s
  43. Channel(s)                               : 8 channels
  44. Channel layout                           : L R C LFE Ls Rs Lb Rb
  45. Sampling rate                            : 48.0 kHz
  46. Frame rate                               : 1 200.000 FPS (40 SPF)
  47. Bit depth                                : 24 bits
  48. Compression mode                         : Lossless
  49. Stream size                              : 4.30 GiB (8%)
  50. Title                                    : TrueHD 7.1 Atmos
  51. Language                                 : English
  52. Default                                  : Yes
  53. Forced                                   : No
  54. Original source medium                   : Blu-ray
  55. Number of dynamic objects                : 13
  56. Bed channel count                        : 1 channel
  57. Bed channel configuration                : LFE
  58. Audio #2
  59. ID                                       : 3
  60. Format                                   : DTS XLL
  61. Format/Info                              : Digital Theater Systems
  62. Commercial name                          : DTS-HD Master Audio
  63. Codec ID                                 : A_DTS
  64. Duration                                 : 2 h 1 min
  65. Bit rate mode                            : Variable
  66. Bit rate                                 : 4 105 kb/s
  67. Channel(s)                               : 8 channels
  68. Channel layout                           : C L R LFE Lb Rb Lss Rss
  69. Sampling rate                            : 48.0 kHz
  70. Frame rate                               : 93.750 FPS (512 SPF)
  71. Bit depth                                : 24 bits
  72. Compression mode                         : Lossless
  73. Stream size                              : 3.50 GiB (7%)
  74. Title                                    : DTS-HD MA 7.1
  75. Language                                 : English
  76. Default                                  : No
  77. Forced                                   : No
  78. Audio #3
  79. ID                                       : 4
  80. ID in the original source medium         : 4352 (0x1100)
  81. Format                                   : AC-3
  82. Format/Info                              : Audio Coding 3
  83. Commercial name                          : Dolby Digital
  84. Codec ID                                 : A_AC3
  85. Duration                                 : 2 h 1 min
  86. Bit rate mode                            : Constant
  87. Bit rate                                 : 640 kb/s
  88. Channel(s)                               : 6 channels
  89. Channel layout                           : L R C LFE Ls Rs
  90. Sampling rate                            : 48.0 kHz
  91. Frame rate                               : 31.250 FPS (1536 SPF)
  92. Compression mode                         : Lossy
  93. Stream size                              : 558 MiB (1%)
  94. Title                                    : DD 5.1
  95. Language                                 : English
  96. Service kind                             : Complete Main
  97. Default                                  : No
  98. Forced                                   : No
  99. Original source medium                   : Blu-ray
  100. Audio #4
  101. ID                                       : 5
  102. ID in the original source medium         : 4353 (0x1101)
  103. Format                                   : DTS XLL
  104. Format/Info                              : Digital Theater Systems
  105. Commercial name                          : DTS-HD Master Audio
  106. Codec ID                                 : A_DTS
  107. Duration                                 : 2 h 1 min
  108. Bit rate mode                            : Variable
  109. Bit rate                                 : 2 058 kb/s
  110. Channel(s)                               : 2 channels
  111. Channel layout                           : L R
  112. Sampling rate                            : 48.0 kHz
  113. Frame rate                               : 93.750 FPS (512 SPF)
  114. Bit depth                                : 24 bits
  115. Compression mode                         : Lossless
  116. Stream size                              : 1.75 GiB (3%)
  117. Title                                    : DTS-HD MA 2.0
  118. Language                                 : English
  119. Default                                  : No
  120. Forced                                   : No
  121. Original source medium                   : Blu-ray
  122. Audio #5
  123. ID                                       : 6
  124. ID in the original source medium         : 4354 (0x1102)
  125. Format                                   : AC-3
  126. Format/Info                              : Audio Coding 3
  127. Commercial name                          : Dolby Digital
  128. Codec ID                                 : A_AC3
  129. Duration                                 : 2 h 1 min
  130. Bit rate mode                            : Constant
  131. Bit rate                                 : 448 kb/s
  132. Channel(s)                               : 6 channels
  133. Channel layout                           : L R C LFE Ls Rs
  134. Sampling rate                            : 48.0 kHz
  135. Frame rate                               : 31.250 FPS (1536 SPF)
  136. Compression mode                         : Lossy
  137. Stream size                              : 391 MiB (1%)
  138. Title                                    : DD 5.1
  139. Language                                 : English
  140. Service kind                             : Complete Main
  141. Default                                  : No
  142. Forced                                   : No
  143. Original source medium                   : Blu-ray
  144. Audio #6
  145. ID                                       : 7
  146. ID in the original source medium         : 4355 (0x1103)
  147. Format                                   : AC-3
  148. Format/Info                              : Audio Coding 3
  149. Commercial name                          : Dolby Digital
  150. Codec ID                                 : A_AC3
  151. Duration                                 : 2 h 1 min
  152. Bit rate mode                            : Constant
  153. Bit rate                                 : 448 kb/s
  154. Channel(s)                               : 6 channels
  155. Channel layout                           : L R C LFE Ls Rs
  156. Sampling rate                            : 48.0 kHz
  157. Frame rate                               : 31.250 FPS (1536 SPF)
  158. Compression mode                         : Lossy
  159. Stream size                              : 391 MiB (1%)
  160. Title                                    : DD 5.1
  161. Language                                 : Spanish
  162. Service kind                             : Complete Main
  163. Default                                  : No
  164. Forced                                   : No
  165. Original source medium                   : Blu-ray
  166. Audio #7
  167. ID                                       : 8
  168. ID in the original source medium         : 4356 (0x1104)
  169. Format                                   : DTS
  170. Format/Info                              : Digital Theater Systems
  171. Codec ID                                 : A_DTS
  172. Duration                                 : 2 h 1 min
  173. Bit rate mode                            : Constant
  174. Bit rate                                 : 768 kb/s
  175. Channel(s)                               : 6 channels
  176. Channel layout                           : C L R Ls Rs LFE
  177. Sampling rate                            : 48.0 kHz
  178. Frame rate                               : 93.750 FPS (512 SPF)
  179. Bit depth                                : 24 bits
  180. Compression mode                         : Lossy
  181. Stream size                              : 670 MiB (1%)
  182. Title                                    : DTS 5.1
  183. Language                                 : French
  184. Default                                  : No
  185. Forced                                   : No
  186. Original source medium                   : Blu-ray
  187. Audio #8
  188. ID                                       : 9
  189. ID in the original source medium         : 4357 (0x1105)
  190. Format                                   : DTS
  191. Format/Info                              : Digital Theater Systems
  192. Codec ID                                 : A_DTS
  193. Duration                                 : 2 h 1 min
  194. Bit rate mode                            : Constant
  195. Bit rate                                 : 768 kb/s
  196. Channel(s)                               : 6 channels
  197. Channel layout                           : C L R Ls Rs LFE
  198. Sampling rate                            : 48.0 kHz
  199. Frame rate                               : 93.750 FPS (512 SPF)
  200. Bit depth                                : 24 bits
  201. Compression mode                         : Lossy
  202. Stream size                              : 670 MiB (1%)
  203. Title                                    : DTS 5.1
  204. Language                                 : Spanish
  205. Default                                  : No
  206. Forced                                   : No
  207. Original source medium                   : Blu-ray
  208. Audio #9
  209. ID                                       : 10
  210. ID in the original source medium         : 4358 (0x1106)
  211. Format                                   : DTS
  212. Format/Info                              : Digital Theater Systems
  213. Codec ID                                 : A_DTS
  214. Duration                                 : 2 h 1 min
  215. Bit rate mode                            : Constant
  216. Bit rate                                 : 768 kb/s
  217. Channel(s)                               : 6 channels
  218. Channel layout                           : C L R Ls Rs LFE
  219. Sampling rate                            : 48.0 kHz
  220. Frame rate                               : 93.750 FPS (512 SPF)
  221. Bit depth                                : 24 bits
  222. Compression mode                         : Lossy
  223. Stream size                              : 670 MiB (1%)
  224. Title                                    : DTS 5.1
  225. Language                                 : German
  226. Default                                  : No
  227. Forced                                   : No
  228. Original source medium                   : Blu-ray
  229. Audio #10
  230. ID                                       : 11
  231. ID in the original source medium         : 4359 (0x1107)
  232. Format                                   : DTS
  233. Format/Info                              : Digital Theater Systems
  234. Codec ID                                 : A_DTS
  235. Duration                                 : 2 h 1 min
  236. Bit rate mode                            : Constant
  237. Bit rate                                 : 768 kb/s
  238. Channel(s)                               : 6 channels
  239. Channel layout                           : C L R Ls Rs LFE
  240. Sampling rate                            : 48.0 kHz
  241. Frame rate                               : 93.750 FPS (512 SPF)
  242. Bit depth                                : 24 bits
  243. Compression mode                         : Lossy
  244. Stream size                              : 670 MiB (1%)
  245. Title                                    : DTS 5.1
  246. Language                                 : Italian
  247. Default                                  : No
  248. Forced                                   : No
  249. Original source medium                   : Blu-ray
  250. Audio #11
  251. ID                                       : 12
  252. ID in the original source medium         : 4361 (0x1109)
  253. Format                                   : DTS
  254. Format/Info                              : Digital Theater Systems
  255. Codec ID                                 : A_DTS
  256. Duration                                 : 2 h 1 min
  257. Bit rate mode                            : Constant
  258. Bit rate                                 : 768 kb/s
  259. Channel(s)                               : 6 channels
  260. Channel layout                           : C L R Ls Rs LFE
  261. Sampling rate                            : 48.0 kHz
  262. Frame rate                               : 93.750 FPS (512 SPF)
  263. Bit depth                                : 24 bits
  264. Compression mode                         : Lossy
  265. Stream size                              : 670 MiB (1%)
  266. Title                                    : DTS 5.1
  267. Language                                 : Russian
  268. Default                                  : No
  269. Forced                                   : No
  270. Original source medium                   : Blu-ray
  271. Audio #12
  272. ID                                       : 13
  273. ID in the original source medium         : 4362 (0x110A)
  274. Format                                   : AC-3
  275. Format/Info                              : Audio Coding 3
  276. Commercial name                          : Dolby Digital
  277. Codec ID                                 : A_AC3
  278. Duration                                 : 2 h 1 min
  279. Bit rate mode                            : Constant
  280. Bit rate                                 : 448 kb/s
  281. Channel(s)                               : 6 channels
  282. Channel layout                           : L R C LFE Ls Rs
  283. Sampling rate                            : 48.0 kHz
  284. Frame rate                               : 31.250 FPS (1536 SPF)
  285. Compression mode                         : Lossy
  286. Stream size                              : 391 MiB (1%)
  287. Title                                    : DD 5.1
  288. Language                                 : Czech
  289. Service kind                             : Complete Main
  290. Default                                  : No
  291. Forced                                   : No
  292. Original source medium                   : Blu-ray
  293. Audio #13
  294. ID                                       : 14
  295. ID in the original source medium         : 4363 (0x110B)
  296. Format                                   : AC-3
  297. Format/Info                              : Audio Coding 3
  298. Commercial name                          : Dolby Digital
  299. Codec ID                                 : A_AC3
  300. Duration                                 : 2 h 1 min
  301. Bit rate mode                            : Constant
  302. Bit rate                                 : 448 kb/s
  303. Channel(s)                               : 6 channels
  304. Channel layout                           : L R C LFE Ls Rs
  305. Sampling rate                            : 48.0 kHz
  306. Frame rate                               : 31.250 FPS (1536 SPF)
  307. Compression mode                         : Lossy
  308. Stream size                              : 391 MiB (1%)
  309. Title                                    : DD 5.1
  310. Language                                 : Hindi
  311. Service kind                             : Complete Main
  312. Default                                  : No
  313. Forced                                   : No
  314. Original source medium                   : Blu-ray
  315. Audio #14
  316. ID                                       : 15
  317. ID in the original source medium         : 4364 (0x110C)
  318. Format                                   : AC-3
  319. Format/Info                              : Audio Coding 3
  320. Commercial name                          : Dolby Digital
  321. Codec ID                                 : A_AC3
  322. Duration                                 : 2 h 1 min
  323. Bit rate mode                            : Constant
  324. Bit rate                                 : 448 kb/s
  325. Channel(s)                               : 6 channels
  326. Channel layout                           : L R C LFE Ls Rs
  327. Sampling rate                            : 48.0 kHz
  328. Frame rate                               : 31.250 FPS (1536 SPF)
  329. Compression mode                         : Lossy
  330. Stream size                              : 391 MiB (1%)
  331. Title                                    : DD 5.1
  332. Language                                 : Hungarian
  333. Service kind                             : Complete Main
  334. Default                                  : No
  335. Forced                                   : No
  336. Original source medium                   : Blu-ray
  337. Audio #15
  338. ID                                       : 16
  339. ID in the original source medium         : 4365 (0x110D)
  340. Format                                   : AC-3
  341. Format/Info                              : Audio Coding 3
  342. Commercial name                          : Dolby Digital
  343. Codec ID                                 : A_AC3
  344. Duration                                 : 2 h 1 min
  345. Bit rate mode                            : Constant
  346. Bit rate                                 : 448 kb/s
  347. Channel(s)                               : 6 channels
  348. Channel layout                           : L R C LFE Ls Rs
  349. Sampling rate                            : 48.0 kHz
  350. Frame rate                               : 31.250 FPS (1536 SPF)
  351. Compression mode                         : Lossy
  352. Stream size                              : 391 MiB (1%)
  353. Title                                    : DD 5.1
  354. Language                                 : Polish
  355. Service kind                             : Complete Main
  356. Default                                  : No
  357. Forced                                   : No
  358. Original source medium                   : Blu-ray
  359. Audio #16
  360. ID                                       : 17
  361. ID in the original source medium         : 4366 (0x110E)
  362. Format                                   : AC-3
  363. Format/Info                              : Audio Coding 3
  364. Commercial name                          : Dolby Digital
  365. Codec ID                                 : A_AC3
  366. Duration                                 : 2 h 1 min
  367. Bit rate mode                            : Constant
  368. Bit rate                                 : 448 kb/s
  369. Channel(s)                               : 6 channels
  370. Channel layout                           : L R C LFE Ls Rs
  371. Sampling rate                            : 48.0 kHz
  372. Frame rate                               : 31.250 FPS (1536 SPF)
  373. Compression mode                         : Lossy
  374. Stream size                              : 391 MiB (1%)
  375. Title                                    : DD 5.1
  376. Language                                 : Thai
  377. Service kind                             : Complete Main
  378. Default                                  : No
  379. Forced                                   : No
  380. Original source medium                   : Blu-ray
  381. Text #1
  382. ID                                       : 18
  383. Format                                   : UTF-8
  384. Codec ID                                 : S_TEXT/UTF8
  385. Codec ID/Info                            : UTF-8 Plain Text
  386. Duration                                 : 1 h 55 min
  387. Bit rate                                 : 41 b/s
  388. Frame rate                               : 0.191 FPS
  389. Count of elements                        : 1319
  390. Stream size                              : 34.8 KiB (0%)
  391. Language                                 : English
  392. Default                                  : Yes
  393. Forced                                   : No
  394. Text #2
  395. ID                                       : 19
  396. Format                                   : UTF-8
  397. Codec ID                                 : S_TEXT/UTF8
  398. Codec ID/Info                            : UTF-8 Plain Text
  399. Duration                                 : 1 h 55 min
  400. Bit rate                                 : 45 b/s
  401. Frame rate                               : 0.225 FPS
  402. Count of elements                        : 1560
  403. Stream size                              : 38.2 KiB (0%)
  404. Title                                    : SDH
  405. Language                                 : English
  406. Default                                  : No
  407. Forced                                   : No
  408. Text #3
  409. ID                                       : 20
  410. ID in the original source medium         : 4768 (0x12A0)
  411. Format                                   : PGS
  412. Muxing mode                              : zlib
  413. Codec ID                                 : S_HDMV/PGS
  414. Codec ID/Info                            : Picture based subtitle format used on BDs/HD-DVDs
  415. Duration                                 : 1 h 58 min
  416. Bit rate                                 : 30.6 kb/s
  417. Frame rate                               : 0.447 FPS
  418. Count of elements                        : 3180
  419. Stream size                              : 26.0 MiB (0%)
  420. Language                                 : English
  421. Default                                  : No
  422. Forced                                   : No
  423. Original source medium                   : Blu-ray
  424. Text #4
  425. ID                                       : 21
  426. ID in the original source medium         : 4769 (0x12A1)
  427. Format                                   : PGS
  428. Muxing mode                              : zlib
  429. Codec ID                                 : S_HDMV/PGS
  430. Codec ID/Info                            : Picture based subtitle format used on BDs/HD-DVDs
  431. Duration                                 : 2 h 1 min
  432. Bit rate                                 : 23.5 kb/s
  433. Frame rate                               : 0.339 FPS
  434. Count of elements                        : 2476
  435. Stream size                              : 20.4 MiB (0%)
  436. Language                                 : Spanish
  437. Default                                  : No
  438. Forced                                   : No
  439. Original source medium                   : Blu-ray
  440. Text #5
  441. ID                                       : 22
  442. ID in the original source medium         : 4770 (0x12A2)
  443. Format                                   : PGS
  444. Muxing mode                              : zlib
  445. Codec ID                                 : S_HDMV/PGS
  446. Codec ID/Info                            : Picture based subtitle format used on BDs/HD-DVDs
  447. Duration                                 : 2 h 1 min
  448. Bit rate                                 : 21.3 kb/s
  449. Frame rate                               : 0.358 FPS
  450. Count of elements                        : 2608
  451. Stream size                              : 18.5 MiB (0%)
  452. Language                                 : French
  453. Default                                  : No
  454. Forced                                   : No
  455. Original source medium                   : Blu-ray
  456. Text #6
  457. ID                                       : 23
  458. ID in the original source medium         : 4770 (0x12A2)
  459. Format                                   : PGS
  460. Muxing mode                              : zlib
  461. Codec ID                                 : S_HDMV/PGS
  462. Codec ID/Info                            : Picture based subtitle format used on BDs/HD-DVDs
  463. Duration                                 : 25 min 5 s
  464. Bit rate                                 : 187 b/s
  465. Frame rate                               : 0.003 FPS
  466. Count of elements                        : 4
  467. Stream size                              : 34.4 KiB (0%)
  468. Language                                 : French
  469. Default                                  : No
  470. Forced                                   : No
  471. Original source medium                   : Blu-ray
  472. Text #7
  473. ID                                       : 24
  474. ID in the original source medium         : 4771 (0x12A3)
  475. Format                                   : PGS
  476. Muxing mode                              : zlib
  477. Codec ID                                 : S_HDMV/PGS
  478. Codec ID/Info                            : Picture based subtitle format used on BDs/HD-DVDs
  479. Duration                                 : 2 h 1 min
  480. Bit rate                                 : 23.2 kb/s
  481. Frame rate                               : 0.343 FPS
  482. Count of elements                        : 2500
  483. Stream size                              : 20.2 MiB (0%)
  484. Language                                 : Spanish
  485. Default                                  : No
  486. Forced                                   : No
  487. Original source medium                   : Blu-ray
  488. Text #8
  489. ID                                       : 25
  490. ID in the original source medium         : 4771 (0x12A3)
  491. Format                                   : PGS
  492. Muxing mode                              : zlib
  493. Codec ID                                 : S_HDMV/PGS
  494. Codec ID/Info                            : Picture based subtitle format used on BDs/HD-DVDs
  495. Duration                                 : 1 h 50 min
  496. Bit rate                                 : 83 b/s
  497. Frame rate                               : 0.001 FPS
  498. Count of elements                        : 6
  499. Stream size                              : 67.7 KiB (0%)
  500. Language                                 : Spanish
  501. Default                                  : No
  502. Forced                                   : No
  503. Original source medium                   : Blu-ray
  504. Text #9
  505. ID                                       : 26
  506. ID in the original source medium         : 4772 (0x12A4)
  507. Format                                   : PGS
  508. Muxing mode                              : zlib
  509. Codec ID                                 : S_HDMV/PGS
  510. Codec ID/Info                            : Picture based subtitle format used on BDs/HD-DVDs
  511. Duration                                 : 2 h 1 min
  512. Bit rate                                 : 23.8 kb/s
  513. Frame rate                               : 0.262 FPS
  514. Count of elements                        : 1906
  515. Stream size                              : 20.6 MiB (0%)
  516. Language                                 : Danish
  517. Default                                  : No
  518. Forced                                   : No
  519. Original source medium                   : Blu-ray
  520. Text #10
  521. ID                                       : 27
  522. ID in the original source medium         : 4773 (0x12A5)
  523. Format                                   : PGS
  524. Muxing mode                              : zlib
  525. Codec ID                                 : S_HDMV/PGS
  526. Codec ID/Info                            : Picture based subtitle format used on BDs/HD-DVDs
  527. Duration                                 : 2 h 1 min
  528. Bit rate                                 : 21.9 kb/s
  529. Frame rate                               : 0.269 FPS
  530. Count of elements                        : 1956
  531. Stream size                              : 19.0 MiB (0%)
  532. Language                                 : Dutch
  533. Default                                  : No
  534. Forced                                   : No
  535. Original source medium                   : Blu-ray
  536. Text #11
  537. ID                                       : 28
  538. ID in the original source medium         : 4774 (0x12A6)
  539. Format                                   : PGS
  540. Muxing mode                              : zlib
  541. Codec ID                                 : S_HDMV/PGS
  542. Codec ID/Info                            : Picture based subtitle format used on BDs/HD-DVDs
  543. Duration                                 : 2 h 1 min
  544. Bit rate                                 : 22.2 kb/s
  545. Frame rate                               : 0.345 FPS
  546. Count of elements                        : 2510
  547. Stream size                              : 19.3 MiB (0%)
  548. Language                                 : Finnish
  549. Default                                  : No
  550. Forced                                   : No
  551. Original source medium                   : Blu-ray
  552. Text #12
  553. ID                                       : 29
  554. ID in the original source medium         : 4775 (0x12A7)
  555. Format                                   : PGS
  556. Muxing mode                              : zlib
  557. Codec ID                                 : S_HDMV/PGS
  558. Codec ID/Info                            : Picture based subtitle format used on BDs/HD-DVDs
  559. Duration                                 : 2 h 1 min
  560. Bit rate                                 : 24.7 kb/s
  561. Frame rate                               : 0.342 FPS
  562. Count of elements                        : 2488
  563. Stream size                              : 21.5 MiB (0%)
  564. Language                                 : German
  565. Default                                  : No
  566. Forced                                   : No
  567. Original source medium                   : Blu-ray
  568. Text #13
  569. ID                                       : 30
  570. ID in the original source medium         : 4776 (0x12A8)
  571. Format                                   : PGS
  572. Muxing mode                              : zlib
  573. Codec ID                                 : S_HDMV/PGS
  574. Codec ID/Info                            : Picture based subtitle format used on BDs/HD-DVDs
  575. Duration                                 : 2 h 1 min
  576. Bit rate                                 : 23.1 kb/s
  577. Frame rate                               : 0.346 FPS
  578. Count of elements                        : 2522
  579. Stream size                              : 20.0 MiB (0%)
  580. Language                                 : Italian
  581. Default                                  : No
  582. Forced                                   : No
  583. Original source medium                   : Blu-ray
  584. Text #14
  585. ID                                       : 31
  586. ID in the original source medium         : 4776 (0x12A8)
  587. Format                                   : PGS
  588. Muxing mode                              : zlib
  589. Codec ID                                 : S_HDMV/PGS
  590. Codec ID/Info                            : Picture based subtitle format used on BDs/HD-DVDs
  591. Duration                                 : 1 h 50 min
  592. Bit rate                                 : 163 b/s
  593. Frame rate                               : 0.002 FPS
  594. Count of elements                        : 10
  595. Stream size                              : 133 KiB (0%)
  596. Language                                 : Italian
  597. Default                                  : No
  598. Forced                                   : No
  599. Original source medium                   : Blu-ray
  600. Text #15
  601. ID                                       : 32
  602. ID in the original source medium         : 4779 (0x12AB)
  603. Format                                   : PGS
  604. Muxing mode                              : zlib
  605. Codec ID                                 : S_HDMV/PGS
  606. Codec ID/Info                            : Picture based subtitle format used on BDs/HD-DVDs
  607. Duration                                 : 1 h 57 min
  608. Bit rate                                 : 24.5 kb/s
  609. Frame rate                               : 0.356 FPS
  610. Count of elements                        : 2518
  611. Stream size                              : 20.6 MiB (0%)
  612. Language                                 : Norwegian
  613. Default                                  : No
  614. Forced                                   : No
  615. Original source medium                   : Blu-ray
  616. Text #16
  617. ID                                       : 33
  618. ID in the original source medium         : 4780 (0x12AC)
  619. Format                                   : PGS
  620. Muxing mode                              : zlib
  621. Codec ID                                 : S_HDMV/PGS
  622. Codec ID/Info                            : Picture based subtitle format used on BDs/HD-DVDs
  623. Duration                                 : 2 h 1 min
  624. Bit rate                                 : 22.8 kb/s
  625. Frame rate                               : 0.290 FPS
  626. Count of elements                        : 2112
  627. Stream size                              : 19.8 MiB (0%)
  628. Language                                 : Russian
  629. Default                                  : No
  630. Forced                                   : No
  631. Original source medium                   : Blu-ray
  632. Text #17
  633. ID                                       : 34
  634. ID in the original source medium         : 4780 (0x12AC)
  635. Format                                   : PGS
  636. Muxing mode                              : zlib
  637. Codec ID                                 : S_HDMV/PGS
  638. Codec ID/Info                            : Picture based subtitle format used on BDs/HD-DVDs
  639. Duration                                 : 25 min 5 s
  640. Bit rate                                 : 313 b/s
  641. Frame rate                               : 0.003 FPS
  642. Count of elements                        : 4
  643. Stream size                              : 57.7 KiB (0%)
  644. Language                                 : Russian
  645. Default                                  : No
  646. Forced                                   : No
  647. Original source medium                   : Blu-ray
  648. Text #18
  649. ID                                       : 35
  650. ID in the original source medium         : 4781 (0x12AD)
  651. Format                                   : PGS
  652. Muxing mode                              : zlib
  653. Codec ID                                 : S_HDMV/PGS
  654. Codec ID/Info                            : Picture based subtitle format used on BDs/HD-DVDs
  655. Duration                                 : 2 h 1 min
  656. Bit rate                                 : 23.0 kb/s
  657. Frame rate                               : 0.346 FPS
  658. Count of elements                        : 2522
  659. Stream size                              : 20.0 MiB (0%)
  660. Language                                 : Swedish
  661. Default                                  : No
  662. Forced                                   : No
  663. Original source medium                   : Blu-ray
  664. Text #19
  665. ID                                       : 36
  666. ID in the original source medium         : 4782 (0x12AE)
  667. Format                                   : PGS
  668. Muxing mode                              : zlib
  669. Codec ID                                 : S_HDMV/PGS
  670. Codec ID/Info                            : Picture based subtitle format used on BDs/HD-DVDs
  671. Duration                                 : 2 h 1 min
  672. Bit rate                                 : 18.2 kb/s
  673. Frame rate                               : 0.347 FPS
  674. Count of elements                        : 2524
  675. Stream size                              : 15.8 MiB (0%)
  676. Language                                 : Chinese
  677. Default                                  : No
  678. Forced                                   : No
  679. Original source medium                   : Blu-ray
  680. Text #20
  681. ID                                       : 37
  682. ID in the original source medium         : 4783 (0x12AF)
  683. Format                                   : PGS
  684. Muxing mode                              : zlib
  685. Codec ID                                 : S_HDMV/PGS
  686. Codec ID/Info                            : Picture based subtitle format used on BDs/HD-DVDs
  687. Duration                                 : 2 h 1 min
  688. Bit rate                                 : 20.8 kb/s
  689. Frame rate                               : 0.346 FPS
  690. Count of elements                        : 2518
  691. Stream size                              : 18.0 MiB (0%)
  692. Language                                 : Czech
  693. Default                                  : No
  694. Forced                                   : No
  695. Original source medium                   : Blu-ray
  696. Text #21
  697. ID                                       : 38
  698. ID in the original source medium         : 4783 (0x12AF)
  699. Format                                   : PGS
  700. Muxing mode                              : zlib
  701. Codec ID                                 : S_HDMV/PGS
  702. Codec ID/Info                            : Picture based subtitle format used on BDs/HD-DVDs
  703. Duration                                 : 1 h 20 min
  704. Bit rate                                 : 147 b/s
  705. Frame rate                               : 0.001 FPS
  706. Count of elements                        : 6
  707. Stream size                              : 87.0 KiB (0%)
  708. Language                                 : Czech
  709. Default                                  : No
  710. Forced                                   : No
  711. Original source medium                   : Blu-ray
  712. Text #22
  713. ID                                       : 39
  714. ID in the original source medium         : 4784 (0x12B0)
  715. Format                                   : PGS
  716. Muxing mode                              : zlib
  717. Codec ID                                 : S_HDMV/PGS
  718. Codec ID/Info                            : Picture based subtitle format used on BDs/HD-DVDs
  719. Duration                                 : 2 h 1 min
  720. Bit rate                                 : 26.2 kb/s
  721. Frame rate                               : 0.320 FPS
  722. Count of elements                        : 2332
  723. Stream size                              : 22.8 MiB (0%)
  724. Language                                 : Greek
  725. Default                                  : No
  726. Forced                                   : No
  727. Original source medium                   : Blu-ray
  728. Text #23
  729. ID                                       : 40
  730. ID in the original source medium         : 4785 (0x12B1)
  731. Format                                   : PGS
  732. Muxing mode                              : zlib
  733. Codec ID                                 : S_HDMV/PGS
  734. Codec ID/Info                            : Picture based subtitle format used on BDs/HD-DVDs
  735. Duration                                 : 2 h 1 min
  736. Bit rate                                 : 22.0 kb/s
  737. Frame rate                               : 0.351 FPS
  738. Count of elements                        : 2558
  739. Stream size                              : 19.0 MiB (0%)
  740. Language                                 : Hindi
  741. Default                                  : No
  742. Forced                                   : No
  743. Original source medium                   : Blu-ray
  744. Text #24
  745. ID                                       : 41
  746. ID in the original source medium         : 4785 (0x12B1)
  747. Format                                   : PGS
  748. Muxing mode                              : zlib
  749. Codec ID                                 : S_HDMV/PGS
  750. Codec ID/Info                            : Picture based subtitle format used on BDs/HD-DVDs
  751. Duration                                 : 1 h 20 min
  752. Bit rate                                 : 58 b/s
  753. Frame rate                               : 0.001 FPS
  754. Count of elements                        : 4
  755. Stream size                              : 34.3 KiB (0%)
  756. Language                                 : Hindi
  757. Default                                  : No
  758. Forced                                   : No
  759. Original source medium                   : Blu-ray
  760. Text #25
  761. ID                                       : 42
  762. ID in the original source medium         : 4786 (0x12B2)
  763. Format                                   : PGS
  764. Muxing mode                              : zlib
  765. Codec ID                                 : S_HDMV/PGS
  766. Codec ID/Info                            : Picture based subtitle format used on BDs/HD-DVDs
  767. Duration                                 : 2 h 1 min
  768. Bit rate                                 : 22.9 kb/s
  769. Frame rate                               : 0.345 FPS
  770. Count of elements                        : 2512
  771. Stream size                              : 19.9 MiB (0%)
  772. Language                                 : Hungarian
  773. Default                                  : No
  774. Forced                                   : No
  775. Original source medium                   : Blu-ray
  776. Text #26
  777. ID                                       : 43
  778. ID in the original source medium         : 4786 (0x12B2)
  779. Format                                   : PGS
  780. Muxing mode                              : zlib
  781. Codec ID                                 : S_HDMV/PGS
  782. Codec ID/Info                            : Picture based subtitle format used on BDs/HD-DVDs
  783. Duration                                 : 1 h 50 min
  784. Bit rate                                 : 67 b/s
  785. Frame rate                               : 0.001 FPS
  786. Count of elements                        : 4
  787. Stream size                              : 55.1 KiB (0%)
  788. Language                                 : Hungarian
  789. Default                                  : No
  790. Forced                                   : No
  791. Original source medium                   : Blu-ray
  792. Text #27
  793. ID                                       : 44
  794. ID in the original source medium         : 4787 (0x12B3)
  795. Format                                   : PGS
  796. Muxing mode                              : zlib
  797. Codec ID                                 : S_HDMV/PGS
  798. Codec ID/Info                            : Picture based subtitle format used on BDs/HD-DVDs
  799. Duration                                 : 2 h 1 min
  800. Bit rate                                 : 15.4 kb/s
  801. Frame rate                               : 0.342 FPS
  802. Count of elements                        : 2492
  803. Stream size                              : 13.4 MiB (0%)
  804. Language                                 : Korean
  805. Default                                  : No
  806. Forced                                   : No
  807. Original source medium                   : Blu-ray
  808. Text #28
  809. ID                                       : 45
  810. ID in the original source medium         : 4788 (0x12B4)
  811. Format                                   : PGS
  812. Muxing mode                              : zlib
  813. Codec ID                                 : S_HDMV/PGS
  814. Codec ID/Info                            : Picture based subtitle format used on BDs/HD-DVDs
  815. Duration                                 : 2 h 1 min
  816. Bit rate                                 : 18.6 kb/s
  817. Frame rate                               : 0.346 FPS
  818. Count of elements                        : 2522
  819. Stream size                              : 16.2 MiB (0%)
  820. Language                                 : Chinese
  821. Default                                  : No
  822. Forced                                   : No
  823. Original source medium                   : Blu-ray
  824. Text #29
  825. ID                                       : 46
  826. ID in the original source medium         : 4789 (0x12B5)
  827. Format                                   : PGS
  828. Muxing mode                              : zlib
  829. Codec ID                                 : S_HDMV/PGS
  830. Codec ID/Info                            : Picture based subtitle format used on BDs/HD-DVDs
  831. Duration                                 : 2 h 1 min
  832. Bit rate                                 : 21.0 kb/s
  833. Frame rate                               : 0.338 FPS
  834. Count of elements                        : 2460
  835. Stream size                              : 18.3 MiB (0%)
  836. Language                                 : Polish
  837. Default                                  : No
  838. Forced                                   : No
  839. Original source medium                   : Blu-ray
  840. Text #30
  841. ID                                       : 47
  842. ID in the original source medium         : 4789 (0x12B5)
  843. Format                                   : PGS
  844. Muxing mode                              : zlib
  845. Codec ID                                 : S_HDMV/PGS
  846. Codec ID/Info                            : Picture based subtitle format used on BDs/HD-DVDs
  847. Duration                                 : 1 h 20 min
  848. Bit rate                                 : 295 b/s
  849. Frame rate                               : 0.002 FPS
  850. Count of elements                        : 10
  851. Stream size                              : 174 KiB (0%)
  852. Language                                 : Polish
  853. Default                                  : No
  854. Forced                                   : No
  855. Original source medium                   : Blu-ray
  856. Text #31
  857. ID                                       : 48
  858. ID in the original source medium         : 4790 (0x12B6)
  859. Format                                   : PGS
  860. Muxing mode                              : zlib
  861. Codec ID                                 : S_HDMV/PGS
  862. Codec ID/Info                            : Picture based subtitle format used on BDs/HD-DVDs
  863. Duration                                 : 2 h 1 min
  864. Bit rate                                 : 22.7 kb/s
  865. Frame rate                               : 0.345 FPS
  866. Count of elements                        : 2510
  867. Stream size                              : 19.7 MiB (0%)
  868. Language                                 : Romanian
  869. Default                                  : No
  870. Forced                                   : No
  871. Original source medium                   : Blu-ray
  872. Text #32
  873. ID                                       : 49
  874. ID in the original source medium         : 4791 (0x12B7)
  875. Format                                   : PGS
  876. Muxing mode                              : zlib
  877. Codec ID                                 : S_HDMV/PGS
  878. Codec ID/Info                            : Picture based subtitle format used on BDs/HD-DVDs
  879. Duration                                 : 2 h 1 min
  880. Bit rate                                 : 19.1 kb/s
  881. Frame rate                               : 0.346 FPS
  882. Count of elements                        : 2522
  883. Stream size                              : 16.6 MiB (0%)
  884. Language                                 : Thai
  885. Default                                  : No
  886. Forced                                   : No
  887. Original source medium                   : Blu-ray
  888. Text #33
  889. ID                                       : 50
  890. ID in the original source medium         : 4791 (0x12B7)
  891. Format                                   : PGS
  892. Muxing mode                              : zlib
  893. Codec ID                                 : S_HDMV/PGS
  894. Codec ID/Info                            : Picture based subtitle format used on BDs/HD-DVDs
  895. Duration                                 : 1 h 20 min
  896. Bit rate                                 : 80 b/s
  897. Frame rate                               : 0.001 FPS
  898. Count of elements                        : 4
  899. Stream size                              : 47.3 KiB (0%)
  900. Language                                 : Thai
  901. Default                                  : No
  902. Forced                                   : No
  903. Original source medium                   : Blu-ray
  904. Menu
  905. 00:00:00.000                             : en:Chapter 01
  906. 00:03:28.708                             : en:Chapter 02
  907. 00:07:51.679                             : en:Chapter 03
  908. 00:10:07.648                             : en:Chapter 04
  909. 00:13:06.702                             : en:Chapter 05
  910. 00:15:06.488                             : en:Chapter 06
  911. 00:18:04.541                             : en:Chapter 07
  912. 00:22:58.585                             : en:Chapter 08
  913. 00:25:35.325                             : en:Chapter 09
  914. 00:31:40.899                             : en:Chapter 10
  915. 00:33:29.215                             : en:Chapter 11
  916. 00:36:32.607                             : en:Chapter 12
  917. 00:38:30.808                             : en:Chapter 13
  918. 00:42:05.481                             : en:Chapter 14
  919. 00:45:57.963                             : en:Chapter 15
  920. 00:48:31.199                             : en:Chapter 16
  921. 00:52:57.382                             : en:Chapter 17
  922. 00:55:14.227                             : en:Chapter 18
  923. 01:00:39.594                             : en:Chapter 19
  924. 01:02:56.564                             : en:Chapter 20
  925. 01:05:16.621                             : en:Chapter 21
  926. 01:10:50.496                             : en:Chapter 22
  927. 01:13:37.204                             : en:Chapter 23
  928. 01:16:34.965                             : en:Chapter 24
  929. 01:18:51.935                             : en:Chapter 25
  930. 01:22:48.088                             : en:Chapter 26
  931. 01:24:55.340                             : en:Chapter 27
  932. 01:28:25.216                             : en:Chapter 28
  933. 01:33:18.551                             : en:Chapter 29
  934. 01:36:08.554                             : en:Chapter 30
  935. 01:41:54.358                             : en:Chapter 31
  936. 01:45:23.442                             : en:Chapter 32
  937. 01:48:16.490                             : en:Chapter 33
  938. 01:51:43.613                             : en:Chapter 34
  939. 01:54:43.668                             : en:Chapter 35
  940. 01:56:51.504                             : en:Chapter 36
复制代码




                                       
                                       

                                       
                                       
                                       




阿丽塔:战斗天使 Alita.Battle.Angel.2019.PROPER.2160p.BluRay.REMUX.HEVC.DTS-HD.MA.TrueHD.7.1.Atmos-FGT 53.30GB

Alita.Battle.Angel.2019.PROPER.2160p.BluRay.REMUX.HEVC.DTS-HD.MA.TrueHD.7.1.Atmo.torrent

67.33 KB, 下载次数: 1, 下载积分: 蓝光币 -2

回复

使用道具 举报

您需要登录后才可以回帖 登录 | 立即注册

本版积分规则

QQ|Archiver|手机版|小黑屋|蓝光电影网

GMT+8, 2023-2-8 01:13 , Processed in 0.061305 second(s), 28 queries .

Powered by Discuz! X3.4

Copyright © 2001-2020, Tencent Cloud.

快速回复 返回顶部 返回列表