找回密码
 立即注册

QQ登录

只需一步,快速开始

查看: 114|回复: 0

[UHD.HEVC] 蝙蝠侠:黑暗骑士 The.Dark.Knight.2008.PROPER.2160p.BluRay.REMUX.HEVC.DTS-HD.MA.5.1-FGT 63.79GB

[复制链接]

0

精华

0

好友

2

听众

新手上路

Rank: 2

蓝光币
5
发表于 2022-11-30 07:52:11 | 显示全部楼层 |阅读模式
[img][/img]

◎标  题 蝙蝠侠:黑暗骑士
◎译  名 蝙蝠侠前传2:黑暗骑士 / 黑暗骑士(台) / 蝙蝠侠-黑夜之神(港) / 蝙蝠侠6:暗夜骑士 / Batman: The Dark Knight / TDK
◎片  名 The Dark Knight
◎年  代 2008
◎产  地 美国 / 英国
◎类  别 剧情 / 动作 / 科幻 / 惊悚 / 犯罪
◎语  言 英语 / 汉语普通话
◎上映日期 2008-07-14(纽约首映) / 2008-07-18(美国)
◎IMDb评分 9/10 (2451362人评价)
◎IMDb链接 https://www.imdb.com/title/tt0468569/
◎豆瓣评分 9.2/10 (908680人评价)
◎豆瓣链接 https://movie.douban.com/subject/1851857/
◎片  长 152分钟
◎导  演 克里斯托弗·诺兰 Christopher Nolan
◎编  剧 乔纳森·诺兰 Jonathan Nolan
       克里斯托弗·诺兰 Christopher Nolan
       大卫·S·高耶 David S. Goyer
       鲍勃·凯恩 Bob Kane
◎演  员 克里斯蒂安·贝尔 Christian Bale
       希斯·莱杰 Heath Ledger
       艾伦·艾克哈特 Aaron Eckhart
       迈克尔·凯恩 Michael Caine
       玛吉·吉伦哈尔 Maggie Gyllenhaal
       加里·奥德曼 Gary Oldman
       摩根·弗里曼 Morgan Freeman
       莫尼克·加布里埃拉·库尔内 Monique Gabriela Curnen
       罗恩·迪恩 Ron Dean
       基里安·墨菲 Cillian Murphy
       黄经汉 Chin Han
       内斯特·卡博内尔 Nestor Carbonell
       埃里克·罗伯茨 Eric Roberts
       里特奇·科斯特 Ritchie Coster
       安东尼·迈克尔·豪尔 Anthony Michael Hall
       基斯·斯扎拉巴基克 Keith Szarabajka
       柯林·麦克法兰 Colin McFarlane
       约书亚·哈尔托 Joshua Harto
       美琳达·麦格劳 Melinda McGraw
       内森·甘宝 Nathan Gamble
       迈克尔·维约 Michael Vieau
       迈克尔·斯托扬诺夫 Michael Stoyanov
       威廉·斯米利 William Smillie
       丹尼·高德林 Danny Goldring
       迈克尔·加·怀特 Michael Jai White
       马修·奥尼尔 Matthew O'Neill
       威廉·菲克纳 William Fichtner
       欧鲁米基·欧拉乌米 Olumiji Olawumi
       格雷格·比姆 Gregory Beam
       爱利克·赫尔曼 Erik Hellman
       毕崔斯·罗森 Beatrice Rosen
       文森佐·尼克力 Vincenzo Nicoli
       陈冠希 Edison Chen
       罗南·萨莫尔斯 Ronan Summers
       玛丽扎·卡布蕾拉 Maritza Cabrera
       大卫·达斯马齐连 David Dastmalchian
       理查德·迪兰 Richard Dillane
       利萨·麦克阿里斯特 Lisa McAllister
       亚当·卡莱佩里斯 Adam Kalesperis
       查尔斯·罗文 Charles Roven
       艾玛·托马斯 Emma Thomas
       克里斯托弗·诺兰 Christopher Nolan
       马切尔·E·尤斯兰 Michael E. Uslan
       汉斯·季默 Hans Zimmer
       詹姆斯·纽顿·霍华德 James Newton Howard
       沃利·菲斯特 Wally Pfister
       李·史密斯 Lee Smith
       林迪·海明 Lindy Hemming
       米格尔·A·萨莱克 Miguel A. Salek
◎标  签 诺兰 / 科幻 / 美国 / 犯罪 / 人性 / 动作 / 经典 / 超级英雄
◎简  介

  从亲眼目睹父母被人杀死的阴影中走出来的“蝙蝠侠”,经历了成长之后,已经不再是那个桀骜不的孤单英雄了。在警官吉姆·戈登和检查官哈维·登特的通力帮助下,“蝙蝠侠”无后顾之忧地继续满世界的奔波,与日益增长起来的犯罪威胁做着永无休止的争斗,而他所在的高谭市,也是进展最为明显的地方,犯罪率以一种惊人的速度持续下降着,毕竟对方是能够上天入地的“蝙蝠侠”,不借两个胆子谁还敢造次呢?不过像高谭这种科技与污秽并存的城市,平静是不可能维持太久的,果不其然,新一轮的混乱很快就席卷了整个城市,人们再一被被恐慌所笼罩着,而声称愿意为这一切负责的,自然就是所有混乱的源头以及支配者--“小丑”了。                                       
                                    先不管“小丑”掀起一个又一个犯罪的狂潮的最终目的为何,他的企图都是邪恶的,所作所为更是早就危害到了高谭市民的正常生活……其中自然包括了“蝙蝠侠”身边几个非常重要的人,而他需要做的,就是...
  1. Video
  2. ID                                       : 1
  3. ID in the original source medium         : 4113 (0x1011)
  4. Format                                   : HEVC
  5. Format/Info                              : High Efficiency Video Coding
  6. Format profile                           : Main [email protected]@High
  7. HDR format                               : SMPTE ST 2086, HDR10 compatible
  8. Codec ID                                 : V_MPEGH/ISO/HEVC
  9. Duration                                 : 2 h 32 min
  10. Bit rate                                 : 47.2 Mb/s
  11. Width                                    : 3 840 pixels
  12. Height                                   : 2 160 pixels
  13. Display aspect ratio                     : 16:9
  14. Frame rate mode                          : Constant
  15. Frame rate                               : 23.976 (24000/1001/189150) FPS
  16. Color space                              : YUV
  17. Chroma subsampling                       : 4:2:0 (Type 2)
  18. Bit depth                                : 10 bits
  19. Bits/(Pixel*Frame)                       : 0.237
  20. Stream size                              : 50.1 GiB (79%)
  21. Language                                 : English
  22. Default                                  : No
  23. Forced                                   : No
  24. Color range                              : Limited
  25. Color primaries                          : BT.2020
  26. Transfer characteristics                 : PQ
  27. Matrix coefficients                      : BT.2020 non-constant
  28. Mastering display color primaries        : Display P3
  29. Mastering display luminance              : min: 0.0050 cd/m2, max: 4000 cd/m2
  30. Maximum Content Light Level              : 500 cd/m2
  31. Maximum Frame-Average Light Level        : 200 cd/m2
  32. Original source medium                   : Blu-ray
  33. Audio #1
  34. ID                                       : 2
  35. ID in the original source medium         : 4352 (0x1100)
  36. Format                                   : DTS XLL
  37. Format/Info                              : Digital Theater Systems
  38. Commercial name                          : DTS-HD Master Audio
  39. Codec ID                                 : A_DTS
  40. Duration                                 : 2 h 32 min
  41. Bit rate mode                            : Variable
  42. Bit rate                                 : 3 814 kb/s
  43. Channel(s)                               : 6 channels
  44. Channel layout                           : C L R Ls Rs LFE
  45. Sampling rate                            : 48.0 kHz
  46. Frame rate                               : 93.750 FPS (512 SPF)
  47. Bit depth                                : 24 bits
  48. Compression mode                         : Lossless
  49. Stream size                              : 4.06 GiB (6%)
  50. Title                                    : DTS-HD MA 5.1
  51. Language                                 : English
  52. Default                                  : Yes
  53. Forced                                   : No
  54. Original source medium                   : Blu-ray
  55. Audio #2
  56. ID                                       : 3
  57. Format                                   : AC-3
  58. Format/Info                              : Audio Coding 3
  59. Commercial name                          : Dolby Digital
  60. Codec ID                                 : A_AC3
  61. Duration                                 : 2 h 32 min
  62. Bit rate mode                            : Constant
  63. Bit rate                                 : 640 kb/s
  64. Channel(s)                               : 6 channels
  65. Channel layout                           : L R C LFE Ls Rs
  66. Sampling rate                            : 48.0 kHz
  67. Frame rate                               : 31.250 FPS (1536 SPF)
  68. Compression mode                         : Lossy
  69. Stream size                              : 697 MiB (1%)
  70. Title                                    : DD 5.1
  71. Language                                 : English
  72. Service kind                             : Complete Main
  73. Default                                  : No
  74. Forced                                   : No
  75. Audio #3
  76. ID                                       : 4
  77. ID in the original source medium         : 4353 (0x1101)
  78. Format                                   : AC-3
  79. Format/Info                              : Audio Coding 3
  80. Commercial name                          : Dolby Digital
  81. Format settings                          : Dolby Surround
  82. Codec ID                                 : A_AC3
  83. Duration                                 : 2 h 32 min
  84. Bit rate mode                            : Constant
  85. Bit rate                                 : 192 kb/s
  86. Channel(s)                               : 2 channels
  87. Channel layout                           : L R
  88. Sampling rate                            : 48.0 kHz
  89. Frame rate                               : 31.250 FPS (1536 SPF)
  90. Compression mode                         : Lossy
  91. Stream size                              : 209 MiB (0%)
  92. Title                                    : DD 2.0
  93. Language                                 : English
  94. Service kind                             : Complete Main
  95. Default                                  : No
  96. Forced                                   : No
  97. Original source medium                   : Blu-ray
  98. Audio #4
  99. ID                                       : 5
  100. ID in the original source medium         : 4354 (0x1102)
  101. Format                                   : DTS XLL
  102. Format/Info                              : Digital Theater Systems
  103. Commercial name                          : DTS-HD Master Audio
  104. Codec ID                                 : A_DTS
  105. Duration                                 : 2 h 32 min
  106. Bit rate mode                            : Variable
  107. Bit rate                                 : 2 262 kb/s
  108. Channel(s)                               : 6 channels
  109. Channel layout                           : C L R Ls Rs LFE
  110. Sampling rate                            : 48.0 kHz
  111. Frame rate                               : 93.750 FPS (512 SPF)
  112. Bit depth                                : 16 bits
  113. Compression mode                         : Lossless
  114. Stream size                              : 2.41 GiB (4%)
  115. Title                                    : DTS-HD MA 5.1
  116. Language                                 : French
  117. Default                                  : No
  118. Forced                                   : No
  119. Original source medium                   : Blu-ray
  120. Audio #5
  121. ID                                       : 6
  122. ID in the original source medium         : 4355 (0x1103)
  123. Format                                   : DTS XLL
  124. Format/Info                              : Digital Theater Systems
  125. Commercial name                          : DTS-HD Master Audio
  126. Codec ID                                 : A_DTS
  127. Duration                                 : 2 h 32 min
  128. Bit rate mode                            : Variable
  129. Bit rate                                 : 2 262 kb/s
  130. Channel(s)                               : 6 channels
  131. Channel layout                           : C L R Ls Rs LFE
  132. Sampling rate                            : 48.0 kHz
  133. Frame rate                               : 93.750 FPS (512 SPF)
  134. Bit depth                                : 16 bits
  135. Compression mode                         : Lossless
  136. Stream size                              : 2.41 GiB (4%)
  137. Title                                    : DTS-HD MA 5.1
  138. Language                                 : German
  139. Default                                  : No
  140. Forced                                   : No
  141. Original source medium                   : Blu-ray
  142. Audio #6
  143. ID                                       : 7
  144. ID in the original source medium         : 4356 (0x1104)
  145. Format                                   : AC-3
  146. Format/Info                              : Audio Coding 3
  147. Commercial name                          : Dolby Digital
  148. Codec ID                                 : A_AC3
  149. Duration                                 : 2 h 32 min
  150. Bit rate mode                            : Constant
  151. Bit rate                                 : 448 kb/s
  152. Channel(s)                               : 6 channels
  153. Channel layout                           : L R C LFE Ls Rs
  154. Sampling rate                            : 48.0 kHz
  155. Frame rate                               : 31.250 FPS (1536 SPF)
  156. Compression mode                         : Lossy
  157. Stream size                              : 488 MiB (1%)
  158. Title                                    : DD 5.1
  159. Language                                 : Italian
  160. Service kind                             : Complete Main
  161. Default                                  : No
  162. Forced                                   : No
  163. Original source medium                   : Blu-ray
  164. Audio #7
  165. ID                                       : 8
  166. ID in the original source medium         : 4357 (0x1105)
  167. Format                                   : AC-3
  168. Format/Info                              : Audio Coding 3
  169. Commercial name                          : Dolby Digital
  170. Codec ID                                 : A_AC3
  171. Duration                                 : 2 h 32 min
  172. Bit rate mode                            : Constant
  173. Bit rate                                 : 448 kb/s
  174. Channel(s)                               : 6 channels
  175. Channel layout                           : L R C LFE Ls Rs
  176. Sampling rate                            : 48.0 kHz
  177. Frame rate                               : 31.250 FPS (1536 SPF)
  178. Compression mode                         : Lossy
  179. Stream size                              : 488 MiB (1%)
  180. Title                                    : DD 5.1
  181. Language                                 : Spanish
  182. Service kind                             : Complete Main
  183. Default                                  : No
  184. Forced                                   : No
  185. Original source medium                   : Blu-ray
  186. Audio #8
  187. ID                                       : 9
  188. ID in the original source medium         : 4358 (0x1106)
  189. Format                                   : AC-3
  190. Format/Info                              : Audio Coding 3
  191. Commercial name                          : Dolby Digital
  192. Codec ID                                 : A_AC3
  193. Duration                                 : 2 h 32 min
  194. Bit rate mode                            : Constant
  195. Bit rate                                 : 448 kb/s
  196. Channel(s)                               : 6 channels
  197. Channel layout                           : L R C LFE Ls Rs
  198. Sampling rate                            : 48.0 kHz
  199. Frame rate                               : 31.250 FPS (1536 SPF)
  200. Compression mode                         : Lossy
  201. Stream size                              : 488 MiB (1%)
  202. Title                                    : DD 5.1
  203. Language                                 : Czech
  204. Service kind                             : Complete Main
  205. Default                                  : No
  206. Forced                                   : No
  207. Original source medium                   : Blu-ray
  208. Audio #9
  209. ID                                       : 10
  210. ID in the original source medium         : 4359 (0x1107)
  211. Format                                   : AC-3
  212. Format/Info                              : Audio Coding 3
  213. Commercial name                          : Dolby Digital
  214. Codec ID                                 : A_AC3
  215. Duration                                 : 2 h 32 min
  216. Bit rate mode                            : Constant
  217. Bit rate                                 : 448 kb/s
  218. Channel(s)                               : 6 channels
  219. Channel layout                           : L R C LFE Ls Rs
  220. Sampling rate                            : 48.0 kHz
  221. Frame rate                               : 31.250 FPS (1536 SPF)
  222. Compression mode                         : Lossy
  223. Stream size                              : 488 MiB (1%)
  224. Title                                    : DD 5.1
  225. Language                                 : Hungarian
  226. Service kind                             : Complete Main
  227. Default                                  : No
  228. Forced                                   : No
  229. Original source medium                   : Blu-ray
  230. Audio #10
  231. ID                                       : 11
  232. ID in the original source medium         : 4360 (0x1108)
  233. Format                                   : AC-3
  234. Format/Info                              : Audio Coding 3
  235. Commercial name                          : Dolby Digital
  236. Codec ID                                 : A_AC3
  237. Duration                                 : 2 h 32 min
  238. Bit rate mode                            : Constant
  239. Bit rate                                 : 448 kb/s
  240. Channel(s)                               : 6 channels
  241. Channel layout                           : L R C LFE Ls Rs
  242. Sampling rate                            : 48.0 kHz
  243. Frame rate                               : 31.250 FPS (1536 SPF)
  244. Compression mode                         : Lossy
  245. Stream size                              : 488 MiB (1%)
  246. Title                                    : DD 5.1
  247. Language                                 : Polish
  248. Service kind                             : Complete Main
  249. Default                                  : No
  250. Forced                                   : No
  251. Original source medium                   : Blu-ray
  252. Audio #11
  253. ID                                       : 12
  254. ID in the original source medium         : 4361 (0x1109)
  255. Format                                   : AC-3
  256. Format/Info                              : Audio Coding 3
  257. Commercial name                          : Dolby Digital
  258. Codec ID                                 : A_AC3
  259. Duration                                 : 2 h 32 min
  260. Bit rate mode                            : Constant
  261. Bit rate                                 : 640 kb/s
  262. Channel(s)                               : 6 channels
  263. Channel layout                           : L R C LFE Ls Rs
  264. Sampling rate                            : 48.0 kHz
  265. Frame rate                               : 31.250 FPS (1536 SPF)
  266. Compression mode                         : Lossy
  267. Stream size                              : 697 MiB (1%)
  268. Title                                    : DD 5.1
  269. Language                                 : Russian
  270. Service kind                             : Complete Main
  271. Default                                  : No
  272. Forced                                   : No
  273. Original source medium                   : Blu-ray
  274. Audio #12
  275. ID                                       : 13
  276. ID in the original source medium         : 4362 (0x110A)
  277. Format                                   : AC-3
  278. Format/Info                              : Audio Coding 3
  279. Commercial name                          : Dolby Digital
  280. Codec ID                                 : A_AC3
  281. Duration                                 : 2 h 32 min
  282. Bit rate mode                            : Constant
  283. Bit rate                                 : 448 kb/s
  284. Channel(s)                               : 6 channels
  285. Channel layout                           : L R C LFE Ls Rs
  286. Sampling rate                            : 48.0 kHz
  287. Frame rate                               : 31.250 FPS (1536 SPF)
  288. Compression mode                         : Lossy
  289. Stream size                              : 488 MiB (1%)
  290. Title                                    : DD 5.1
  291. Language                                 : Japanese
  292. Service kind                             : Complete Main
  293. Default                                  : No
  294. Forced                                   : No
  295. Original source medium                   : Blu-ray
  296. Text #1
  297. ID                                       : 14
  298. Format                                   : UTF-8
  299. Codec ID                                 : S_TEXT/UTF8
  300. Codec ID/Info                            : UTF-8 Plain Text
  301. Duration                                 : 2 h 30 min
  302. Bit rate                                 : 62 b/s
  303. Frame rate                               : 0.198 FPS
  304. Count of elements                        : 1789
  305. Stream size                              : 68.7 KiB (0%)
  306. Language                                 : English
  307. Default                                  : Yes
  308. Forced                                   : No
  309. Text #2
  310. ID                                       : 15
  311. Format                                   : UTF-8
  312. Codec ID                                 : S_TEXT/UTF8
  313. Codec ID/Info                            : UTF-8 Plain Text
  314. Duration                                 : 2 h 30 min
  315. Bit rate                                 : 64 b/s
  316. Frame rate                               : 0.218 FPS
  317. Count of elements                        : 1974
  318. Stream size                              : 71.7 KiB (0%)
  319. Title                                    : SDH
  320. Language                                 : English
  321. Default                                  : No
  322. Forced                                   : No
  323. Text #3
  324. ID                                       : 16
  325. ID in the original source medium         : 4768 (0x12A0)
  326. Format                                   : PGS
  327. Muxing mode                              : zlib
  328. Codec ID                                 : S_HDMV/PGS
  329. Codec ID/Info                            : Picture based subtitle format used on BDs/HD-DVDs
  330. Duration                                 : 2 h 30 min
  331. Bit rate                                 : 38.8 kb/s
  332. Frame rate                               : 0.445 FPS
  333. Count of elements                        : 4020
  334. Stream size                              : 41.8 MiB (0%)
  335. Language                                 : English
  336. Default                                  : No
  337. Forced                                   : No
  338. Original source medium                   : Blu-ray
  339. Text #4
  340. ID                                       : 17
  341. ID in the original source medium         : 4769 (0x12A1)
  342. Format                                   : PGS
  343. Muxing mode                              : zlib
  344. Codec ID                                 : S_HDMV/PGS
  345. Codec ID/Info                            : Picture based subtitle format used on BDs/HD-DVDs
  346. Duration                                 : 2 h 30 min
  347. Bit rate                                 : 28.6 kb/s
  348. Frame rate                               : 0.461 FPS
  349. Count of elements                        : 4164
  350. Stream size                              : 30.8 MiB (0%)
  351. Language                                 : French
  352. Default                                  : No
  353. Forced                                   : No
  354. Original source medium                   : Blu-ray
  355. Text #5
  356. ID                                       : 18
  357. ID in the original source medium         : 4770 (0x12A2)
  358. Format                                   : PGS
  359. Muxing mode                              : zlib
  360. Codec ID                                 : S_HDMV/PGS
  361. Codec ID/Info                            : Picture based subtitle format used on BDs/HD-DVDs
  362. Duration                                 : 2 h 30 min
  363. Bit rate                                 : 45.3 kb/s
  364. Frame rate                               : 0.458 FPS
  365. Count of elements                        : 4140
  366. Stream size                              : 48.8 MiB (0%)
  367. Language                                 : German
  368. Default                                  : No
  369. Forced                                   : No
  370. Original source medium                   : Blu-ray
  371. Text #6
  372. ID                                       : 19
  373. ID in the original source medium         : 4771 (0x12A3)
  374. Format                                   : PGS
  375. Muxing mode                              : zlib
  376. Codec ID                                 : S_HDMV/PGS
  377. Codec ID/Info                            : Picture based subtitle format used on BDs/HD-DVDs
  378. Duration                                 : 2 h 30 min
  379. Bit rate                                 : 40.6 kb/s
  380. Frame rate                               : 0.449 FPS
  381. Count of elements                        : 4060
  382. Stream size                              : 43.7 MiB (0%)
  383. Language                                 : Italian
  384. Default                                  : No
  385. Forced                                   : No
  386. Original source medium                   : Blu-ray
  387. Text #7
  388. ID                                       : 20
  389. ID in the original source medium         : 4772 (0x12A4)
  390. Format                                   : PGS
  391. Muxing mode                              : zlib
  392. Codec ID                                 : S_HDMV/PGS
  393. Codec ID/Info                            : Picture based subtitle format used on BDs/HD-DVDs
  394. Duration                                 : 2 h 30 min
  395. Bit rate                                 : 34.0 kb/s
  396. Frame rate                               : 0.431 FPS
  397. Count of elements                        : 3886
  398. Stream size                              : 36.6 MiB (0%)
  399. Language                                 : Spanish
  400. Default                                  : No
  401. Forced                                   : No
  402. Original source medium                   : Blu-ray
  403. Text #8
  404. ID                                       : 21
  405. ID in the original source medium         : 4773 (0x12A5)
  406. Format                                   : PGS
  407. Muxing mode                              : zlib
  408. Codec ID                                 : S_HDMV/PGS
  409. Codec ID/Info                            : Picture based subtitle format used on BDs/HD-DVDs
  410. Duration                                 : 2 h 30 min
  411. Bit rate                                 : 29.3 kb/s
  412. Frame rate                               : 0.350 FPS
  413. Count of elements                        : 3160
  414. Stream size                              : 31.5 MiB (0%)
  415. Language                                 : Dutch
  416. Default                                  : No
  417. Forced                                   : No
  418. Original source medium                   : Blu-ray
  419. Text #9
  420. ID                                       : 22
  421. ID in the original source medium         : 4774 (0x12A6)
  422. Format                                   : PGS
  423. Muxing mode                              : zlib
  424. Codec ID                                 : S_HDMV/PGS
  425. Codec ID/Info                            : Picture based subtitle format used on BDs/HD-DVDs
  426. Duration                                 : 2 h 31 min
  427. Bit rate                                 : 29.9 kb/s
  428. Frame rate                               : 0.406 FPS
  429. Count of elements                        : 3688
  430. Stream size                              : 32.4 MiB (0%)
  431. Language                                 : Chinese
  432. Default                                  : No
  433. Forced                                   : No
  434. Original source medium                   : Blu-ray
  435. Text #10
  436. ID                                       : 23
  437. ID in the original source medium         : 4775 (0x12A7)
  438. Format                                   : PGS
  439. Muxing mode                              : zlib
  440. Codec ID                                 : S_HDMV/PGS
  441. Codec ID/Info                            : Picture based subtitle format used on BDs/HD-DVDs
  442. Duration                                 : 2 h 30 min
  443. Bit rate                                 : 30.3 kb/s
  444. Frame rate                               : 0.409 FPS
  445. Count of elements                        : 3688
  446. Stream size                              : 32.6 MiB (0%)
  447. Language                                 : Chinese
  448. Default                                  : No
  449. Forced                                   : No
  450. Original source medium                   : Blu-ray
  451. Text #11
  452. ID                                       : 24
  453. ID in the original source medium         : 4776 (0x12A8)
  454. Format                                   : PGS
  455. Muxing mode                              : zlib
  456. Codec ID                                 : S_HDMV/PGS
  457. Codec ID/Info                            : Picture based subtitle format used on BDs/HD-DVDs
  458. Duration                                 : 2 h 30 min
  459. Bit rate                                 : 20.6 kb/s
  460. Frame rate                               : 0.396 FPS
  461. Count of elements                        : 3574
  462. Stream size                              : 22.1 MiB (0%)
  463. Language                                 : Korean
  464. Default                                  : No
  465. Forced                                   : No
  466. Original source medium                   : Blu-ray
  467. Text #12
  468. ID                                       : 25
  469. ID in the original source medium         : 4777 (0x12A9)
  470. Format                                   : PGS
  471. Muxing mode                              : zlib
  472. Codec ID                                 : S_HDMV/PGS
  473. Codec ID/Info                            : Picture based subtitle format used on BDs/HD-DVDs
  474. Duration                                 : 2 h 30 min
  475. Bit rate                                 : 17.8 kb/s
  476. Frame rate                               : 0.400 FPS
  477. Count of elements                        : 3614
  478. Stream size                              : 19.2 MiB (0%)
  479. Language                                 : Arabic
  480. Default                                  : No
  481. Forced                                   : No
  482. Original source medium                   : Blu-ray
  483. Text #13
  484. ID                                       : 26
  485. ID in the original source medium         : 4778 (0x12AA)
  486. Format                                   : PGS
  487. Muxing mode                              : zlib
  488. Codec ID                                 : S_HDMV/PGS
  489. Codec ID/Info                            : Picture based subtitle format used on BDs/HD-DVDs
  490. Duration                                 : 2 h 30 min
  491. Bit rate                                 : 30.1 kb/s
  492. Frame rate                               : 0.395 FPS
  493. Count of elements                        : 3564
  494. Stream size                              : 32.3 MiB (0%)
  495. Language                                 : Czech
  496. Default                                  : No
  497. Forced                                   : No
  498. Original source medium                   : Blu-ray
  499. Text #14
  500. ID                                       : 27
  501. ID in the original source medium         : 4779 (0x12AB)
  502. Format                                   : PGS
  503. Muxing mode                              : zlib
  504. Codec ID                                 : S_HDMV/PGS
  505. Codec ID/Info                            : Picture based subtitle format used on BDs/HD-DVDs
  506. Duration                                 : 2 h 30 min
  507. Bit rate                                 : 29.9 kb/s
  508. Frame rate                               : 0.403 FPS
  509. Count of elements                        : 3628
  510. Stream size                              : 32.1 MiB (0%)
  511. Language                                 : Croatian
  512. Default                                  : No
  513. Forced                                   : No
  514. Original source medium                   : Blu-ray
  515. Text #15
  516. ID                                       : 28
  517. ID in the original source medium         : 4780 (0x12AC)
  518. Format                                   : PGS
  519. Muxing mode                              : zlib
  520. Codec ID                                 : S_HDMV/PGS
  521. Codec ID/Info                            : Picture based subtitle format used on BDs/HD-DVDs
  522. Duration                                 : 2 h 30 min
  523. Bit rate                                 : 30.4 kb/s
  524. Frame rate                               : 0.305 FPS
  525. Count of elements                        : 2756
  526. Stream size                              : 32.7 MiB (0%)
  527. Language                                 : Danish
  528. Default                                  : No
  529. Forced                                   : No
  530. Original source medium                   : Blu-ray
  531. Text #16
  532. ID                                       : 29
  533. ID in the original source medium         : 4781 (0x12AD)
  534. Format                                   : PGS
  535. Muxing mode                              : zlib
  536. Codec ID                                 : S_HDMV/PGS
  537. Codec ID/Info                            : Picture based subtitle format used on BDs/HD-DVDs
  538. Duration                                 : 2 h 30 min
  539. Bit rate                                 : 30.6 kb/s
  540. Frame rate                               : 0.371 FPS
  541. Count of elements                        : 3346
  542. Stream size                              : 33.0 MiB (0%)
  543. Language                                 : Finnish
  544. Default                                  : No
  545. Forced                                   : No
  546. Original source medium                   : Blu-ray
  547. Text #17
  548. ID                                       : 30
  549. ID in the original source medium         : 4782 (0x12AE)
  550. Format                                   : PGS
  551. Muxing mode                              : zlib
  552. Codec ID                                 : S_HDMV/PGS
  553. Codec ID/Info                            : Picture based subtitle format used on BDs/HD-DVDs
  554. Duration                                 : 2 h 30 min
  555. Bit rate                                 : 36.1 kb/s
  556. Frame rate                               : 0.409 FPS
  557. Count of elements                        : 3686
  558. Stream size                              : 38.8 MiB (0%)
  559. Language                                 : Greek
  560. Default                                  : No
  561. Forced                                   : No
  562. Original source medium                   : Blu-ray
  563. Text #18
  564. ID                                       : 31
  565. ID in the original source medium         : 4783 (0x12AF)
  566. Format                                   : PGS
  567. Muxing mode                              : zlib
  568. Codec ID                                 : S_HDMV/PGS
  569. Codec ID/Info                            : Picture based subtitle format used on BDs/HD-DVDs
  570. Duration                                 : 2 h 30 min
  571. Bit rate                                 : 28.4 kb/s
  572. Frame rate                               : 0.384 FPS
  573. Count of elements                        : 3460
  574. Stream size                              : 30.5 MiB (0%)
  575. Language                                 : Hungarian
  576. Default                                  : No
  577. Forced                                   : No
  578. Original source medium                   : Blu-ray
  579. Text #19
  580. ID                                       : 32
  581. ID in the original source medium         : 4784 (0x12B0)
  582. Format                                   : PGS
  583. Muxing mode                              : zlib
  584. Codec ID                                 : S_HDMV/PGS
  585. Codec ID/Info                            : Picture based subtitle format used on BDs/HD-DVDs
  586. Duration                                 : 2 h 30 min
  587. Bit rate                                 : 32.2 kb/s
  588. Frame rate                               : 0.404 FPS
  589. Count of elements                        : 3642
  590. Stream size                              : 34.7 MiB (0%)
  591. Language                                 : Norwegian
  592. Default                                  : No
  593. Forced                                   : No
  594. Original source medium                   : Blu-ray
  595. Text #20
  596. ID                                       : 33
  597. ID in the original source medium         : 4785 (0x12B1)
  598. Format                                   : PGS
  599. Muxing mode                              : zlib
  600. Codec ID                                 : S_HDMV/PGS
  601. Codec ID/Info                            : Picture based subtitle format used on BDs/HD-DVDs
  602. Duration                                 : 2 h 30 min
  603. Bit rate                                 : 34.0 kb/s
  604. Frame rate                               : 0.403 FPS
  605. Count of elements                        : 3638
  606. Stream size                              : 36.6 MiB (0%)
  607. Language                                 : Polish
  608. Default                                  : No
  609. Forced                                   : No
  610. Original source medium                   : Blu-ray
  611. Text #21
  612. ID                                       : 34
  613. ID in the original source medium         : 4786 (0x12B2)
  614. Format                                   : PGS
  615. Muxing mode                              : zlib
  616. Codec ID                                 : S_HDMV/PGS
  617. Codec ID/Info                            : Picture based subtitle format used on BDs/HD-DVDs
  618. Duration                                 : 2 h 30 min
  619. Bit rate                                 : 34.3 kb/s
  620. Frame rate                               : 0.399 FPS
  621. Count of elements                        : 3594
  622. Stream size                              : 36.8 MiB (0%)
  623. Language                                 : Portuguese
  624. Default                                  : No
  625. Forced                                   : No
  626. Original source medium                   : Blu-ray
  627. Text #22
  628. ID                                       : 35
  629. ID in the original source medium         : 4787 (0x12B3)
  630. Format                                   : PGS
  631. Muxing mode                              : zlib
  632. Codec ID                                 : S_HDMV/PGS
  633. Codec ID/Info                            : Picture based subtitle format used on BDs/HD-DVDs
  634. Duration                                 : 2 h 22 min
  635. Bit rate                                 : 33.6 kb/s
  636. Frame rate                               : 0.366 FPS
  637. Count of elements                        : 3134
  638. Stream size                              : 34.3 MiB (0%)
  639. Language                                 : Romanian
  640. Default                                  : No
  641. Forced                                   : No
  642. Original source medium                   : Blu-ray
  643. Text #23
  644. ID                                       : 36
  645. ID in the original source medium         : 4788 (0x12B4)
  646. Format                                   : PGS
  647. Muxing mode                              : zlib
  648. Codec ID                                 : S_HDMV/PGS
  649. Codec ID/Info                            : Picture based subtitle format used on BDs/HD-DVDs
  650. Duration                                 : 2 h 30 min
  651. Bit rate                                 : 33.1 kb/s
  652. Frame rate                               : 0.414 FPS
  653. Count of elements                        : 3730
  654. Stream size                              : 35.6 MiB (0%)
  655. Language                                 : Russian
  656. Default                                  : No
  657. Forced                                   : No
  658. Original source medium                   : Blu-ray
  659. Text #24
  660. ID                                       : 37
  661. ID in the original source medium         : 4789 (0x12B5)
  662. Format                                   : PGS
  663. Muxing mode                              : zlib
  664. Codec ID                                 : S_HDMV/PGS
  665. Codec ID/Info                            : Picture based subtitle format used on BDs/HD-DVDs
  666. Duration                                 : 2 h 30 min
  667. Bit rate                                 : 29.6 kb/s
  668. Frame rate                               : 0.404 FPS
  669. Count of elements                        : 3646
  670. Stream size                              : 31.8 MiB (0%)
  671. Language                                 : Swedish
  672. Default                                  : No
  673. Forced                                   : No
  674. Original source medium                   : Blu-ray
  675. Text #25
  676. ID                                       : 38
  677. ID in the original source medium         : 4790 (0x12B6)
  678. Format                                   : PGS
  679. Muxing mode                              : zlib
  680. Codec ID                                 : S_HDMV/PGS
  681. Codec ID/Info                            : Picture based subtitle format used on BDs/HD-DVDs
  682. Duration                                 : 2 h 23 min
  683. Bit rate                                 : 227 b/s
  684. Frame rate                               : 0.003 FPS
  685. Count of elements                        : 30
  686. Stream size                              : 238 KiB (0%)
  687. Language                                 : French
  688. Default                                  : No
  689. Forced                                   : No
  690. Original source medium                   : Blu-ray
  691. Text #26
  692. ID                                       : 39
  693. ID in the original source medium         : 4791 (0x12B7)
  694. Format                                   : PGS
  695. Muxing mode                              : zlib
  696. Codec ID                                 : S_HDMV/PGS
  697. Codec ID/Info                            : Picture based subtitle format used on BDs/HD-DVDs
  698. Duration                                 : 2 h 23 min
  699. Bit rate                                 : 296 b/s
  700. Frame rate                               : 0.004 FPS
  701. Count of elements                        : 34
  702. Stream size                              : 311 KiB (0%)
  703. Language                                 : Czech
  704. Default                                  : No
  705. Forced                                   : No
  706. Original source medium                   : Blu-ray
  707. Text #27
  708. ID                                       : 40
  709. ID in the original source medium         : 4792 (0x12B8)
  710. Format                                   : PGS
  711. Muxing mode                              : zlib
  712. Codec ID                                 : S_HDMV/PGS
  713. Codec ID/Info                            : Picture based subtitle format used on BDs/HD-DVDs
  714. Duration                                 : 2 h 23 min
  715. Bit rate                                 : 292 b/s
  716. Frame rate                               : 0.003 FPS
  717. Count of elements                        : 30
  718. Stream size                              : 307 KiB (0%)
  719. Language                                 : Spanish
  720. Default                                  : No
  721. Forced                                   : No
  722. Original source medium                   : Blu-ray
  723. Text #28
  724. ID                                       : 41
  725. ID in the original source medium         : 4793 (0x12B9)
  726. Format                                   : PGS
  727. Muxing mode                              : zlib
  728. Codec ID                                 : S_HDMV/PGS
  729. Codec ID/Info                            : Picture based subtitle format used on BDs/HD-DVDs
  730. Duration                                 : 2 h 23 min
  731. Bit rate                                 : 372 b/s
  732. Frame rate                               : 0.005 FPS
  733. Count of elements                        : 40
  734. Stream size                              : 391 KiB (0%)
  735. Language                                 : Italian
  736. Default                                  : No
  737. Forced                                   : No
  738. Original source medium                   : Blu-ray
  739. Text #29
  740. ID                                       : 42
  741. ID in the original source medium         : 4794 (0x12BA)
  742. Format                                   : PGS
  743. Muxing mode                              : zlib
  744. Codec ID                                 : S_HDMV/PGS
  745. Codec ID/Info                            : Picture based subtitle format used on BDs/HD-DVDs
  746. Duration                                 : 2 h 23 min
  747. Bit rate                                 : 371 b/s
  748. Frame rate                               : 0.005 FPS
  749. Count of elements                        : 40
  750. Stream size                              : 389 KiB (0%)
  751. Language                                 : Polish
  752. Default                                  : No
  753. Forced                                   : No
  754. Original source medium                   : Blu-ray
  755. Text #30
  756. ID                                       : 43
  757. ID in the original source medium         : 4795 (0x12BB)
  758. Format                                   : PGS
  759. Muxing mode                              : zlib
  760. Codec ID                                 : S_HDMV/PGS
  761. Codec ID/Info                            : Picture based subtitle format used on BDs/HD-DVDs
  762. Duration                                 : 2 h 23 min
  763. Bit rate                                 : 371 b/s
  764. Frame rate                               : 0.006 FPS
  765. Count of elements                        : 48
  766. Stream size                              : 390 KiB (0%)
  767. Language                                 : Russian
  768. Default                                  : No
  769. Forced                                   : No
  770. Original source medium                   : Blu-ray
  771. Text #31
  772. ID                                       : 44
  773. ID in the original source medium         : 4796 (0x12BC)
  774. Format                                   : PGS
  775. Muxing mode                              : zlib
  776. Codec ID                                 : S_HDMV/PGS
  777. Codec ID/Info                            : Picture based subtitle format used on BDs/HD-DVDs
  778. Duration                                 : 2 h 17 min
  779. Bit rate                                 : 296 b/s
  780. Frame rate                               : 0.004 FPS
  781. Count of elements                        : 32
  782. Stream size                              : 299 KiB (0%)
  783. Language                                 : Hungarian
  784. Default                                  : No
  785. Forced                                   : No
  786. Original source medium                   : Blu-ray
  787. Text #32
  788. ID                                       : 45
  789. ID in the original source medium         : 4797 (0x12BD)
  790. Format                                   : PGS
  791. Muxing mode                              : zlib
  792. Codec ID                                 : S_HDMV/PGS
  793. Codec ID/Info                            : Picture based subtitle format used on BDs/HD-DVDs
  794. Duration                                 : 1 h 56 min
  795. Bit rate                                 : 58 b/s
  796. Frame rate                               : 0.001 FPS
  797. Count of elements                        : 6
  798. Stream size                              : 50.3 KiB (0%)
  799. Language                                 : German
  800. Default                                  : No
  801. Forced                                   : No
  802. Original source medium                   : Blu-ray
  803. Text #33
  804. ID                                       : 46
  805. ID in the original source medium         : 4798 (0x12BE)
  806. Format                                   : PGS
  807. Muxing mode                              : zlib
  808. Codec ID                                 : S_HDMV/PGS
  809. Codec ID/Info                            : Picture based subtitle format used on BDs/HD-DVDs
  810. Duration                                 : 2 h 25 min
  811. Bit rate                                 : 26.4 kb/s
  812. Frame rate                               : 0.431 FPS
  813. Count of elements                        : 3749
  814. Stream size                              : 27.4 MiB (0%)
  815. Language                                 : Japanese
  816. Default                                  : No
  817. Forced                                   : No
  818. Original source medium                   : Blu-ray
  819. Text #34
  820. ID                                       : 47
  821. ID in the original source medium         : 4799 (0x12BF)
  822. Format                                   : PGS
  823. Muxing mode                              : zlib
  824. Codec ID                                 : S_HDMV/PGS
  825. Codec ID/Info                            : Picture based subtitle format used on BDs/HD-DVDs
  826. Duration                                 : 2 h 19 min
  827. Bit rate                                 : 264 b/s
  828. Frame rate                               : 0.005 FPS
  829. Count of elements                        : 44
  830. Stream size                              : 271 KiB (0%)
  831. Language                                 : Japanese
  832. Default                                  : No
  833. Forced                                   : No
  834. Original source medium                   : Blu-ray
  835. Menu
  836. 00:00:00.000                             : en:Chapter 01
  837. 00:06:25.676                             : en:Chapter 02
  838. 00:10:35.926                             : en:Chapter 03
  839. 00:13:52.540                             : en:Chapter 04
  840. 00:17:53.989                             : en:Chapter 05
  841. 00:21:39.298                             : en:Chapter 06
  842. 00:26:09.901                             : en:Chapter 07
  843. 00:29:36.232                             : en:Chapter 08
  844. 00:31:42.442                             : en:Chapter 09
  845. 00:37:49.016                             : en:Chapter 10
  846. 00:43:33.861                             : en:Chapter 11
  847. 00:46:39.505                             : en:Chapter 12
  848. 00:48:57.517                             : en:Chapter 13
  849. 00:53:19.112                             : en:Chapter 14
  850. 00:57:15.598                             : en:Chapter 15
  851. 00:59:26.312                             : en:Chapter 16
  852. 01:03:59.544                             : en:Chapter 17
  853. 01:08:23.432                             : en:Chapter 18
  854. 01:10:48.035                             : en:Chapter 19
  855. 01:14:24.877                             : en:Chapter 20
  856. 01:18:05.597                             : en:Chapter 21
  857. 01:22:22.395                             : en:Chapter 22
  858. 01:24:48.541                             : en:Chapter 23
  859. 01:30:48.401                             : en:Chapter 24
  860. 01:34:04.639                             : en:Chapter 25
  861. 01:39:57.741                             : en:Chapter 26
  862. 01:42:05.452                             : en:Chapter 27
  863. 01:44:59.501                             : en:Chapter 28
  864. 01:47:00.664                             : en:Chapter 29
  865. 01:51:09.496                             : en:Chapter 30
  866. 01:54:14.222                             : en:Chapter 31
  867. 01:57:03.975                             : en:Chapter 32
  868. 02:00:14.207                             : en:Chapter 33
  869. 02:03:37.243                             : en:Chapter 34
  870. 02:09:07.573                             : en:Chapter 35
  871. 02:12:27.189                             : en:Chapter 36
  872. 02:15:22.739                             : en:Chapter 37
  873. 02:19:58.390                             : en:Chapter 38
  874. 02:24:26.783                             : en:Chapter 39
复制代码




                                       
                                       

                                       
                                       
                                       




The.Dark.Knight.2008.PROPER.2160p.BluRay.REMUX.HEVC.DTS-HD.MA.5.1-FGT.torrent (80.4 KB, 下载次数: 1)
回复

使用道具 举报

您需要登录后才可以回帖 登录 | 立即注册

本版积分规则

QQ|Archiver|手机版|小黑屋|蓝光电影网

GMT+8, 2023-2-8 01:28 , Processed in 0.072944 second(s), 28 queries .

Powered by Discuz! X3.4

Copyright © 2001-2020, Tencent Cloud.

快速回复 返回顶部 返回列表