找回密码
 立即注册

QQ登录

只需一步,快速开始

查看: 253|回复: 0

[其他] 365天:明日之欲 The.Next.365.Days.2022.2160p.NF.WEB-DL.x265.10bit.HDR.DDP5.1-APEX 13.20GB

[复制链接]

0

精华

0

好友

2

听众

新手上路

Rank: 2

蓝光币
5
发表于 2022-11-29 07:50:23 | 显示全部楼层 |阅读模式
[img][/img]

◎标  题 365天:明日之欲
◎译  名 接下来的365天 / 黑帮大佬和我的365日3 / 再现之欲
◎片  名 The Next 365 Days
◎年  代 2022
◎产  地 波兰
◎类  别 剧情 / 爱情
◎语  言 波兰语
◎上映日期 2022-08-19(美国网络)
◎IMDb链接 https://www.imdb.com/title/tt21106646/
◎豆瓣链接 https://movie.douban.com/subject/35952006/
◎片  长 112分钟
◎导  演 芭芭拉·比尔拉瓦斯 Barbara Bialowas
       托马斯·曼丁斯 Tomasz Mandes
◎编  剧 芭芭拉·比尔拉瓦斯 Barbara Bialowas
       布兰卡·利平斯卡 Blanka Lipinska
       托马斯·曼丁斯 Tomasz Mandes
◎演  员 米凯莱·莫罗尼 Michele Morrone
       安娜·玛丽亚·西克拉克 Anna Maria Sieklucka
       丽贝卡·卡西拉吉 Rebecca Casiraghi
◎简  介

  劳拉和马西莫的关系岌岌可危,二人试图克服信任问题,而执着的纳乔想方设法拆散二人。
  1. Video
  2. ID                                       : 1
  3. Format                                   : HEVC
  4. Format/Info                              : High Efficiency Video Coding
  5. Format profile                           : Main [email protected]@Main
  6. HDR format                               : Dolby Vision, Version 1.0, dvhe.08.07, BL+RPU, HDR10 compatible / SMPTE ST 2086, HDR10 compatible
  7. Codec ID                                 : V_MPEGH/ISO/HEVC
  8. Duration                                 : 1 h 52 min
  9. Bit rate                                 : 15.5 Mb/s
  10. Width                                    : 3 840 pixels
  11. Height                                   : 2 160 pixels
  12. Display aspect ratio                     : 16:9
  13. Frame rate mode                          : Constant
  14. Frame rate                               : 25.000 FPS
  15. Color space                              : YUV
  16. Chroma subsampling                       : 4:2:0 (Type 2)
  17. Bit depth                                : 10 bits
  18. Bits/(Pixel*Frame)                       : 0.075
  19. Stream size                              : 12.2 GiB (92%)
  20. Default                                  : Yes
  21. Forced                                   : No
  22. Color range                              : Limited
  23. Color primaries                          : BT.2020
  24. Transfer characteristics                 : PQ
  25. Matrix coefficients                      : BT.2020 non-constant
  26. Mastering display color primaries        : Display P3
  27. Mastering display luminance              : min: 0.0001 cd/m2, max: 1000 cd/m2
  28. Maximum Content Light Level              : 786 cd/m2
  29. Maximum Frame-Average Light Level        : 180 cd/m2

  30. Audio #1
  31. ID                                       : 2
  32. Format                                   : E-AC-3
  33. Format/Info                              : Enhanced AC-3
  34. Commercial name                          : Dolby Digital Plus
  35. Codec ID                                 : A_EAC3
  36. Duration                                 : 1 h 53 min
  37. Bit rate mode                            : Constant
  38. Bit rate                                 : 640 kb/s
  39. Channel(s)                               : 6 channels
  40. Channel layout                           : L R C LFE Ls Rs
  41. Sampling rate                            : 48.0 kHz
  42. Frame rate                               : 31.250 FPS (1536 SPF)
  43. Compression mode                         : Lossy
  44. Stream size                              : 521 MiB (4%)
  45. Language                                 : Polish
  46. Service kind                             : Complete Main
  47. Default                                  : No
  48. Forced                                   : No

  49. Audio #2
  50. ID                                       : 3
  51. Format                                   : E-AC-3
  52. Format/Info                              : Enhanced AC-3
  53. Commercial name                          : Dolby Digital Plus
  54. Codec ID                                 : A_EAC3
  55. Duration                                 : 1 h 53 min
  56. Bit rate mode                            : Constant
  57. Bit rate                                 : 640 kb/s
  58. Channel(s)                               : 6 channels
  59. Channel layout                           : L R C LFE Ls Rs
  60. Sampling rate                            : 48.0 kHz
  61. Frame rate                               : 31.250 FPS (1536 SPF)
  62. Compression mode                         : Lossy
  63. Stream size                              : 521 MiB (4%)
  64. Language                                 : English
  65. Service kind                             : Complete Main
  66. Default                                  : No
  67. Forced                                   : No

  68. Text #1
  69. ID                                       : 4
  70. Format                                   : UTF-8
  71. Codec ID                                 : S_TEXT/UTF8
  72. Codec ID/Info                            : UTF-8 Plain Text
  73. Duration                                 : 1 h 52 min
  74. Bit rate                                 : 14 b/s
  75. Frame rate                               : 0.056 FPS
  76. Count of elements                        : 377
  77. Stream size                              : 11.6 KiB (0%)
  78. Title                                    : Forced
  79. Language                                 : English
  80. Default                                  : Yes
  81. Forced                                   : Yes

  82. Text #2
  83. ID                                       : 5
  84. Format                                   : UTF-8
  85. Codec ID                                 : S_TEXT/UTF8
  86. Codec ID/Info                            : UTF-8 Plain Text
  87. Duration                                 : 1 h 46 min
  88. Bit rate                                 : 12 b/s
  89. Frame rate                               : 0.057 FPS
  90. Count of elements                        : 367
  91. Stream size                              : 9.44 KiB (0%)
  92. Language                                 : Polish
  93. Default                                  : No
  94. Forced                                   : No

  95. Text #3
  96. ID                                       : 6
  97. Format                                   : UTF-8
  98. Codec ID                                 : S_TEXT/UTF8
  99. Codec ID/Info                            : UTF-8 Plain Text
  100. Duration                                 : 1 h 50 min
  101. Bit rate                                 : 26 b/s
  102. Frame rate                               : 0.115 FPS
  103. Count of elements                        : 761
  104. Stream size                              : 21.8 KiB (0%)
  105. Language                                 : English
  106. Default                                  : No
  107. Forced                                   : No

  108. Text #4
  109. ID                                       : 7
  110. Format                                   : UTF-8
  111. Codec ID                                 : S_TEXT/UTF8
  112. Codec ID/Info                            : UTF-8 Plain Text
  113. Duration                                 : 1 h 46 min
  114. Bit rate                                 : 12 b/s
  115. Frame rate                               : 0.058 FPS
  116. Count of elements                        : 368
  117. Stream size                              : 9.46 KiB (0%)
  118. Title                                    : SDH
  119. Language                                 : Polish
  120. Default                                  : No
  121. Forced                                   : No

  122. Text #5
  123. ID                                       : 8
  124. Format                                   : UTF-8
  125. Codec ID                                 : S_TEXT/UTF8
  126. Codec ID/Info                            : UTF-8 Plain Text
  127. Duration                                 : 1 h 52 min
  128. Bit rate                                 : 67 b/s
  129. Frame rate                               : 0.253 FPS
  130. Count of elements                        : 1702
  131. Stream size                              : 55.2 KiB (0%)
  132. Title                                    : SDH
  133. Language                                 : English
  134. Default                                  : No
  135. Forced                                   : No

  136. Text #6
  137. ID                                       : 9
  138. Format                                   : UTF-8
  139. Codec ID                                 : S_TEXT/UTF8
  140. Codec ID/Info                            : UTF-8 Plain Text
  141. Duration                                 : 1 h 50 min
  142. Bit rate                                 : 25 b/s
  143. Frame rate                               : 0.107 FPS
  144. Count of elements                        : 709
  145. Stream size                              : 21.1 KiB (0%)
  146. Language                                 : German
  147. Default                                  : No
  148. Forced                                   : No

  149. Text #7
  150. ID                                       : 10
  151. Format                                   : UTF-8
  152. Codec ID                                 : S_TEXT/UTF8
  153. Codec ID/Info                            : UTF-8 Plain Text
  154. Duration                                 : 1 h 50 min
  155. Bit rate                                 : 25 b/s
  156. Frame rate                               : 0.109 FPS
  157. Count of elements                        : 722
  158. Stream size                              : 20.5 KiB (0%)
  159. Language                                 : Malay
  160. Default                                  : No
  161. Forced                                   : No

  162. Text #8
  163. ID                                       : 11
  164. Format                                   : UTF-8
  165. Codec ID                                 : S_TEXT/UTF8
  166. Codec ID/Info                            : UTF-8 Plain Text
  167. Duration                                 : 1 h 45 min
  168. Bit rate                                 : 29 b/s
  169. Frame rate                               : 0.121 FPS
  170. Count of elements                        : 765
  171. Stream size                              : 22.8 KiB (0%)
  172. Language                                 : Spanish
  173. Default                                  : No
  174. Forced                                   : No

  175. Text #9
  176. ID                                       : 12
  177. Format                                   : UTF-8
  178. Codec ID                                 : S_TEXT/UTF8
  179. Codec ID/Info                            : UTF-8 Plain Text
  180. Duration                                 : 1 h 50 min
  181. Bit rate                                 : 25 b/s
  182. Frame rate                               : 0.097 FPS
  183. Count of elements                        : 647
  184. Stream size                              : 21.0 KiB (0%)
  185. Language                                 : Danish
  186. Default                                  : No
  187. Forced                                   : No

  188. Text #10
  189. ID                                       : 13
  190. Format                                   : UTF-8
  191. Codec ID                                 : S_TEXT/UTF8
  192. Codec ID/Info                            : UTF-8 Plain Text
  193. Duration                                 : 1 h 50 min
  194. Bit rate                                 : 21 b/s
  195. Frame rate                               : 0.115 FPS
  196. Count of elements                        : 763
  197. Stream size                              : 17.6 KiB (0%)
  198. Language                                 : Japanese
  199. Default                                  : No
  200. Forced                                   : No

  201. Text #11
  202. ID                                       : 14
  203. Format                                   : UTF-8
  204. Codec ID                                 : S_TEXT/UTF8
  205. Codec ID/Info                            : UTF-8 Plain Text
  206. Duration                                 : 1 h 45 min
  207. Bit rate                                 : 24 b/s
  208. Frame rate                               : 0.118 FPS
  209. Count of elements                        : 743
  210. Stream size                              : 19.1 KiB (0%)
  211. Title                                    : European
  212. Language                                 : Spanish
  213. Default                                  : No
  214. Forced                                   : No

  215. Text #12
  216. ID                                       : 15
  217. Format                                   : UTF-8
  218. Codec ID                                 : S_TEXT/UTF8
  219. Codec ID/Info                            : UTF-8 Plain Text
  220. Duration                                 : 1 h 50 min
  221. Bit rate                                 : 23 b/s
  222. Frame rate                               : 0.109 FPS
  223. Count of elements                        : 722
  224. Stream size                              : 19.0 KiB (0%)
  225. Language                                 : Italian
  226. Default                                  : No
  227. Forced                                   : No

  228. Text #13
  229. ID                                       : 16
  230. Format                                   : UTF-8
  231. Codec ID                                 : S_TEXT/UTF8
  232. Codec ID/Info                            : UTF-8 Plain Text
  233. Duration                                 : 1 h 50 min
  234. Bit rate                                 : 42 b/s
  235. Frame rate                               : 0.108 FPS
  236. Count of elements                        : 714
  237. Stream size                              : 34.1 KiB (0%)
  238. Language                                 : Ukrainian
  239. Default                                  : No
  240. Forced                                   : No

  241. Text #14
  242. ID                                       : 17
  243. Format                                   : UTF-8
  244. Codec ID                                 : S_TEXT/UTF8
  245. Codec ID/Info                            : UTF-8 Plain Text
  246. Duration                                 : 1 h 50 min
  247. Bit rate                                 : 28 b/s
  248. Frame rate                               : 0.109 FPS
  249. Count of elements                        : 726
  250. Stream size                              : 23.4 KiB (0%)
  251. Language                                 : Korean
  252. Default                                  : No
  253. Forced                                   : No

  254. Text #15
  255. ID                                       : 18
  256. Format                                   : UTF-8
  257. Codec ID                                 : S_TEXT/UTF8
  258. Codec ID/Info                            : UTF-8 Plain Text
  259. Duration                                 : 1 h 50 min
  260. Bit rate                                 : 24 b/s
  261. Frame rate                               : 0.108 FPS
  262. Count of elements                        : 719
  263. Stream size                              : 19.7 KiB (0%)
  264. Title                                    : Brazilian
  265. Language                                 : Portuguese
  266. Default                                  : No
  267. Forced                                   : No

  268. Text #16
  269. ID                                       : 19
  270. Format                                   : UTF-8
  271. Codec ID                                 : S_TEXT/UTF8
  272. Codec ID/Info                            : UTF-8 Plain Text
  273. Duration                                 : 1 h 50 min
  274. Bit rate                                 : 24 b/s
  275. Frame rate                               : 0.110 FPS
  276. Count of elements                        : 727
  277. Stream size                              : 19.6 KiB (0%)
  278. Language                                 : Czech
  279. Default                                  : No
  280. Forced                                   : No

  281. Text #17
  282. ID                                       : 20
  283. Format                                   : UTF-8
  284. Codec ID                                 : S_TEXT/UTF8
  285. Codec ID/Info                            : UTF-8 Plain Text
  286. Duration                                 : 1 h 50 min
  287. Bit rate                                 : 25 b/s
  288. Frame rate                               : 0.108 FPS
  289. Count of elements                        : 718
  290. Stream size                              : 20.9 KiB (0%)
  291. Title                                    : Simplified
  292. Language                                 : Chinese
  293. Default                                  : No
  294. Forced                                   : No

  295. Text #18
  296. ID                                       : 21
  297. Format                                   : UTF-8
  298. Codec ID                                 : S_TEXT/UTF8
  299. Codec ID/Info                            : UTF-8 Plain Text
  300. Duration                                 : 1 h 45 min
  301. Bit rate                                 : 27 b/s
  302. Frame rate                               : 0.106 FPS
  303. Count of elements                        : 672
  304. Stream size                              : 21.1 KiB (0%)
  305. Language                                 : Swedish
  306. Default                                  : No
  307. Forced                                   : No

  308. Text #19
  309. ID                                       : 22
  310. Format                                   : UTF-8
  311. Codec ID                                 : S_TEXT/UTF8
  312. Codec ID/Info                            : UTF-8 Plain Text
  313. Duration                                 : 1 h 50 min
  314. Bit rate                                 : 22 b/s
  315. Frame rate                               : 0.107 FPS
  316. Count of elements                        : 710
  317. Stream size                              : 18.4 KiB (0%)
  318. Language                                 : Croatian
  319. Default                                  : No
  320. Forced                                   : No

  321. Text #20
  322. ID                                       : 23
  323. Format                                   : UTF-8
  324. Codec ID                                 : S_TEXT/UTF8
  325. Codec ID/Info                            : UTF-8 Plain Text
  326. Duration                                 : 1 h 50 min
  327. Bit rate                                 : 24 b/s
  328. Frame rate                               : 0.107 FPS
  329. Count of elements                        : 707
  330. Stream size                              : 19.7 KiB (0%)
  331. Language                                 : Hungarian
  332. Default                                  : No
  333. Forced                                   : No

  334. Text #21
  335. ID                                       : 24
  336. Format                                   : UTF-8
  337. Codec ID                                 : S_TEXT/UTF8
  338. Codec ID/Info                            : UTF-8 Plain Text
  339. Duration                                 : 1 h 50 min
  340. Bit rate                                 : 25 b/s
  341. Frame rate                               : 0.107 FPS
  342. Count of elements                        : 710
  343. Stream size                              : 20.3 KiB (0%)
  344. Language                                 : Basque
  345. Default                                  : No
  346. Forced                                   : No

  347. Text #22
  348. ID                                       : 25
  349. Format                                   : UTF-8
  350. Codec ID                                 : S_TEXT/UTF8
  351. Codec ID/Info                            : UTF-8 Plain Text
  352. Duration                                 : 1 h 50 min
  353. Bit rate                                 : 29 b/s
  354. Frame rate                               : 0.105 FPS
  355. Count of elements                        : 697
  356. Stream size                              : 23.6 KiB (0%)
  357. Language                                 : fil
  358. Default                                  : No
  359. Forced                                   : No

  360. Text #23
  361. ID                                       : 26
  362. Format                                   : UTF-8
  363. Codec ID                                 : S_TEXT/UTF8
  364. Codec ID/Info                            : UTF-8 Plain Text
  365. Duration                                 : 1 h 50 min
  366. Bit rate                                 : 40 b/s
  367. Frame rate                               : 0.109 FPS
  368. Count of elements                        : 725
  369. Stream size                              : 32.4 KiB (0%)
  370. Language                                 : Russian
  371. Default                                  : No
  372. Forced                                   : No

  373. Text #24
  374. ID                                       : 27
  375. Format                                   : UTF-8
  376. Codec ID                                 : S_TEXT/UTF8
  377. Codec ID/Info                            : UTF-8 Plain Text
  378. Duration                                 : 1 h 50 min
  379. Bit rate                                 : 25 b/s
  380. Frame rate                               : 0.101 FPS
  381. Count of elements                        : 667
  382. Stream size                              : 20.7 KiB (0%)
  383. Language                                 : Turkish
  384. Default                                  : No
  385. Forced                                   : No

  386. Text #25
  387. ID                                       : 28
  388. Format                                   : UTF-8
  389. Codec ID                                 : S_TEXT/UTF8
  390. Codec ID/Info                            : UTF-8 Plain Text
  391. Duration                                 : 1 h 50 min
  392. Bit rate                                 : 24 b/s
  393. Frame rate                               : 0.109 FPS
  394. Count of elements                        : 723
  395. Stream size                              : 20.0 KiB (0%)
  396. Language                                 : French
  397. Default                                  : No
  398. Forced                                   : No

  399. Text #26
  400. ID                                       : 29
  401. Format                                   : UTF-8
  402. Codec ID                                 : S_TEXT/UTF8
  403. Codec ID/Info                            : UTF-8 Plain Text
  404. Duration                                 : 1 h 50 min
  405. Bit rate                                 : 24 b/s
  406. Frame rate                               : 0.106 FPS
  407. Count of elements                        : 705
  408. Stream size                              : 20.0 KiB (0%)
  409. Language                                 : Romanian
  410. Default                                  : No
  411. Forced                                   : No

  412. Text #27
  413. ID                                       : 30
  414. Format                                   : UTF-8
  415. Codec ID                                 : S_TEXT/UTF8
  416. Codec ID/Info                            : UTF-8 Plain Text
  417. Duration                                 : 1 h 50 min
  418. Bit rate                                 : 23 b/s
  419. Frame rate                               : 0.106 FPS
  420. Count of elements                        : 704
  421. Stream size                              : 19.1 KiB (0%)
  422. Language                                 : Indonesian
  423. Default                                  : No
  424. Forced                                   : No

  425. Text #28
  426. ID                                       : 31
  427. Format                                   : UTF-8
  428. Codec ID                                 : S_TEXT/UTF8
  429. Codec ID/Info                            : UTF-8 Plain Text
  430. Duration                                 : 1 h 45 min
  431. Bit rate                                 : 66 b/s
  432. Frame rate                               : 0.114 FPS
  433. Count of elements                        : 720
  434. Stream size                              : 51.5 KiB (0%)
  435. Language                                 : Thai
  436. Default                                  : No
  437. Forced                                   : No

  438. Text #29
  439. ID                                       : 32
  440. Format                                   : UTF-8
  441. Codec ID                                 : S_TEXT/UTF8
  442. Codec ID/Info                            : UTF-8 Plain Text
  443. Duration                                 : 1 h 50 min
  444. Bit rate                                 : 37 b/s
  445. Frame rate                               : 0.108 FPS
  446. Count of elements                        : 715
  447. Stream size                              : 30.1 KiB (0%)
  448. Language                                 : Vietnamese
  449. Default                                  : No
  450. Forced                                   : No

  451. Text #30
  452. ID                                       : 33
  453. Format                                   : UTF-8
  454. Codec ID                                 : S_TEXT/UTF8
  455. Codec ID/Info                            : UTF-8 Plain Text
  456. Duration                                 : 1 h 50 min
  457. Bit rate                                 : 23 b/s
  458. Frame rate                               : 0.113 FPS
  459. Count of elements                        : 747
  460. Stream size                              : 19.3 KiB (0%)
  461. Language                                 : Catalan
  462. Default                                  : No
  463. Forced                                   : No

  464. Text #31
  465. ID                                       : 34
  466. Format                                   : UTF-8
  467. Codec ID                                 : S_TEXT/UTF8
  468. Codec ID/Info                            : UTF-8 Plain Text
  469. Duration                                 : 1 h 50 min
  470. Bit rate                                 : 38 b/s
  471. Frame rate                               : 0.110 FPS
  472. Count of elements                        : 732
  473. Stream size                              : 31.6 KiB (0%)
  474. Language                                 : Arabic
  475. Default                                  : No
  476. Forced                                   : No

  477. Text #32
  478. ID                                       : 35
  479. Format                                   : UTF-8
  480. Codec ID                                 : S_TEXT/UTF8
  481. Codec ID/Info                            : UTF-8 Plain Text
  482. Duration                                 : 1 h 50 min
  483. Bit rate                                 : 23 b/s
  484. Frame rate                               : 0.103 FPS
  485. Count of elements                        : 686
  486. Stream size                              : 19.0 KiB (0%)
  487. Language                                 : Dutch
  488. Default                                  : No
  489. Forced                                   : No

  490. Text #33
  491. ID                                       : 36
  492. Format                                   : UTF-8
  493. Codec ID                                 : S_TEXT/UTF8
  494. Codec ID/Info                            : UTF-8 Plain Text
  495. Duration                                 : 1 h 50 min
  496. Bit rate                                 : 24 b/s
  497. Frame rate                               : 0.108 FPS
  498. Count of elements                        : 716
  499. Stream size                              : 19.5 KiB (0%)
  500. Title                                    : Traditional
  501. Language                                 : Chinese
  502. Default                                  : No
  503. Forced                                   : No

  504. Text #34
  505. ID                                       : 37
  506. Format                                   : UTF-8
  507. Codec ID                                 : S_TEXT/UTF8
  508. Codec ID/Info                            : UTF-8 Plain Text
  509. Duration                                 : 1 h 46 min
  510. Bit rate                                 : 27 b/s
  511. Frame rate                               : 0.104 FPS
  512. Count of elements                        : 668
  513. Stream size                              : 21.3 KiB (0%)
  514. Language                                 : Norwegian Bokmal
  515. Default                                  : No
  516. Forced                                   : No

  517. Text #35
  518. ID                                       : 38
  519. Format                                   : UTF-8
  520. Codec ID                                 : S_TEXT/UTF8
  521. Codec ID/Info                            : UTF-8 Plain Text
  522. Duration                                 : 1 h 50 min
  523. Bit rate                                 : 23 b/s
  524. Frame rate                               : 0.106 FPS
  525. Count of elements                        : 705
  526. Stream size                              : 19.3 KiB (0%)
  527. Language                                 : Finnish
  528. Default                                  : No
  529. Forced                                   : No

  530. Text #36
  531. ID                                       : 39
  532. Format                                   : UTF-8
  533. Codec ID                                 : S_TEXT/UTF8
  534. Codec ID/Info                            : UTF-8 Plain Text
  535. Duration                                 : 1 h 50 min
  536. Bit rate                                 : 41 b/s
  537. Frame rate                               : 0.109 FPS
  538. Count of elements                        : 724
  539. Stream size                              : 33.9 KiB (0%)
  540. Language                                 : Greek
  541. Default                                  : No
  542. Forced                                   : No

  543. Text #37
  544. ID                                       : 40
  545. Format                                   : UTF-8
  546. Codec ID                                 : S_TEXT/UTF8
  547. Codec ID/Info                            : UTF-8 Plain Text
  548. Duration                                 : 1 h 50 min
  549. Bit rate                                 : 25 b/s
  550. Frame rate                               : 0.108 FPS
  551. Count of elements                        : 716
  552. Stream size                              : 20.5 KiB (0%)
  553. Language                                 : Portuguese
  554. Default                                  : No
  555. Forced                                   : No

  556. Text #38
  557. ID                                       : 41
  558. Format                                   : UTF-8
  559. Codec ID                                 : S_TEXT/UTF8
  560. Codec ID/Info                            : UTF-8 Plain Text
  561. Duration                                 : 1 h 50 min
  562. Bit rate                                 : 35 b/s
  563. Frame rate                               : 0.107 FPS
  564. Count of elements                        : 708
  565. Stream size                              : 29.0 KiB (0%)
  566. Language                                 : Hebrew
  567. Default                                  : No
  568. Forced                                   : No

  569. Text #39
  570. ID                                       : 42
  571. Format                                   : UTF-8
  572. Codec ID                                 : S_TEXT/UTF8
  573. Codec ID/Info                            : UTF-8 Plain Text
  574. Duration                                 : 1 h 50 min
  575. Bit rate                                 : 22 b/s
  576. Frame rate                               : 0.108 FPS
  577. Count of elements                        : 718
  578. Stream size                              : 18.2 KiB (0%)
  579. Language                                 : Galician
  580. Default                                  : No
  581. Forced                                   : No
复制代码




                                       
                                       

                                       
                                       
                                       




The.Next.365.Days.2022.2160p.NF.WEB-DL.x265.10bit.HDR.DDP5.1-APEX.torrent (17.16 KB, 下载次数: 5)
回复

使用道具 举报

您需要登录后才可以回帖 登录 | 立即注册

本版积分规则

QQ|Archiver|手机版|小黑屋|蓝光电影网

GMT+8, 2023-2-8 01:50 , Processed in 0.056566 second(s), 28 queries .

Powered by Discuz! X3.4

Copyright © 2001-2020, Tencent Cloud.

快速回复 返回顶部 返回列表