找回密码
 立即注册

QQ登录

只需一步,快速开始

查看: 80|回复: 0

[剧情片] 征服者佩尔 Pelle.the.Conqueror.1987.DANISH.1080p.BluRay.x264.FLAC.2.0-c0kE 21.69GB

[复制链接]

0

精华

0

好友

2

听众

新手上路

Rank: 2

蓝光币
5
发表于 2022-9-25 07:06:05 | 显示全部楼层 |阅读模式
[img][/img]

◎标  题 征服者佩尔
◎译  名 赤子雄心(港) / 比利小英雄(台) / 征服者佩利 / 征服者贝莱 / 征服者佩莱 / Pelle the Conqueror
◎片  名 Pelle erövraren
◎年  代 1987
◎产  地 丹麦 / 瑞典
◎类  别 剧情
◎语  言 丹麦语 / 瑞典语 / 芬兰语
◎上映日期 1987-12-25
◎IMDb评分 7.8/10 (10787人评价)
◎IMDb链接 https://www.imdb.com/title/tt0093713/
◎豆瓣评分 8.5/10 (3561人评价)
◎豆瓣链接 https://movie.douban.com/subject/1298784/
◎片  长 157分钟
◎导  演 比利·奥古斯特 Bille August
◎编  剧 马丁·尼克索 Martin Andersen Nexø
       比利·奥古斯特 Bille August
       佩尔·奥洛夫·恩奎斯特 Per Olov Enquist
       比亚内·雷乌特 Bjarne Reuter
◎演  员 贝利·赫维内加拉德 Pelle Hvenegaard
       马克斯·冯·叙多夫 Max von Sydow
       埃里克·帕斯卡 Erik Paaske
       比约恩·格拉纳特 Björn Granath
       阿斯特丽兹·维尧姆 Astrid Villaume
       阿克塞尔·斯特里普 Axel Strøbye
       Troels Asmussen Troels Asmussen
       克里斯蒂娜·托维斯 Kristina Törnqvist
       卡伦·韦格纳 Karen Wegener
       苏菲·格拉宝 Sofie Gråbøl
       拉尔斯·西蒙森 Lars Simonsen
       Buster Larsen Buster Larsen
       John Wittig John Wittig
       Troels Munk Troels Munk
       Nis Bank-Mikkelsen Nis Bank-Mikkelsen
       Lena-Pia Bernhardsson Lena-Pia Bernhardsson
       托尔·林德哈特 Thure Lindhardt
       佩尔·霍尔斯特 Per Holst
       Stefan Nilsson Stefan Nilsson
       约根·佩尔松 Jörgen Persson
       雅努斯·比利斯科夫·扬森 Janus Billeskov Jansen
       安娜·阿斯普 Anna Asp
       Kaj Grönberg Kaj Grönberg
       Malin Birch-Jensen Malin Birch-Jensen
       Mads Egmont Christensen Mads Egmont Christensen
       Tove Berg Tove Berg
◎标  签 丹麦 / 瑞典 / 金棕榈 / 儿童 / 1987 / 剧情 / 励志 / 欧洲
◎简  介

  故事发生在十九世纪末北欧,混乱的局势衰颓的经济令人民们陷入了民不聊生的境地。农民拉斯卡森(马克斯·冯·西多 Max von Sydow 饰)带着儿子佩尔(贝利·赫维内加拉德 Pelle Hvenegaard 饰)来到丹麦,希望能够在这里依靠自己的双手挣得更体面的生活。                                    
                                然而,现实却远不如想象中那么美好,父子两人好不容易在农庄里找到了一份清理马厩的工作,无处可去的两人只能和马只一起睡在茅草堆上,白日里还要受到雇主的责难和剥削,生活苦不堪言。长工埃里克(比约恩·格拉纳特 Björn Granath 饰)积极的领导工人们同压迫他们的管家作斗争,埃里克的自由精神深深鼓舞了佩尔,使他决定离开庄园,开拓新的天地。
  1. Video
  2. ID                                       : 1
  3. Format                                   : AVC
  4. Format/Info                              : Advanced Video Codec
  5. Format profile                           : [email protected]
  6. Format settings                          : CABAC / 4 Ref Frames
  7. Format settings, CABAC                   : Yes
  8. Format settings, Reference frames        : 4 frames
  9. Codec ID                                 : V_MPEG4/ISO/AVC
  10. Duration                                 : 2 h 30 min
  11. Bit rate                                 : 19.3 Mb/s
  12. Width                                    : 1 920 pixels
  13. Height                                   : 1 028 pixels
  14. Display aspect ratio                     : 1.85:1
  15. Frame rate mode                          : Constant
  16. Frame rate                               : 23.976 (24000/1001/189150) FPS
  17. Color space                              : YUV
  18. Chroma subsampling                       : 4:2:0
  19. Bit depth                                : 8 bits
  20. Scan type                                : Progressive
  21. Bits/(Pixel*Frame)                       : 0.409
  22. Stream size                              : 20.3 GiB (94%)
  23. Writing library                          : x264 core 164 r3065+62M b012ed0 devel [(8 & 10)[email protected] X86_64]
  24. Encoding settings                        : cabac=1 / ref=4 / deblock=1:-3:-3 / analyse=0x3:0x133 / me=umh / subme=10 / psy=1 / fade_compensate=0.00 / psy_rd=1.08:0.00 / mixed_ref=1 / me_range=32 / chroma_me=1 / trellis=2 / 8x8dct=1 / cqm=0 / deadzone=21,11 / fast_pskip=0 / chroma_qp_offset=-2 / threads=18 / lookahead_threads=4 / sliced_threads=0 / nr=0 / decimate=0 / interlaced=0 / bluray_compat=0 / constrained_intra=0 / fgo=0 / bframes=13 / b_pyramid=2 / b_adapt=2 / b_bias=0 / direct=3 / weightb=1 / open_gop=0 / weightp=2 / keyint=250 / keyint_min=23 / scenecut=40 / intra_refresh=0 / rc_lookahead=60 / rc=crf / mbtree=0 / crf=21.2000 / qcomp=0.65 / qpmin=0:0:0 / qpmax=69:69:69 / qpstep=4 / vbv_maxrate=62500 / vbv_bufsize=78125 / crf_max=0.0 / nal_hrd=none / filler=0 / ip_ratio=1.30 / pb_ratio=1.20 / aq=3:0.80 / aq-sensitivity=10.00 / aq-factor=1.00:1.00:1.00 / aq2=0 / aq3=0
  25. Language                                 : English
  26. Default                                  : Yes
  27. Forced                                   : No
  28. Color range                              : Limited
  29. Color primaries                          : BT.709
  30. Matrix coefficients                      : BT.709
  31. Audio #1
  32. ID                                       : 2
  33. Format                                   : FLAC
  34. Format/Info                              : Free Lossless Audio Codec
  35. Codec ID                                 : A_FLAC
  36. Duration                                 : 2 h 30 min
  37. Bit rate mode                            : Variable
  38. Bit rate                                 : 880 kb/s
  39. Channel(s)                               : 2 channels
  40. Channel layout                           : L R
  41. Sampling rate                            : 48.0 kHz
  42. Frame rate                               : 41.667 FPS (1152 SPF)
  43. Bit depth                                : 16 bits
  44. Compression mode                         : Lossless
  45. Stream size                              : 944 MiB (4%)
  46. Title                                    : Danish
  47. Writing library                          : Lavf58.76.100
  48. Language                                 : Danish
  49. Default                                  : Yes
  50. Forced                                   : No
  51. Audio #2
  52. ID                                       : 3
  53. Format                                   : AC-3
  54. Format/Info                              : Audio Coding 3
  55. Commercial name                          : Dolby Digital
  56. Codec ID                                 : A_AC3
  57. Duration                                 : 2 h 30 min
  58. Bit rate mode                            : Constant
  59. Bit rate                                 : 448 kb/s
  60. Channel(s)                               : 2 channels
  61. Channel layout                           : L R
  62. Sampling rate                            : 48.0 kHz
  63. Frame rate                               : 31.250 FPS (1536 SPF)
  64. Compression mode                         : Lossy
  65. Stream size                              : 481 MiB (2%)
  66. Title                                    : English (Commentary by film scholar Peter Cowie)
  67. Language                                 : English
  68. Service kind                             : Complete Main
  69. Default                                  : No
  70. Forced                                   : No
  71. Text #1
  72. ID                                       : 4
  73. Format                                   : UTF-8
  74. Codec ID                                 : S_TEXT/UTF8
  75. Codec ID/Info                            : UTF-8 Plain Text
  76. Duration                                 : 2 h 26 min
  77. Bit rate                                 : 31 b/s
  78. Frame rate                               : 0.107 FPS
  79. Count of elements                        : 943
  80. Stream size                              : 33.5 KiB (0%)
  81. Title                                    : English
  82. Language                                 : English
  83. Default                                  : No
  84. Forced                                   : No
  85. Text #2
  86. ID                                       : 5
  87. Format                                   : PGS
  88. Muxing mode                              : zlib
  89. Codec ID                                 : S_HDMV/PGS
  90. Codec ID/Info                            : Picture based subtitle format used on BDs/HD-DVDs
  91. Duration                                 : 2 h 26 min
  92. Bit rate                                 : 23.6 kb/s
  93. Frame rate                               : 0.214 FPS
  94. Count of elements                        : 1882
  95. Stream size                              : 24.8 MiB (0%)
  96. Title                                    : English (SDH)
  97. Language                                 : English
  98. Default                                  : No
  99. Forced                                   : No
  100. Text #3
  101. ID                                       : 6
  102. Format                                   : UTF-8
  103. Codec ID                                 : S_TEXT/UTF8
  104. Codec ID/Info                            : UTF-8 Plain Text
  105. Duration                                 : 2 h 26 min
  106. Bit rate                                 : 40 b/s
  107. Frame rate                               : 0.107 FPS
  108. Count of elements                        : 943
  109. Stream size                              : 43.9 KiB (0%)
  110. Title                                    : Vietnamese
  111. Language                                 : Vietnamese
  112. Default                                  : No
  113. Forced                                   : No
  114. Menu
  115. 00:00:00.000                             : :Chapter 01
  116. 00:12:18.404                             : :Chapter 02
  117. 00:27:17.928                             : :Chapter 03
  118. 00:38:38.900                             : :Chapter 04
  119. 00:53:10.396                             : :Chapter 05
  120. 01:05:20.291                             : :Chapter 06
  121. 01:17:37.027                             : :Chapter 07
  122. 01:29:38.164                             : :Chapter 08
  123. 01:47:17.306                             : :Chapter 09
  124. 01:57:39.928                             : :Chapter 10
  125. 02:11:53.614                             : :Chapter 11
  126. 02:27:54.532                             : :Chapter 12
复制代码




                                       
                                       

                                       
                                       
                                       




Pelle.the.Conqueror.1987.DANISH.1080p.BluRay.x264.FLAC.2.0-c0kE.torrent (27.77 KB, 下载次数: 0)
回复

使用道具 举报

您需要登录后才可以回帖 登录 | 立即注册

本版积分规则

QQ|Archiver|手机版|小黑屋|蓝光电影网

GMT+8, 2022-12-1 20:27 , Processed in 0.051452 second(s), 28 queries .

Powered by Discuz! X3.4

Copyright © 2001-2020, Tencent Cloud.

快速回复 返回顶部 返回列表