找回密码
 立即注册

QQ登录

只需一步,快速开始

查看: 274|回复: 0

[2160p-WEB] 隐入尘烟[国语配音/中文字幕].Return.to.Dust.2022.2160p.WEB-DL.H265.AAC-MOMOWEB 4.13GB

[复制链接]

0

精华

0

好友

2

听众

新手上路

Rank: 2

蓝光币
5
发表于 2022-8-23 04:17:46 | 显示全部楼层 |阅读模式


◎标  题 隐入尘烟
◎译  名 Return to Dust
◎年  代 2022
◎产  地 中国大陆
◎类  别 剧情
◎语  言 甘肃方言 / 汉语普通话
◎上映日期 2022-07-08(中国大陆) / 2022-02-13(柏林电影节)
◎IMDb评分 7.6/10 (223人评价)
◎IMDb链接 https://www.imdb.com/title/tt17097088/
◎豆瓣评分 8.4/10 (87604人评价)
◎豆瓣链接 https://movie.douban.com/subject/35131346/
◎片  长 133分钟
◎导  演 李睿珺 Ruijun Li
◎编  剧 李睿珺 Ruijun Li
◎演  员 武仁林 Renlin Wu
       海清 Qing Hai
       杨光锐 Guangrui Yang
       武赟志 Yunzhi Wu
       李生甫 Shengfu Li
       张敏 Min Zhang
       张一白 Yibai Zhang
       覃宏 Hong Qin
       张敏 Min Zhang
       栗颜 Yan Li
       裴曼·雅茨达尼安 Peyman Yazdanian
       王维华 Weihua Wang
       李睿珺 Ruijun Li
       李睿珺 Ruijun Li
       武仁林 Renlin Wu
       王长锐 Changrui Wang
       黄海 Hai Huang
◎简  介
  影片讲述西北农村,两个被各自家庭抛弃的孤独个体,在日复一日的耕耘中相濡以沫的故事,武仁林与海清展现了一对底层农民夫妇从陌生到熟悉,从相知到相守的心路历程。
  1. ##### MediaInfo ######
  2. General
  3. Unique ID                                : 61644853925404120711415567911868531182 (0x2E605DF45125B172612EB31A44B581EE)
  4. Complete name                            : Return.to.Dust.2022.2160p.WEB-DL.H265.AAC-MOMOWEB.mkv
  5. Format                                   : Matroska
  6. Format version                           : Version 4
  7. File size                                : 4.13 GiB
  8. Duration                                 : 2 h 13 min
  9. Overall bit rate                         : 4 431 kb/s
  10. Encoded date                             : UTC 2022-08-09 01:59:44
  11. Writing application                      : mkvmerge v58.0.0 ('Supper's Ready') 64-bit
  12. Writing library                          : libebml v1.4.2 + libmatroska v1.6.4
  13. Video
  14. ID                                       : 1
  15. Format                                   : HEVC
  16. Format/Info                              : High Efficiency Video Coding
  17. Format profile                           : Main@L5@Main
  18. Codec ID                                 : V_MPEGH/ISO/HEVC
  19. Duration                                 : 2 h 13 min
  20. Bit rate                                 : 4 303 kb/s
  21. Width                                    : 3 840 pixels
  22. Height                                   : 2 076 pixels
  23. Display aspect ratio                     : 1.85:1
  24. Frame rate mode                          : Constant
  25. Frame rate                               : 24.000 FPS
  26. Color space                              : YUV
  27. Chroma subsampling                       : 4:2:0
  28. Bit depth                                : 8 bits
  29. Bits/(Pixel*Frame)                       : 0.022
  30. Stream size                              : 4.01 GiB (97%)
  31. Language                                 : Chinese
  32. Default                                  : Yes
  33. Forced                                   : No
  34. Color range                              : Limited
  35. Color primaries                          : BT.709
  36. Transfer characteristics                 : BT.709
  37. Matrix coefficients                      : BT.709
  38. Audio
  39. ID                                       : 2
  40. Format                                   : AAC LC
  41. Format/Info                              : Advanced Audio Codec Low Complexity
  42. Codec ID                                 : A_AAC-2
  43. Duration                                 : 2 h 13 min
  44. Bit rate                                 : 125 kb/s
  45. Channel(s)                               : 2 channels
  46. Channel layout                           : L R
  47. Sampling rate                            : 48.0 kHz
  48. Frame rate                               : 46.875 FPS (1024 SPF)
  49. Compression mode                         : Lossy
  50. Delay relative to video                  : -42 ms
  51. Stream size                              : 120 MiB (3%)
  52. Language                                 : Chinese
  53. Default                                  : Yes
  54. Forced                                   : No
复制代码



推荐请使用qBittorrent,utorrent,transmission等标准BT软件下载!以获取最快速度。拜托保种!





隐入尘烟[国语配音 中文字幕].Return.to.Dust.2022.2160p.WEB-DL.H265.AAC-MOMOWEB.torrent (11.27 KB, 下载次数: 11)
回复

使用道具 举报

您需要登录后才可以回帖 登录 | 立即注册

本版积分规则

QQ|Archiver|手机版|小黑屋|蓝光电影网

GMT+8, 2022-11-30 12:35 , Processed in 0.050937 second(s), 24 queries .

Powered by Discuz! X3.4

Copyright © 2001-2020, Tencent Cloud.

快速回复 返回顶部 返回列表