找回密码
 立即注册

QQ登录

只需一步,快速开始

查看: 100|回复: 0

[其他] 亡命救护车 Ambulance.2022.2160p.WEB-DL.x265.10bit.SDR.DDP5.1.Atmos-NOGRP 12.02GB

[复制链接]

0

精华

0

好友

2

听众

新手上路

Rank: 2

蓝光币
5
发表于 2022-4-23 07:54:02 | 显示全部楼层 |阅读模式


◎译  名 亡命救护车 / 救护车 / 劫命救护(台) / 十字冲锋车(港)
◎片  名 Ambulance
◎年  代 2022
◎产  地 美国
◎类  别 动作 / 犯罪
◎语  言 英语
◎上映日期 2022-04-22(中国大陆) / 2022-04-08(美国)
◎IMDb链接 https://www.imdb.com/title/tt4998632/
◎豆瓣链接 https://movie.douban.com/subject/35250237/
◎片  长 136分钟
◎导  演 迈克尔·贝 Michael Bay (id:1027776)
◎编  剧 克里斯·费达克 Chris Fedak (id:1319798)
       劳里茨·茫奇-彼得森 Laurits Munch-Petersen (id:1126201)
       拉斯·安德烈亚斯·佩德森 Lars Andreas Pedersen (id:1010432)
◎演  员 杰克·吉伦哈尔 Jake Gyllenhaal (id:1048002)
       叶海亚·阿卜杜勒-迈丁 Yahya Abdul-Mateen II (id:1374708)
       艾莎·冈萨雷斯 Eiza González (id:1233270)
       加瑞特·迪拉胡特 Garret Dillahunt (id:1036365)
       基尔·奥唐纳 Keir O'Donnell (id:1040575)
       杰克逊·怀特 Jackson White (id:1425585)
       奥利维亚·斯坦布利亚 Olivia Stambouliah (id:1256030)
       摩西·英格拉姆 Moses Ingram (id:1446415)
       科林·伍德尔 Colin Woodell (id:1340880)
       塞德里克·桑德斯 Cedric Sanders (id:1240253)
       A·马丁内斯 A Martinez (id:1125486)
       杰西·加西亚 Jesse Garcia (id:1339720)
       何塞·巴勃罗·坎蒂略 Jose Pablo Cantillo (id:1000476)
       威尔 Wale (id:1253455)
       德文·隆恩 Devan Long (id:1413539)
       维克多·高佳卡 Victor Gojcaj (id:1226282)
       杰米·麦克布莱德 Jamie McBride (id:1000740)
       珍·普罗斯克 Jenn Proske (id:1315966)
       凯利·陈 Kayli Tran (id:1423781)
       布兰登·罗宾逊 Brendan Robinson (id:1316961)
       安娜贝勒·格维奇 Annabelle Gurwitch (id:1041271)
       刘慈慈 Cici Lau (id:1438404)
       切尔西哈里斯 Chelsea Harris (id:1222987)
       安迪·费儒 Andy Favreau (id:1390048)
       艾恩 Ayne (id:1450293)
◎简  介

  本片翻拍自2005年同名丹麦电影,功勋退伍士兵威尔·夏普(叶海亚·阿卜杜勒-迈丁 饰)为救妻子情急之下找到养兄弟丹尼(杰克·吉伦哈尔 饰)求助,却因此被卷入洛杉矶史上最大金额银行抢劫案。在脱身中出现的致命差池,迫使二人挟持了一辆载有一名垂危警察和一位顶尖急救专家卡姆·汤普森(艾莎·冈萨雷斯 饰)的救护车。在这场持久的高速追逐中,威尔和丹尼极力躲避全城警察的大规模搜捕、保证人质的生命安全、努力不对兄弟拔刀相向,同时完成这场洛杉矶有史以来最疯狂且惊险刺激的逃脱。
  1. Video
  2. ID                                       : 1
  3. Format                                   : HEVC
  4. Format/Info                              : High Efficiency Video Coding
  5. Format profile                           : Main [email protected]@High
  6. Codec ID                                 : V_MPEGH/ISO/HEVC
  7. Duration                                 : 2 h 16 min
  8. Bit rate                                 : 11.8 Mb/s
  9. Width                                    : 3 840 pixels
  10. Height                                   : 1 596 pixels
  11. Display aspect ratio                     : 2.40:1
  12. Frame rate mode                          : Constant
  13. Frame rate                               : 23.976 FPS
  14. Color space                              : YUV
  15. Chroma subsampling                       : 4:2:0
  16. Bit depth                                : 10 bits
  17. Bits/(Pixel*Frame)                       : 0.081
  18. Stream size                              : 11.3 GiB (94%)
  19. Default                                  : Yes
  20. Forced                                   : No
  21. Color range                              : Limited
  22. Color primaries                          : BT.709
  23. Transfer characteristics                 : BT.709
  24. Matrix coefficients                      : BT.709

  25. Audio
  26. ID                                       : 2
  27. Format                                   : E-AC-3 JOC
  28. Format/Info                              : Enhanced AC-3 with Joint Object Coding
  29. Commercial name                          : Dolby Digital Plus with Dolby Atmos
  30. Codec ID                                 : A_EAC3
  31. Duration                                 : 2 h 16 min
  32. Bit rate mode                            : Constant
  33. Bit rate                                 : 768 kb/s
  34. Channel(s)                               : 6 channels
  35. Channel layout                           : L R C LFE Ls Rs
  36. Sampling rate                            : 48.0 kHz
  37. Frame rate                               : 31.250 FPS (1536 SPF)
  38. Compression mode                         : Lossy
  39. Stream size                              : 749 MiB (6%)
  40. Language                                 : English
  41. Service kind                             : Complete Main
  42. Default                                  : Yes
  43. Forced                                   : No
  44. Complexity index                         : 16
  45. Number of dynamic objects                : 15
  46. Bed channel count                        : 1 channel
  47. Bed channel configuration                : LFE

  48. Text #1
  49. ID                                       : 3
  50. Format                                   : UTF-8
  51. Codec ID                                 : S_TEXT/UTF8
  52. Codec ID/Info                            : UTF-8 Plain Text
  53. Duration                                 : 2 h 11 min
  54. Bit rate                                 : 87 b/s
  55. Count of elements                        : 2783
  56. Stream size                              : 84.2 KiB (0%)
  57. Language                                 : English
  58. Default                                  : Yes
  59. Forced                                   : No

  60. Text #2
  61. ID                                       : 4
  62. Format                                   : UTF-8
  63. Codec ID                                 : S_TEXT/UTF8
  64. Codec ID/Info                            : UTF-8 Plain Text
  65. Duration                                 : 2 h 16 min
  66. Bit rate                                 : 94 b/s
  67. Count of elements                        : 3072
  68. Stream size                              : 94.5 KiB (0%)
  69. Title                                    : SDH
  70. Language                                 : English
  71. Default                                  : No
  72. Forced                                   : No
复制代码




                                       
                                       

                                       
                                       
                                       




Ambulance.2022.2160p.WEB-DL.x265.10bit.SDR.DDP5.1.Atmos-NOGRP.torrent (15.66 KB, 下载次数: 5)
回复

使用道具 举报

您需要登录后才可以回帖 登录 | 立即注册

本版积分规则

QQ|Archiver|手机版|小黑屋|蓝光电影网

GMT+8, 2022-5-17 01:51 , Processed in 0.051679 second(s), 28 queries .

Powered by Discuz! X3.4

Copyright © 2001-2020, Tencent Cloud.

快速回复 返回顶部 返回列表