蓝光电影网

 找回密码
 立即注册

QQ登录

只需一步,快速开始

搜索
热搜: 活动 交友 discuz
查看: 385|回复: 0

[喜剧片] 逃学威龙2 Fight.Back.to.School.2.1992.CHINESE.1080p.BluRay.x264.DTS-PbK 17.07GB

[复制链接]

已抛锚 成长值: 310

7万

主题

7万

帖子

7万

积分

管理员

Rank: 9Rank: 9Rank: 9

积分
78310
发表于 2020-9-30 23:21:50 | 显示全部楼层 |阅读模式


译  名 逃学威龙2 / Fight Back to School II
片  名 逃學威龍2
年  代 1992
产  地 中国香港
类  别 笑剧
语  言 粤语
上映日期 1992-04-09(中国香港)
IMDb评分6.7/10 from 2099 users
IMDb链接https://www.imdb.com/title/tt0105534
豆瓣评分 7.6/10 from 134810 users
豆瓣链接 https://movie.douban.com/subject/1296201/
片  长 97分钟
导  演 陈嘉上
编  剧 阮继志 / 陈嘉上 / 陈健忠
主  演 周星驰
     张敏
     吴孟达
     朱茵
     叶德娴
     方保罗 Paul Fonoroff
     周文健 Michael Chow Man-Kin
     柯受良 Sau Leung 'Blacky' Ko
     李丽蕊 Sarah Lee

标  签 周星驰 | 笑剧 | 香港 | 香港电影 | 搞笑 | 1992 | 朱茵 | 电影
简  介
  周星星(周星驰 饰)美满完成了校园使命后,以为可以升职,恰恰被调为交通差人。跟他一样立功的曹达华(吴孟达 饰)则继续以卧底的身份在黉舍内观察国际可骇构造的案件。他的奇迹颠仆的低估,就连预备婚礼的钱都是女友阿敏(张敏 饰)的私己钱,令阿星非常无法。为了证实自己的才能,他决议以小我的身份到黉舍辅佐曹达华,可骇份子如期行动,双方起头奋战。
获奖情况
  第12届香港电影金像奖(1993)
  最好女配角(提名) 叶德娴
  最好新演员(提名) 朱茵
  1. Video
  2. ID             : 1
  3. Format           : AVC
  4. Format/Info          : Advanced Video Codec
  5. Format profile         : [email]High@L4.1[/email]
  6. Format settings        : CABAC / 5 Ref Frames
  7. Format settings, CABAC       : Yes
  8. Format settings, Reference frames  : 5 frames
  9. Codec ID           : V_MPEG4/ISO/AVC
  10. Duration           : 1 h 38 min
  11. Bit rate           : 23.3 Mb/s
  12. Width            : 1 920 pixels
  13. Height           : 1 080 pixels
  14. Display aspect ratio       : 16:9
  15. Frame rate mode        : Constant
  16. Frame rate           : 24.000 FPS
  17. Color space          : YUV
  18. Chroma subsampling       : 4:2:0
  19. Bit depth          : 8 bits
  20. Scan type          : Progressive
  21. Bits/(Pixel*Frame)       : 0.468
  22. Stream size          : 16.0 GiB (94%)
  23. Writing library        : x264 core 148 r2692+46 0f71ed5 7mod [8-bit@all X86_64]
  24. Encoding settings        : cabac=1 / ref=5 / deblock=1:-3:-3 / analyse=0x3:0x113 / me=umh / subme=11 / psy=1 / fade_compensate=0.00 / psy_rd=1.00:0.00 / mixed_ref=1 / me_range=48 / chroma_me=1 / trellis=2 / 8x8dct=1 / cqm=0 / deadzone=11,6 / fast_pskip=0 / chroma_qp_offset=-2 / threads=12 / lookahead_threads=2 / sliced_threads=0 / nr=0 / decimate=0 / interlaced=0 / bluray_compat=0 / constrained_intra=0 / fgo=0 / bframes=8 / b_pyramid=2 / b_adapt=2 / b_bias=0 / direct=3 / weightb=1 / open_gop=0 / weightp=2 / keyint=250 / keyint_min=24 / scenecut=40 / intra_refresh=0 / rc_lookahead=60 / rc=crf / mbtree=0 / crf=18.0000 / qcomp=0.60 / qpmin=0:0:0 / qpmax=32:32:32 / qpstep=4 / vbv_maxrate=40000 / vbv_bufsize=30000 / crf_max=0.0 / nal_hrd=none / filler=0 / ip_ratio=1.30 / pb_ratio=1.20 / aq=4:0.80 / aq-sensitivity=10.00 / aq-factor=1.00:1.00:1.00 / aq2=0 / aq3=0
  25. Language           : Chinese
  26. Default            : Yes
  27. Forced           : No
  28. Color range          : Limited
  29. Color primaries        : BT.709
  30. Transfer characteristics     : BT.709
  31. Matrix coefficients        : BT.709

  32. Audio
  33. ID             : 2
  34. Format           : DTS
  35. Format/Info          : Digital Theater Systems
  36. Codec ID           : A_DTS
  37. Duration           : 1 h 38 min
  38. Bit rate mode          : Constant
  39. Bit rate           : 1 509 kb/s
  40. Channel(s)           : 6 channels
  41. Channel layout         : C L R Ls Rs LFE
  42. Sampling rate          : 48.0 kHz
  43. Frame rate           : 93.750 FPS (512 SPF)
  44. Bit depth          : 16 bits
  45. Compression mode         : Lossy
  46. Stream size          : 1.04 GiB (6%)
  47. Language           : Chinese
  48. Default            : Yes
  49. Forced           : No

  50. Text
  51. ID             : 3
  52. Format           : UTF-8
  53. Codec ID           : S_TEXT/UTF8
  54. Codec ID/Info          : UTF-8 Plain Text
  55. Duration           : 1 h 34 min
  56. Bit rate           : 54 b/s
  57. Count of elements        : 1613
  58. Stream size          : 38.1 KiB (0%)
  59. Language           : English
  60. Default            : Yes
  61. Forced           : No

  62. Menu
  63. 00:00:00.000         : en:00:00:00.000
  64. 00:09:19.083         : en:00:09:19.083
  65. 00:15:51.625         : en:00:15:51.625
  66. 00:25:23.458         : en:00:25:23.458
  67. 00:33:02.125         : en:00:33:02.125
  68. 00:41:24.000         : en:00:41:24.000
  69. 00:51:01.958         : en:00:51:01.958
  70. 00:59:23.167         : en:00:59:23.167
  71. 01:06:36.708         : en:01:06:36.708
  72. 01:13:37.958         : en:01:13:37.958
  73. 01:22:44.667         : en:01:22:44.667
  74. 01:30:03.042         : en:01:30:03.042
复制代码








字幕下载网站---点这里进入
回复

使用道具 举报

您需要登录后才可以回帖 登录 | 立即注册

本版积分规则

QQ|Archiver|手机版|小黑屋|蓝光电影网 ( 滇ICP备18001150号-1 )

GMT+8, 2020-12-5 13:41 , Processed in 0.098709 second(s), 24 queries .

Powered by Discuz! X3.4

© 2001-2017 Comsenz Inc.

快速回复 返回顶部 返回列表