蓝光电影网

 找回密码
 立即注册

QQ登录

只需一步,快速开始

查看: 6468|回复: 0

[8bit.SDR] 比尔和泰德历险记/比尔和泰德的奇异冒险 Bill.and.Teds.Excellent.Adventure.1989.2160p.BluRay.x264.8bit.SDR.DTS-HD.MA.5.1-SWTYBLZ 53.36GB

[复制链接]

已抛锚 成长值: 310

7万

主题

7万

帖子

8万

积分

管理员

Rank: 9Rank: 9Rank: 9

积分
81242
发表于 2020-8-16 21:49:22 | 显示全部楼层 |阅读模式
004549uclr7jgrazl227ig.jpg

译  名 比尔和泰德历险记 / 比尔和泰德的奇异冒险 / 超时空历险记 / 阿比阿弟的冒险 / 阿比阿弟闯天关(台)
片  名 Bill & Ted's Excellent Adventure
年  代 1989
产  地 美国
类  别 笑剧 / 科幻 / 家庭 / 冒险
语  言 英语 / 法语 / 德语
上映日期 1989-02-17(美国)
IMDb评分6.9/10 from 108520 users
IMDb链接https://www.imdb.com/title/tt0096928
豆瓣评分 6.9/10 from 1458 users
豆瓣链接 https://movie.douban.com/subject/1293895/
片  长 90分钟
导  演 斯蒂芬·赫瑞克 Stephen Herek
编  剧 Chris Matheson / 爱德·索罗门 Ed Solomon
主  演 斯蒂芬·赫瑞克 Stephen Herek
     爱德·索罗门 Ed Solomon
     基努·李维斯 Keanu Reeves
     亚历克斯·温特 Alex Winter
     乔治·卡林 George Carlin
     丹·肖尔 Dan Shor
     Rod Loomis
     Al Leong
     Jane Wiedlin
     Robert V. Barron
     Clifford David
     Hal Landon Jr.
     Bernie Casey
     Amy Stock-Poynton

标  签 笑剧 | 科幻 | 美国 | 青春 | KeanuReeves | 1989 | 美国电影 | 穿越
简  介
  泰德(基努·里维斯 Keanu Reeves 饰)和比尔(亚历克斯·温特 Alex Winter 饰)是就读于同一所高中的同学,两人之间豪情非常要好。也许,他们会如此一见仍旧的缘由在于,两人的智商处在同一水平线上,没错,就是那条比他人都低的水平线。更糟糕的是,比尔和泰德在一路只晓得全日游手好闲,丝绝不将心机放在进修上,成便不可思议。
  历史考试在即,就在这个节骨眼上,泰德和比尔得知了一个惊天凶讯,假如不能经过此次考试,他们就将没法拿到结业证书,一会儿懵了的两人堕入了手足无措当中。就在此时,一位名叫鲁佛斯(乔治·卡林 George Carlin 饰)的天外来客出现在了他们眼前,他自称来自未来天下。不管鲁佛斯所言是真是假,泰德和比尔大白,他是他们那道结业证书的唯逐一根拯救稻草。
  1. Video
  2. ID             : 1
  3. Format           : AVC
  4. Format/Info          : Advanced Video Codec
  5. Format profile         : [email]High@L5.1[/email]
  6. Format settings        : CABAC / 5 Ref Frames
  7. Format settings, CABAC       : Yes
  8. Format settings, Reference frames  : 5 frames
  9. Codec ID           : V_MPEG4/ISO/AVC
  10. Duration           : 1 h 29 min
  11. Bit rate           : 79.8 Mb/s
  12. Width            : 3 840 pixels
  13. Height           : 1 632 pixels
  14. Display aspect ratio       : 2.35:1
  15. Frame rate mode        : Constant
  16. Frame rate           : 24.000 FPS
  17. Color space          : YUV
  18. Chroma subsampling       : 4:2:0
  19. Bit depth          : 8 bits
  20. Scan type          : Progressive
  21. Bits/(Pixel*Frame)       : 0.531
  22. Stream size          : 50.1 GiB (95%)
  23. Title            : Bill.and.Teds.Excellent.Adventure.1989.2160p.BluRay.x264.8bit.SDR.DTS-HD.MA.5.1-SWTYBLZ
  24. Writing library        : x264 core 157 r2935 545de2f
  25. Encoding settings        : cabac=1 / ref=5 / deblock=1:-1:-1 / analyse=0x3:0x113 / me=umh / subme=10 / psy=1 / psy_rd=1.00:0.15 / mixed_ref=1 / me_range=48 / chroma_me=1 / trellis=2 / 8x8dct=1 / cqm=0 / deadzone=21,11 / fast_pskip=1 / chroma_qp_offset=-3 / threads=36 / lookahead_threads=3 / sliced_threads=0 / nr=0 / decimate=0 / interlaced=0 / bluray_compat=0 / constrained_intra=0 / bframes=3 / b_pyramid=2 / b_adapt=2 / b_bias=0 / direct=3 / weightb=1 / open_gop=0 / weightp=2 / keyint=250 / keyint_min=23 / scenecut=40 / intra_refresh=0 / rc_lookahead=50 / rc=crf / mbtree=1 / crf=21.0 / qcomp=0.60 / qpmin=0 / qpmax=69 / qpstep=4 / ip_ratio=1.40 / aq=1:1.00
  26. Language           : English
  27. Default            : Yes
  28. Forced           : No

  29. Audio #1
  30. ID             : 2
  31. Format           : DTS XLL
  32. Format/Info          : Digital Theater Systems
  33. Commercial name        : DTS-HD Master Audio
  34. Codec ID           : A_DTS
  35. Duration           : 1 h 29 min
  36. Bit rate mode          : Variable
  37. Bit rate           : 3 896 kb/s
  38. Channel(s)           : 6 channels
  39. Channel layout         : C L R Ls Rs LFE
  40. Sampling rate          : 48.0 kHz
  41. Frame rate           : 93.750 FPS (512 SPF)
  42. Bit depth          : 24 bits
  43. Compression mode         : Lossless
  44. Stream size          : 2.45 GiB (5%)
  45. Title            : Bill.and.Teds.Excellent.Adventure.1989.2160p.BluRay.x264.8bit.SDR.DTS-HD.MA.5.1-SWTYBLZ
  46. Language           : English
  47. Default            : Yes
  48. Forced           : No

  49. Audio #2
  50. ID             : 3
  51. Format           : AC-3
  52. Format/Info          : Audio Coding 3
  53. Commercial name        : Dolby Digital
  54. Codec ID           : A_AC3
  55. Duration           : 1 h 29 min
  56. Bit rate mode          : Constant
  57. Bit rate           : 640 kb/s
  58. Channel(s)           : 6 channels
  59. Channel layout         : L R C LFE Ls Rs
  60. Sampling rate          : 48.0 kHz
  61. Frame rate           : 31.250 FPS (1536 SPF)
  62. Bit depth          : 16 bits
  63. Compression mode         : Lossy
  64. Stream size          : 412 MiB (1%)
  65. Title            : Bill.and.Teds.Excellent.Adventure.1989.2160p.BluRay.x264.8bit.SDR.DTS-HD.MA.5.1-SWTYBLZ
  66. Language           : English
  67. Service kind         : Complete Main
  68. Default            : No
  69. Forced           : No

  70. Text #1
  71. ID             : 4
  72. Format           : UTF-8
  73. Codec ID           : S_TEXT/UTF8
  74. Codec ID/Info          : UTF-8 Plain Text
  75. Duration           : 32 min 46 s
  76. Bit rate           : 1 b/s
  77. Count of elements        : 18
  78. Stream size          : 486 Bytes (0%)
  79. Title            : English-FORCED-SRT
  80. Language           : English
  81. Default            : Yes
  82. Forced           : Yes

  83. Text #2
  84. ID             : 5
  85. Format           : UTF-8
  86. Codec ID           : S_TEXT/UTF8
  87. Codec ID/Info          : UTF-8 Plain Text
  88. Duration           : 1 h 23 min
  89. Bit rate           : 47 b/s
  90. Count of elements        : 981
  91. Stream size          : 29.3 KiB (0%)
  92. Title            : English-SRT
  93. Language           : English
  94. Default            : No
  95. Forced           : No

  96. Text #3
  97. ID             : 6
  98. Format           : UTF-8
  99. Codec ID           : S_TEXT/UTF8
  100. Codec ID/Info          : UTF-8 Plain Text
  101. Duration           : 1 h 25 min
  102. Bit rate           : 52 b/s
  103. Count of elements        : 1159
  104. Stream size          : 33.0 KiB (0%)
  105. Title            : English-SDH-SRT
  106. Language           : English
  107. Default            : No
  108. Forced           : No

  109. Text #4
  110. ID             : 7
  111. ID in the original source medium   : 4768 (0x12A0)
  112. Format           : PGS
  113. Muxing mode          : zlib
  114. Codec ID           : S_HDMV/PGS
  115. Codec ID/Info          : Picture based subtitle format used on BDs/HD-DVDs
  116. Duration           : 1 h 25 min
  117. Bit rate           : 33.8 kb/s
  118. Count of elements        : 2309
  119. Stream size          : 20.7 MiB (0%)
  120. Title            : English-PGS
  121. Language           : English
  122. Default            : No
  123. Forced           : No
  124. Original source medium       : Blu-ray

  125. Text #5
  126. ID             : 8
  127. ID in the original source medium   : 4769 (0x12A1)
  128. Format           : PGS
  129. Muxing mode          : zlib
  130. Codec ID           : S_HDMV/PGS
  131. Codec ID/Info          : Picture based subtitle format used on BDs/HD-DVDs
  132. Duration           : 1 h 25 min
  133. Bit rate           : 26.4 kb/s
  134. Count of elements        : 1558
  135. Stream size          : 16.1 MiB (0%)
  136. Title            : German-PGS
  137. Language           : German
  138. Default            : No
  139. Forced           : No
  140. Original source medium       : Blu-ray

  141. Text #6
  142. ID             : 9
  143. ID in the original source medium   : 4770 (0x12A2)
  144. Format           : PGS
  145. Muxing mode          : zlib
  146. Codec ID           : S_HDMV/PGS
  147. Codec ID/Info          : Picture based subtitle format used on BDs/HD-DVDs
  148. Duration           : 1 h 28 min
  149. Bit rate           : 26.3 kb/s
  150. Count of elements        : 1803
  151. Stream size          : 16.7 MiB (0%)
  152. Title            : French-PGS
  153. Language           : French
  154. Default            : No
  155. Forced           : No
  156. Original source medium       : Blu-ray

  157. Menu
  158. 00:00:00.000         : en:Chapter 01
  159. 00:04:54.208         : en:Chapter 02
  160. 00:09:44.916         : en:Chapter 03
  161. 00:16:42.208         : en:Chapter 04
  162. 00:23:50.916         : en:Chapter 05
  163. 00:30:54.541         : en:Chapter 06
  164. 00:41:31.666         : en:Chapter 07
  165. 00:52:25.583         : en:Chapter 08
  166. 00:59:11.333         : en:Chapter 09
  167. 01:07:25.416         : en:Chapter 10
  168. 01:13:39.875         : en:Chapter 11
  169. 01:21:26.500         : en:Chapter 12
复制代码


004549nu53ccouun0pkbpn.png

004550mrr8enwm9zmea1o9.png

004550jle5tlu2e30293cr.png

004551nxyx3ccqdzaqexzn.png

004551rasisa3aa4iib1ba.png

004552dn3jqjrzj2ks1nq3.png

004553oxkx30v17xvjdu3l.png

004553mjkbrmby1gki9m61.png


字幕下载网站---点这里进入
回复

使用道具 举报

您需要登录后才可以回帖 登录 | 立即注册

本版积分规则

QQ|Archiver|手机版|小黑屋|蓝光电影网

GMT+8, 2021-5-11 12:56 , Processed in 0.068340 second(s), 24 queries .

Powered by Discuz! X3.4

Copyright © 2001-2020, Tencent Cloud.

快速回复 返回顶部 返回列表