蓝光电影网

 找回密码
 立即注册

QQ登录

只需一步,快速开始

搜索
热搜: 活动 交友 discuz
查看: 804|回复: 0

[10bit.SDR] 比尔和泰德历险记/比尔和泰德的奇异冒险 Bill.and.Teds.Excellent.Adventure.1989.2160p.BluRay.x265.10bit.SDR.DTS-HD.MA.5.1-SWTYBLZ 46.58GB

[复制链接]

已抛锚 成长值: 310

7万

主题

7万

帖子

7万

积分

管理员

Rank: 9Rank: 9Rank: 9

积分
78185
发表于 2020-8-16 21:48:54 | 显示全部楼层 |阅读模式
004536sahb3ahwhmwcwwak.jpg

译  名 比尔和泰德历险记 / 比尔和泰德的奇异冒险 / 超时空历险记 / 阿比阿弟的冒险 / 阿比阿弟闯天关(台)
片  名 Bill & Ted's Excellent Adventure
年  代 1989
产  地 美国
类  别 笑剧 / 科幻 / 家庭 / 冒险
语  言 英语 / 法语 / 德语
上映日期 1989-02-17(美国)
IMDb评分6.9/10 from 108520 users
IMDb链接https://www.imdb.com/title/tt0096928
豆瓣评分 6.9/10 from 1458 users
豆瓣链接 https://movie.douban.com/subject/1293895/
片  长 90分钟
导  演 斯蒂芬·赫瑞克 Stephen Herek
编  剧 Chris Matheson / 爱德·索罗门 Ed Solomon
主  演 斯蒂芬·赫瑞克 Stephen Herek
     爱德·索罗门 Ed Solomon
     基努·李维斯 Keanu Reeves
     亚历克斯·温特 Alex Winter
     乔治·卡林 George Carlin
     丹·肖尔 Dan Shor
     Rod Loomis
     Al Leong
     Jane Wiedlin
     Robert V. Barron
     Clifford David
     Hal Landon Jr.
     Bernie Casey
     Amy Stock-Poynton

标  签 笑剧 | 科幻 | 美国 | 青春 | KeanuReeves | 1989 | 美国电影 | 穿越
简  介
  泰德(基努·里维斯 Keanu Reeves 饰)和比尔(亚历克斯·温特 Alex Winter 饰)是就读于同一所高中的同学,两人之间豪情非常要好。也许,他们会如此一见仍旧的缘由在于,两人的智商处在同一水平线上,没错,就是那条比他人都低的水平线。更糟糕的是,比尔和泰德在一路只晓得全日游手好闲,丝绝不将心机放在进修上,成便不可思议。
  历史考试在即,就在这个节骨眼上,泰德和比尔得知了一个惊天凶讯,假如不能经过此次考试,他们就将没法拿到结业证书,一会儿懵了的两人堕入了手足无措当中。就在此时,一位名叫鲁佛斯(乔治·卡林 George Carlin 饰)的天外来客出现在了他们眼前,他自称来自未来天下。不管鲁佛斯所言是真是假,泰德和比尔大白,他是他们那道结业证书的唯逐一根拯救稻草。
  1. Video
  2. ID             : 1
  3. Format           : HEVC
  4. Format/Info          : High Efficiency Video Coding
  5. Format profile         : Main [email]10@L5.1[/email]@High
  6. Codec ID           : V_MPEGH/ISO/HEVC
  7. Duration           : 1 h 29 min
  8. Bit rate           : 69.1 Mb/s
  9. Width            : 3 840 pixels
  10. Height           : 1 632 pixels
  11. Display aspect ratio       : 2.35:1
  12. Frame rate mode        : Constant
  13. Frame rate           : 24.000 FPS
  14. Color space          : YUV
  15. Chroma subsampling       : 4:2:0
  16. Bit depth          : 10 bits
  17. Bits/(Pixel*Frame)       : 0.460
  18. Stream size          : 43.4 GiB (94%)
  19. Title            : Bill.and.Teds.Excellent.Adventure.1989.2160p.BluRay.x265.10bit.SDR.DTS-HD.MA.5.1-SWTYBLZ
  20. Writing library        : x265 3.0+1-ed72af837053:[Windows][GCC 8.2.0][64 bit] 10bit
  21. Encoding settings        : cpuid=1111039 / frame-threads=6 / numa-pools=40 / wpp / no-pmode / no-pme / no-psnr / no-ssim / log-level=2 / input-csp=1 / input-res=3840x1632 / interlace=0 / total-frames=129356 / level-idc=51 / high-tier=1 / uhd-bd=0 / ref=3 / no-allow-non-conformance / repeat-headers / annexb / aud / hrd / info / hash=0 / no-temporal-layers / no-open-gop / min-keyint=1 / keyint=24 / gop-lookahead=0 / bframes=4 / b-adapt=2 / b-pyramid / bframe-bias=0 / rc-lookahead=25 / lookahead-slices=4 / scenecut=40 / radl=0 / no-splice / no-intra-refresh / ctu=64 / min-cu-size=8 / no-rect / no-amp / max-tu-size=32 / tu-inter-depth=1 / tu-intra-depth=1 / limit-tu=0 / rdoq-level=0 / dynamic-rd=0.00 / no-ssim-rd / signhide / no-tskip / nr-intra=0 / nr-inter=0 / no-constrained-intra / strong-intra-smoothing / max-merge=2 / limit-refs=3 / no-limit-modes / me=1 / subme=2 / merange=57 / temporal-mvp / weightp / no-weightb / no-analyze-src-pics / deblock=0:0 / no-sao / no-sao-non-deblock / rd=3 / no-early-skip / rskip / no-fast-intra / no-tskip-fast / no-cu-lossless / no-b-intra / no-splitrd-skip / rdpenalty=0 / psy-rd=2.00 / psy-rdoq=0.00 / no-rd-refine / no-lossless / cbqpoffs=0 / crqpoffs=0 / rc=crf / crf=19.0 / qcomp=0.60 / qpstep=4 / stats-write=0 / stats-read=0 / vbv-maxrate=160000 / vbv-bufsize=160000 / vbv-init=0.9 / crf-max=0.0 / crf-min=0.0 / ipratio=1.40 / pbratio=1.30 / aq-mode=1 / aq-strength=1.00 / cutree / zone-count=0 / no-strict-cbr / qg-size=32 / no-rc-grain / qpmax=69 / qpmin=0 / no-const-vbv / sar=1 / overscan=0 / videoformat=5 / range=0 / colorprim=2 / transfer=2 / colormatrix=2 / chromaloc=0 / display-window=0 / max-cll=0,0 / min-luma=0 / max-luma=1023 / log2-max-poc-lsb=8 / vui-timing-info / vui-hrd-info / slices=1 / opt-qp-pps / opt-ref-list-length-pps / no-multi-pass-opt-rps / scenecut-bias=0.05 / no-opt-cu-delta-qp / no-aq-motion / no-hdr / no-hdr-opt / no-dhdr10-opt / no-idr-recovery-sei / analysis-reuse-level=5 / scale-factor=0 / refine-intra=0 / refine-inter=0 / refine-mv=0 / refine-ctu-distortion=0 / no-limit-sao / ctu-info=0 / no-lowpass-dct / refine-analysis-type=0 / copy-pic=1 / max-ausize-factor=1.0 / no-dynamic-refine / no-single-sei / no-hevc-aq / qp-adaptation-range=1.00
  22. Language           : English
  23. Default            : Yes
  24. Forced           : No

  25. Audio #1
  26. ID             : 2
  27. Format           : DTS XLL
  28. Format/Info          : Digital Theater Systems
  29. Commercial name        : DTS-HD Master Audio
  30. Codec ID           : A_DTS
  31. Duration           : 1 h 29 min
  32. Bit rate mode          : Variable
  33. Bit rate           : 3 896 kb/s
  34. Channel(s)           : 6 channels
  35. Channel layout         : C L R Ls Rs LFE
  36. Sampling rate          : 48.0 kHz
  37. Frame rate           : 93.750 FPS (512 SPF)
  38. Bit depth          : 24 bits
  39. Compression mode         : Lossless
  40. Stream size          : 2.45 GiB (5%)
  41. Title            : Bill.and.Teds.Excellent.Adventure.1989.2160p.BluRay.x265.10bit.SDR.DTS-HD.MA.5.1-SWTYBLZ
  42. Language           : English
  43. Default            : Yes
  44. Forced           : No

  45. Audio #2
  46. ID             : 3
  47. Format           : AC-3
  48. Format/Info          : Audio Coding 3
  49. Commercial name        : Dolby Digital
  50. Codec ID           : A_AC3
  51. Duration           : 1 h 29 min
  52. Bit rate mode          : Constant
  53. Bit rate           : 640 kb/s
  54. Channel(s)           : 6 channels
  55. Channel layout         : L R C LFE Ls Rs
  56. Sampling rate          : 48.0 kHz
  57. Frame rate           : 31.250 FPS (1536 SPF)
  58. Bit depth          : 16 bits
  59. Compression mode         : Lossy
  60. Stream size          : 412 MiB (1%)
  61. Title            : Bill.and.Teds.Excellent.Adventure.1989.2160p.BluRay.x265.10bit.SDR.DTS-HD.MA.5.1-SWTYBLZ
  62. Language           : English
  63. Service kind         : Complete Main
  64. Default            : No
  65. Forced           : No

  66. Text #1
  67. ID             : 4
  68. Format           : UTF-8
  69. Codec ID           : S_TEXT/UTF8
  70. Codec ID/Info          : UTF-8 Plain Text
  71. Duration           : 32 min 46 s
  72. Bit rate           : 1 b/s
  73. Count of elements        : 18
  74. Stream size          : 486 Bytes (0%)
  75. Title            : English-FORCED-SRT
  76. Language           : English
  77. Default            : Yes
  78. Forced           : Yes

  79. Text #2
  80. ID             : 5
  81. Format           : UTF-8
  82. Codec ID           : S_TEXT/UTF8
  83. Codec ID/Info          : UTF-8 Plain Text
  84. Duration           : 1 h 23 min
  85. Bit rate           : 47 b/s
  86. Count of elements        : 981
  87. Stream size          : 29.3 KiB (0%)
  88. Title            : English-SRT
  89. Language           : English
  90. Default            : No
  91. Forced           : No

  92. Text #3
  93. ID             : 6
  94. Format           : UTF-8
  95. Codec ID           : S_TEXT/UTF8
  96. Codec ID/Info          : UTF-8 Plain Text
  97. Duration           : 1 h 25 min
  98. Bit rate           : 52 b/s
  99. Count of elements        : 1159
  100. Stream size          : 33.0 KiB (0%)
  101. Title            : English-SDH-SRT
  102. Language           : English
  103. Default            : No
  104. Forced           : No

  105. Text #4
  106. ID             : 7
  107. ID in the original source medium   : 4768 (0x12A0)
  108. Format           : PGS
  109. Muxing mode          : zlib
  110. Codec ID           : S_HDMV/PGS
  111. Codec ID/Info          : Picture based subtitle format used on BDs/HD-DVDs
  112. Duration           : 1 h 25 min
  113. Bit rate           : 33.8 kb/s
  114. Count of elements        : 2309
  115. Stream size          : 20.7 MiB (0%)
  116. Title            : English-PGS
  117. Language           : English
  118. Default            : No
  119. Forced           : No
  120. Original source medium       : Blu-ray

  121. Text #5
  122. ID             : 8
  123. ID in the original source medium   : 4769 (0x12A1)
  124. Format           : PGS
  125. Muxing mode          : zlib
  126. Codec ID           : S_HDMV/PGS
  127. Codec ID/Info          : Picture based subtitle format used on BDs/HD-DVDs
  128. Duration           : 1 h 25 min
  129. Bit rate           : 26.4 kb/s
  130. Count of elements        : 1558
  131. Stream size          : 16.1 MiB (0%)
  132. Title            : German-PGS
  133. Language           : German
  134. Default            : No
  135. Forced           : No
  136. Original source medium       : Blu-ray

  137. Text #6
  138. ID             : 9
  139. ID in the original source medium   : 4770 (0x12A2)
  140. Format           : PGS
  141. Muxing mode          : zlib
  142. Codec ID           : S_HDMV/PGS
  143. Codec ID/Info          : Picture based subtitle format used on BDs/HD-DVDs
  144. Duration           : 1 h 28 min
  145. Bit rate           : 26.3 kb/s
  146. Count of elements        : 1803
  147. Stream size          : 16.7 MiB (0%)
  148. Title            : French-PGS
  149. Language           : French
  150. Default            : No
  151. Forced           : No
  152. Original source medium       : Blu-ray

  153. Menu
  154. 00:00:00.000         : en:Chapter 01
  155. 00:04:54.208         : en:Chapter 02
  156. 00:09:44.916         : en:Chapter 03
  157. 00:16:42.208         : en:Chapter 04
  158. 00:23:50.916         : en:Chapter 05
  159. 00:30:54.541         : en:Chapter 06
  160. 00:41:31.666         : en:Chapter 07
  161. 00:52:25.583         : en:Chapter 08
  162. 00:59:11.333         : en:Chapter 09
  163. 01:07:25.416         : en:Chapter 10
  164. 01:13:39.875         : en:Chapter 11
  165. 01:21:26.500         : en:Chapter 12
复制代码


004537czye6aozyss6orzn.png

004537k314s4s1xshed37h.png

004538oaewy0f0epj9wpll.png

004538pdt5z65hdy566hqp.png

004539b8uk8h21tx8xfdws.png

004539op8ihi5mmqvpv5fa.png

004540tm1turjmnw1utzrt.png

004540nrpd9dii9xrmed5o.png

字幕下载网站---点这里进入
回复

使用道具 举报

您需要登录后才可以回帖 登录 | 立即注册

本版积分规则

QQ|Archiver|手机版|小黑屋|蓝光电影网 ( 滇ICP备18001150号-1 )

GMT+8, 2020-12-2 04:57 , Processed in 0.049564 second(s), 24 queries .

Powered by Discuz! X3.4

© 2001-2017 Comsenz Inc.

快速回复 返回顶部 返回列表