找回密码
 立即注册

QQ登录

只需一步,快速开始

查看: 216|回复: 0

[2160p] 猎杀U-571.U-571.2000.UHD.BluRay-Rip.x265.2160p.SDR.8-Bit.DTS-HD-MA.5.1@ 26.53GB

[复制链接]

0

精华

0

好友

2

听众

实习版主

Rank: 7Rank: 7Rank: 7

蓝光币
5
发表于 2023-9-18 19:47:12 | 显示全部楼层 |阅读模式


◎译  名 猎杀U-571 / 深海任务U-571 / U-571风暴
◎片  名 U-571
◎年  代 2000
◎产  地 法国 / 美国
◎类  别 剧情 / 动作 / 战争
◎语  言 英语 / 德语
◎上映日期 2000-04-21
◎IMDb评星  ★★★★★★✦☆☆☆
◎IMDb评分  6.6/10 from 84,941 users
◎IMDb链接  https://www.imdb.com/title/tt0141926/
◎豆瓣评星 ★★★★☆
◎豆瓣评分 8.1/10 from 54,002 users
◎豆瓣链接 https://movie.douban.com/subject/1293770/
◎片  长 116 分钟
◎导  演 乔纳森·莫斯托 / Jonathan Mostow
◎演  员 马修·麦康纳 / Matthew McConaughey
      比尔·帕克斯顿 / Bill Paxton
      哈威·凯特尔 / Harvey Keitel
      乔恩·邦·乔维 / Jon Bon Jovi
      大卫·凯斯 / David Keith | 饰 马修库南少校
      托马斯·克莱舒曼 / Thomas Kretschmann
      杰克·韦伯 / Jake Weber
      杰克·诺斯沃迪 / Jack Noseworthy
      汤姆·盖里 / Tom Guiry
      威尔·埃斯蒂斯 / Will Estes
      特伦斯·卡森 / Terrence 'T.C.' Carson
      埃里克·帕拉迪诺 / Erik Palladino
      戴夫·博沃 / Dave Power
      德雷克·切特伍德 / Derk Cheetwood
      马修·塞特尔 / Matthew Settle
      丽贝卡·蒂尔尼 / Rebecca Tilney
      奥列佛·斯托科斯基 / Oliver Stokowski
      阿诺德·克拉威特 / Arnd Klawitter
      Kai Maurer Kai Maurer
      Robert Lahoda Robert Lahoda
      彼得·斯塔克 / Peter Stark
      恩里奇·雷德曼 / Erich Redman
      罗宾·阿斯奎思 / Robin Askwith
      Martin Glade Martin Glade
      诺曼·坎贝尔·里斯 / Norman Campbell Rees
      张磊 / Lei Zhang
      徐光宇 / Guangyu Xu
      金永钢 / Yonggang Jin
◎编  剧 乔纳森·莫斯托 / Jonathan Mostow
      大卫·阿耶 / David Ayer
◎音  乐 理查德·马文 / Richard Marvin
◎美  术 Götz Weidner Götz Weidner
      玛丽亚-特雷莎·巴巴索 / Maria-Teresa Barbasso
      罗伯特·古尔德 / Robert Gould
      William Ladd Skinner William Ladd Skinner
      Robert Woodruff Robert Woodruff
      Marco Trentini Marco Trentini
◎化  妆 文森佐·马斯特朗托尼奥 / Vincenzo Mastrantonio
      Mauro Tamagnini Mauro Tamagnini
      Francesca De Simone Francesca De Simone
      莫里齐奥·西尔维 / Maurizio Silvi
      路易吉·洛切蒂 / Luigi Rocchetti
      Frances Mathias Frances Mathias
      雷纳托·弗朗索拉 / Renato Francola
◎副  导  演 M.詹姆斯·阿内特 / M. James Arnett
◎视觉特效 Ken Lam Ken Lam
      Bill Taylor Bill Taylor
      David Sosalla David Sosalla
      Mark Tait Lewis Mark Tait Lewis
      Richard O. Helmer Richard O. Helmer
      马克·弗伦德 / Mark Freund
      杰米·迪克森 / Jamie Dixon
      托马斯·J·史密斯 / Thomas J. Smith
      Mike Wassel Mike Wassel
      Jennifer Nelson Jennifer Nelson
◎简  介 
  1942年4月,二战期间,大西洋上,德军战舰采取“狼群”战术,令盟军损失惨重。美国海军上尉泰勒(马修•麦康纳 Matthew McConaughey 饰)因抗敌表现出色,曾被许诺晋升艇长,但是却因故不能如愿。这时突然传来敌情,泰勒临危受命,登上S-33老爷级潜艇执行秘密任务,指挥官为上尉迈克(比尔•帕克斯顿 Bill Paxton 饰),同行的还有哈什(哈威•凯特尔 Harvey Keitel 饰)上尉和库南少校等。经过勘察,一艘德军受创潜艇U-571,正在发出求救信号。S-33的任务是伪装成一艘德军的维修舰,以维修作掩护,从U-571上获取德国最先进的译码设备。不过,由于S-33年久失修,水箱等装备已到服役期,若潜入200米以下恐有危险,但是为了完成任务,泰勒等人还是小心驾驶,偷袭了德国军舰,但正在此时,德军的鱼雷也逼近了U-571,他们命悬一线,生死未卜……
◎获奖情况 
  第73届奥斯卡金像奖 (2001)
  最佳音效剪辑 乔恩约翰逊
  最佳音响(提名) 格雷格·兰达克,史蒂夫·马斯洛,伊万·夏罗克,里克·克莱恩
◎幕后揭秘
  影片的动作戏拍得极好,音效和特技均属一流,可惜人物塑造仍太扁平。
  1. Video
  2. ID                                       : 1
  3. Format                                   : HEVC
  4. Format/Info                              : High Efficiency Video Coding
  5. Format profile                           : Main@L5@Main
  6. Codec ID                                 : V_MPEGH/ISO/HEVC
  7. Duration                                 : 1 h 55 min
  8. Bit rate                                 : 28.4 Mb/s
  9. Width                                    : 3 840 pixels
  10. Height                                   : 2 160 pixels
  11. Display aspect ratio                     : 16:9
  12. Frame rate mode                          : Constant
  13. Frame rate                               : 24.000 FPS
  14. Color space                              : YUV
  15. Chroma subsampling                       : 4:2:0
  16. Bit depth                                : 8 bits
  17. Bits/(Pixel*Frame)                       : 0.143
  18. Stream size                              : 23.0 GiB (87%)
  19. Writing library                          : x265 3.2:[Windows][GCC 9.2.0][64 bit] 8bit
  20. Encoding settings                        : cpuid=1111039 / frame-threads=4 / numa-pools=16 / wpp / no-pmode / no-pme / no-psnr / no-ssim / log-level=2 / input-csp=1 / input-res=3840x2160 / interlace=0 / total-frames=0 / level-idc=0 / high-tier=1 / uhd-bd=0 / ref=2 / no-allow-non-conformance / no-repeat-headers / annexb / no-aud / no-hrd / info / hash=0 / no-temporal-layers / open-gop / min-keyint=2 / keyint=24 / gop-lookahead=0 / bframes=0 / b-adapt=0 / no-b-pyramid / bframe-bias=0 / rc-lookahead=15 / lookahead-slices=8 / scenecut=40 / radl=0 / no-splice / no-intra-refresh / ctu=64 / min-cu-size=8 / no-rect / no-amp / max-tu-size=32 / tu-inter-depth=1 / tu-intra-depth=1 / limit-tu=0 / rdoq-level=0 / dynamic-rd=0.00 / no-ssim-rd / signhide / no-tskip / nr-intra=0 / nr-inter=0 / no-constrained-intra / strong-intra-smoothing / max-merge=2 / limit-refs=3 / no-limit-modes / me=1 / subme=1 / merange=57 / temporal-mvp / no-hme / weightp / no-weightb / no-analyze-src-pics / deblock=0:0 / sao / no-sao-non-deblock / rd=2 / selective-sao=4 / early-skip / rskip / fast-intra / no-tskip-fast / no-cu-lossless / no-b-intra / no-splitrd-skip / rdpenalty=0 / psy-rd=2.00 / psy-rdoq=0.00 / no-rd-refine / no-lossless / cbqpoffs=0 / crqpoffs=0 / rc=crf / crf=18.0 / qcomp=0.60 / qpstep=4 / stats-write=0 / stats-read=0 / ipratio=1.40 / aq-mode=2 / aq-strength=1.00 / cutree / zone-count=0 / no-strict-cbr / qg-size=32 / no-rc-grain / qpmax=18 / qpmin=18 / no-const-vbv / sar=1 / overscan=0 / videoformat=5 / range=0 / colorprim=2 / transfer=2 / colormatrix=2 / chromaloc=0 / display-window=0 / cll=0,0 / min-luma=0 / max-luma=255 / log2-max-poc-lsb=8 / vui-timing-info / vui-hrd-info / slices=1 / no-opt-qp-pps / no-opt-ref-list-length-pps / no-multi-pass-opt-rps / scenecut-bias=0.05 / no-opt-cu-delta-qp / no-aq-motion / no-hdr / no-hdr-opt / no-dhdr10-opt / no-idr-recovery-sei / analysis-reuse-level=5 / scale-factor=0 / refine-intra=0 / refine-inter=0 / refine-mv=1 / refine-ctu-distortion=0 / no-limit-sao / ctu-info=0 / no-lowpass-dct / refine-analysis-type=0 / copy-pic=1 / max-ausize-factor=1.0 / no-dynamic-refine / no-single-sei / no-hevc-aq / no-svt / no-field / qp-adaptation-range=1.00
  21. Default                                  : Yes
  22. Forced                                   : No
  23. Color range                              : Limited
  24. Audio
  25. ID                                       : 2
  26. Format                                   : DTS XLL
  27. Format/Info                              : Digital Theater Systems
  28. Commercial name                          : DTS-HD Master Audio
  29. Codec ID                                 : A_DTS
  30. Duration                                 : 1 h 55 min
  31. Bit rate mode                            : Variable
  32. Bit rate                                 : 4 369 kb/s
  33. Channel(s)                               : 6 channels
  34. Channel layout                           : C L R Ls Rs LFE
  35. Sampling rate                            : 48.0 kHz
  36. Frame rate                               : 93.750 FPS (512 SPF)
  37. Bit depth                                : 24 bits
  38. Compression mode                         : Lossless
  39. Stream size                              : 3.54 GiB (13%)
  40. Title                                    : Original
  41. Language                                 : English
  42. Default                                  : Yes
  43. Forced                                   : No
  44. Text
  45. ID                                       : 3
  46. Format                                   : PGS
  47. Muxing mode                              : zlib
  48. Codec ID                                 : S_HDMV/PGS
  49. Codec ID/Info                            : Picture based subtitle format used on BDs/HD-DVDs
  50. Duration                                 : 1 h 38 min
  51. Bit rate                                 : 20.9 kb/s
  52. Frame rate                               : 0.316 FPS
  53. Count of elements                        : 1864
  54. Stream size                              : 14.7 MiB (0%)
  55. Language                                 : English
  56. Default                                  : Yes
  57. Forced                                   : No
复制代码










U-571.2000.UHD.BluRay-Rip.x265.2160p.SDR.8-Bit.DTS-HD-MA.5.1.torrent (133.75 KB, 下载次数: 7)
回复

使用道具 举报

您需要登录后才可以回帖 登录 | 立即注册

本版积分规则

QQ|Archiver|手机版|小黑屋|蓝光电影网

GMT+8, 2024-5-21 21:51 , Processed in 0.062839 second(s), 24 queries .

Powered by Discuz! X3.4

Copyright © 2001-2020, Tencent Cloud.

快速回复 返回顶部 返回列表