找回密码
 立即注册

QQ登录

只需一步,快速开始

查看: 198|回复: 0

[2160p] 公主新娘.The Princess Bride 1987 Criterion 2160p UHD BluRay REMUX DV HEVC DTS-HD MA 5 1 PEBBLES104 55.00GB

[复制链接]

0

精华

0

好友

2

听众

实习版主

Rank: 7Rank: 7Rank: 7

蓝光币
5
发表于 2023-9-13 10:45:02 | 显示全部楼层 |阅读模式


◎译  名 公主新娘
◎片  名 The Princess Bride
◎年  代 1987
◎产  地 美国
◎类  别 爱情 / 家庭 / 奇幻 / 冒险
◎语  言 英语
◎上映日期 1987-09-18(多伦多电影节) / 1987-10-09(美国)
◎IMDb评星  ★★★★★★★★☆☆
◎IMDb评分  8.0/10 from 440,332 users
◎IMDb链接  https://www.imdb.com/title/tt0093779/
◎豆瓣评星 ★★★✦☆
◎豆瓣评分 7.0/10 from 10,988 users
◎豆瓣链接 https://movie.douban.com/subject/1297280/
◎片  长 98分钟
◎导  演 罗伯·莱纳 / Rob Reiner
◎演  员 加利·艾尔维斯 / Cary Elwes | 饰 Westley
      罗宾·怀特 / Robin Wright | 饰 The Princess Bride
      曼迪·帕廷金 / Mandy Patinkin | 饰 Inigo Montoya
      比利·克里斯托 / Billy Crystal | 饰 Miracle Max
      华莱士·肖恩 / Wallace Shawn | 饰 Vizzini
      克里斯·萨兰登 / Chris Sarandon | 饰 Prince Humperdinck
      Derek Pykett Derek Pykett | 饰 Villager uncredited
      马尔科姆·斯托里 / Malcolm Storry | 饰 Yellin
      玛格里·梅森 / Margery Mason | 饰 The Ancient Booer
      弗莱德·萨维奇 / Fred Savage | 饰 The Grandson
      卡罗尔·凯恩 / Carol Kane | 饰 Valerie
      梅尔·史密斯 / Mel Smith | 饰 The Albino
      彼得·法尔克 / Peter Falk | 饰 The Grandfather
      巨人安德烈 / André the Giant | 饰 Fezzik
      克里斯托弗·格斯特 / Christopher Guest
      彼得·库克 / Peter Cook | 饰 The Impressive Clergyman
      贝齐·布兰特利 / Betsy Brantley | 饰 The Mother
      威洛比·格雷 / Willoughby Gray | 饰 The King
      安妮·戴森 / Anne Dyson | 饰 The Queen
◎编  剧 威廉姆·高德曼 / William Goldman
◎制  片  人 安德鲁·沙因曼 / Andrew Scheinman
      诺曼·利尔 / Norman Lear
      罗伯·莱纳 / Rob Reiner
◎音  乐 马克·诺普弗勒 / Mark Knopfler
◎摄  影 艾德里安·比德尔 / Adrian Biddle
◎剪  辑 罗伯特·利顿 / Robert Leighton
◎选  角 珍妮特·希尔森 / Janet Hirshenson
      简·詹金斯 / Jane Jenkins
◎美  术 Keith Pain Keith Pain
      玛姬·格雷 / Maggie Gray
      诺尔曼·加尔伍德 / Norman Garwood
◎服  装 菲利斯·达尔顿 / Phyllis Dalton
◎化  妆 恩雅·芬奈尔 / Eithne Fennel
      彼得·蒙塔格纳 / Peter Montagna
      彼得·罗勃-金 / Peter Robb-King
      洛伊斯·布尔维尔 / Lois Burwell
◎视觉特效 Nigel Stone Nigel Stone
      肯特·休斯顿 / Kent Houston
      保罗·威尔逊 / Paul Wilson
◎简  介 
  故事从慈祥的爷爷给生病的孙子讲故事说起,爷爷带来一本厚厚的童话故事书《公主新娘》。这个世代相传的童话故事讲述了一段爱与冒险的真爱故事。善良美丽的少女布卡特(罗宾·怀特 Robin Wright 饰)住在宁静的小村庄弗洛林,她与少年维斯特雷(加利·艾尔维斯 Cary Elwes 饰)青梅竹马两小无猜,两人很快陷入热恋。然而贫穷的维斯特雷希望给布卡特更好的生活,于是扬帆远航离开了村庄。但是维斯特雷的船并没有到达目的地,传言说他死在了海盗的手里。五年后,伤心欲绝的布卡特成为了王子胡姆普丁克(克里斯·萨兰登 Chris Sarandon饰)的未婚妻,可她并不爱他,她的心里仍苦苦思念着真爱维斯特雷。一次意外让布卡特再次遇见了维斯特雷,然而邪恶的王子却绑架了布卡特,并逼迫她嫁给自己。此时的维斯特雷已是一位勇敢强壮的海盗,为救真爱,他与武艺超群的剑客埃尼戈·蒙托亚(曼迪·帕廷金 Mandy Patinkin饰)、力大无比的巨人菲兹克(安德烈·捷安特 André the Giant饰)一起踏上了拯救公主之路。
  本部童话式爱情冒险电影《公主新娘》,荣获1988年第60届奥斯卡金像奖最佳原创歌曲提名,1987年第12届多伦多国际电影节人民选择奖-最佳故事片奖以及1988年第15届美国电影电视土星奖最佳奇幻电影。
◎获奖情况 
  第60届奥斯卡金像奖 (1988)
  最佳原创歌曲(提名) 威利·德威尔
◎幕后揭秘
  一部很老派的童话式影片,爱情加冒险,但处理得当,融入了一丝嘲讽精神,故具有很强的观赏性。决斗场面拍得很有气势。影片老少皆宜。
  1. Video
  2. ID                                       : 1
  3. ID in the original source medium         : 4113 (0x1011)
  4. Format                                   : HEVC
  5. Format/Info                              : High Efficiency Video Coding
  6. Format profile                           : Main 10@L5.1@High
  7. HDR format                               : Dolby Vision, Version 1.0, dvhe.07.06, BL+EL+RPU, Blu-ray compatible / SMPTE ST 2086, HDR10 compatible
  8. Codec ID                                 : V_MPEGH/ISO/HEVC
  9. Duration                                 : 1 h 38 min
  10. Bit rate                                 : 75.9 Mb/s
  11. Width                                    : 3 840 pixels
  12. Height                                   : 2 160 pixels
  13. Display aspect ratio                     : 16:9
  14. Frame rate mode                          : Constant
  15. Frame rate                               : 23.976 (24000/1001) FPS
  16. Color space                              : YUV
  17. Chroma subsampling                       : 4:2:0 (Type 2)
  18. Bit depth                                : 10 bits
  19. Bits/(Pixel*Frame)                       : 0.382
  20. Stream size                              : 52.3 GiB (95%)
  21. Language                                 : English
  22. Default                                  : No
  23. Forced                                   : No
  24. Color range                              : Limited
  25. Color primaries                          : BT.2020
  26. Transfer characteristics                 : PQ
  27. Matrix coefficients                      : BT.2020 non-constant
  28. Mastering display color primaries        : Display P3
  29. Mastering display luminance              : min: 0.0010 cd/m2, max: 1000 cd/m2
  30. Maximum Content Light Level              : 1000 cd/m2
  31. Maximum Frame-Average Light Level        : 362 cd/m2
  32. Original source medium                   : Blu-ray
  33. Audio
  34. ID                                       : 2
  35. Format                                   : DTS XLL
  36. Format/Info                              : Digital Theater Systems
  37. Commercial name                          : DTS-HD Master Audio
  38. Codec ID                                 : A_DTS
  39. Duration                                 : 1 h 38 min
  40. Bit rate mode                            : Variable
  41. Bit rate                                 : 3 865 kb/s
  42. Channel(s)                               : 6 channels
  43. Channel layout                           : C L R Ls Rs LFE
  44. Sampling rate                            : 48.0 kHz
  45. Frame rate                               : 93.750 FPS (512 SPF)
  46. Bit depth                                : 24 bits
  47. Compression mode                         : Lossless
  48. Stream size                              : 2.66 GiB (5%)
  49. Language                                 : English
  50. Default                                  : Yes
  51. Forced                                   : No
  52. Text
  53. ID                                       : 3
  54. Format                                   : PGS
  55. Muxing mode                              : zlib
  56. Codec ID                                 : S_HDMV/PGS
  57. Codec ID/Info                            : Picture based subtitle format used on BDs/HD-DVDs
  58. Duration                                 : 1 h 37 min
  59. Bit rate                                 : 57.9 kb/s
  60. Frame rate                               : 0.472 FPS
  61. Count of elements                        : 2760
  62. Stream size                              : 40.3 MiB (0%)
  63. Language                                 : English
  64. Default                                  : Yes
  65. Forced                                   : No
  66. Menu
  67. 00:00:00.000                             : Chapter 01
  68. 00:02:30.984                             : Chapter 02
  69. 00:05:58.692                             : Chapter 03
  70. 00:07:40.877                             : Chapter 04
  71. 00:10:16.950                             : Chapter 05
  72. 00:13:40.820                             : Chapter 06
  73. 00:17:38.182                             : Chapter 07
  74. 00:22:00.069                             : Chapter 08
  75. 00:25:21.562                             : Chapter 09
  76. 00:29:45.450                             : Chapter 10
  77. 00:35:12.610                             : Chapter 11
  78. 00:40:48.112                             : Chapter 12
  79. 00:45:17.632                             : Chapter 13
  80. 00:48:25.903                             : Chapter 14
  81. 00:50:44.458                             : Chapter 15
  82. 00:52:25.642                             : Chapter 16
  83. 00:57:41.667                             : Chapter 17
  84. 01:00:48.478                             : Chapter 18
  85. 01:04:01.046                             : Chapter 19
  86. 01:07:16.616                             : Chapter 20
  87. 01:10:23.386                             : Chapter 21
  88. 01:14:48.901                             : Chapter 22
  89. 01:18:07.391                             : Chapter 23
  90. 01:21:18.457                             : Chapter 24
  91. 01:27:41.548                             : Chapter 25
  92. 01:30:32.135                             : Chapter 26
复制代码









公主新娘.The Princess Bride 1987 Criterion 2160p UHD BluRay REMUX DV HEVC DTS-HD MA 5 1 PEBBLES104 55.00GB

The Princess Bride 1987 Criterion 2160p UHD BluRay REMUX DV HEVC DTS-HD MA 5 1 P.torrent

275.97 KB, 下载次数: 0, 下载积分: 蓝光币 -2

回复

使用道具 举报

您需要登录后才可以回帖 登录 | 立即注册

本版积分规则

QQ|Archiver|手机版|小黑屋|蓝光电影网

GMT+8, 2024-6-21 19:44 , Processed in 0.052883 second(s), 24 queries .

Powered by Discuz! X3.4

Copyright © 2001-2020, Tencent Cloud.

快速回复 返回顶部 返回列表