找回密码
 立即注册

QQ登录

只需一步,快速开始

查看: 1355|回复: 0

[UHD.HEVC] 指环王2:双塔奇兵 剧场版/加长版4K套装[UHD原盘中字 DIY THD次世代国语/国配简繁特效字幕/双语特效字幕].The.Lord.of.the.Rings.The.Two.Towers.2002.2160p.UHD.Blu-ray.HEVC.TrueHD.Atmos.7.1-TAG 229.81GB

[复制链接]

0

精华

0

好友

1

听众

管理员

Rank: 9Rank: 9Rank: 9

蓝光币
53
发表于 2023-9-2 01:18:36 | 显示全部楼层 |阅读模式
front.jpg

◎译  名 指环王2:双塔奇兵/魔戒2:双塔奇谋/魔戒二部曲:双城奇谋/指环王II:双塔
◎片  名 The Lord of the Rings: The Two Towers
◎年  代 2002
◎产  地 美国/新西兰
◎类  别 剧情/动作/奇幻/冒险
◎语  言 英语/辛达林语/古代英语
◎上映日期 2003-04-25(中国大陆)/2002-12-05(纽约首映)/2002-12-18(美国)
◎IMDb评分  8.7/10 from 1,467,693 users
◎IMDb链接  https://www.imdb.com/title/tt0167261/
◎豆瓣评分 9.1/10 from 531578 users
◎豆瓣链接 https://douban.com/subject/1291572/
◎片  长 179分钟
◎导  演 彼得·杰克逊 Peter Jackson
◎编  剧 弗兰·威尔士 Fran Walsh / 菲利帕·鲍恩斯 Philippa Boyens / 斯蒂芬·辛克莱 Stephen Sinclair / 彼得·杰克逊 Peter Jackson / J·R·R·托尔金 J.R.R. Tolkien
◎主  演 伊利亚·伍德 Elijah Wood
       西恩·奥斯汀 Sean Astin
       多米尼克·莫纳汉 Dominic Monaghan
       奥兰多·布鲁姆 Orlando Bloom
       维果·莫腾森 Viggo Mortensen
       伊恩·麦克莱恩 Ian McKellen
       凯特·布兰切特 Cate Blanchett
       比利·博伊德 Billy Boyd
       杰德·布罗菲 Jed Brophy
       丽芙·泰勒 Liv Tyler
       安迪·瑟金斯 Andy Serkis
       米兰达·奥图 Miranda Otto
       雨果·维文 Hugo Weaving
       布拉德·道里夫 Brad Dourif
       卡卢姆·吉廷斯 Calum Gittins
       伯纳德·希尔 Bernard Hill
       布鲁斯·霍普金斯 Bruce Hopkins
       克里斯托弗·李 Christopher Lee
       纳撒尼尔·利斯 Nathaniel Lees
       罗宾·马尔科姆 Robyn Malcolm
       约翰·贝西 John Bach
       萨拉·贝克 Sala Baker
       克雷格·帕克 Craig Parker
       布鲁斯·菲利普斯 Bruce Phillips
       Robert Pollock
       约翰·瑞斯-戴维斯 John Rhys-Davies
       奥利维亚·田內 Olivia Tennet
       卡尔·厄本 Karl Urban
       史蒂芬·乌瑞 Stephen Ure
       大卫·文翰 David Wenham
       菲利普·格里夫 Philip Grieve
       肖恩·宾 Sean Bean
       约翰·诺贝尔 John Noble
       Jarl Benzon
       Jørn Benzon
       Ben Britton
       阿利斯泰尔·布朗宁 Alistair Browning
       Sean Button
       Robert Catto
       罗德尼·库克 Rodney Cook
       卡尔洛斯德林克沃特 Karlos Drinkwater
       西奥沙福瓦 Siosa Fonua
       本·弗兰舍姆 Ben Fransham
       Jonathan Harding
       Lucas Hayward
       丹·汉纳 Dan Hennah
       Paul Holmes
       杰森霍德 Jason Hood
       彼得·杰克逊 Peter Jackson
       Sam Kelly
       Sandro Kopp
       姜广涛 Guangtao Jiang
       张磊 Lei Zhang
       陆建艺 Jianyi Lu
       金永钢 Yonggang Jin
       劳伦斯·马克奥雷 Lawrence Makoare
       布鲁克·奥佩斯 Bruce Allpress

◎标  签 魔幻 | 史诗 | 经典 | 美国 | 战争 | 大片 | 新西兰 | 2002

◎简  介

  
  第二部在延续第一部风格的同时,故事呈现出多线发展的格局,情节有了更高的观赏性。
  
  第一部结尾,博罗米尔被强兽人杀死之后,两个哈比族人皮平和梅利也被强兽人绑架,阿拉贡、精灵莱戈拉斯(奥兰多•布鲁姆 饰)、侏儒金利一路追踪强兽人,营救皮平和梅利,遇到了“复活”的白袍巫师甘道夫(伊恩•麦凯伦 饰)。此时,投降索伦的白袍巫师萨鲁曼控制了人类洛汉王国的国王,并派出大量的强兽人军队,准备消灭人类。阿拉贡、莱戈拉斯和金利在甘道夫的带领下,帮助洛汉王国对抗邪恶力量的入侵。
  
  幸运的皮平和梅利被会说话的树精救了出来,并且遇到“复活”的甘道夫,在甘道夫的授意下,树精保护了两人的安全,并且带他们参加树精大会,大会上,树精们讨论对待中土大战的态度:是继续当中立者,逆来顺受,还是奋起反抗?
  
  身负重任的佛罗多(伊莱贾•伍德 饰)和山姆继续向末日山脉前进,一路上被咕噜跟踪,弗罗多依靠至尊魔戒的力量,成为了咕噜的主人,在咕噜的带领下,他们到了末日山脉的入口,黑门。就在他们准备进入之时,博罗米尔的弟弟法莫尔出现,将他们带回了刚铎。弗罗多又遇上了新的危机:法莫尔想利用至尊魔戒的力量对抗萨鲁曼的攻击……
  

◎获奖情况

  第75届奥斯卡金像奖  (2003)
  最佳影片(提名) 巴里·M·奥斯本 / 彼得·杰克逊 / 弗兰·威尔士
  最佳剪辑(提名) 迈克·霍顿
  最佳视觉效果 吉姆·瑞吉尔 / 兰德尔·威廉·库克 / 乔·莱特瑞 / 亚历克斯·方克
  最佳音效剪辑 迈克·霍普金斯 / 伊桑·范德莱恩
  最佳音响(提名) 迈克·亨吉斯 / 哈蒙德·匹克 / 克里斯托弗·博伊斯 / 迈克尔·斯曼内科
  最佳艺术指导(提名) 格兰特·梅杰 / 丹·汉纳 / 艾伦·李
  
  第60届金球奖  (2003)
  电影类最佳剧情片(提名)
  电影类最佳导演(提名) 彼得·杰克逊
  
  第56届英国电影学院奖  (2003)
  电影奖最佳影片(提名) 巴里·M·奥斯本 / 彼得·杰克逊 / 弗兰·威尔士
  电影奖最佳导演(提名) 彼得·杰克逊
  电影奖最佳摄影(提名) 安德鲁·莱斯尼
  电影奖最佳剪辑(提名) 迈克·霍顿 / 杰贝兹·奥尔森
  电影奖最佳化妆/发型(提名) 彼得·欧文 / 彼得·金 / 理查德·泰勒
  电影奖最佳服装设计 恩吉拉·迪克森 / 理查德·泰勒
  电影奖最佳艺术指导(提名) 格兰特·梅杰
  电影奖最佳特殊视觉效果 吉姆·瑞吉尔 / 兰德尔·威廉·库克 / 乔·莱特瑞 / 亚历克斯·方克
  电影奖最佳音效(提名) 迈克·亨吉斯 / 迈克·霍普金斯 / 迈克尔·斯曼内科 / 克里斯托弗·博伊斯 / 哈蒙德·匹克 / 大卫·法默 / 伊桑·范德莱恩
  电影奖观众选择奖
  
  第27届日本电影学院奖  (2004)
  最佳外语片(提名)
  
  第3届美国电影学会奖  (2002)
  年度佳片


指环王2-剧场版】

  1. Disc Title: The Lord of the Rings: The Two Towers
  2. Disc Label: 指环王2-剧场版.ISO
  3. Disc Size: 96,279,327,653 bytes
  4. Protection: AACS2
  5. Extras: Ultra HD, BD-Java
  6. BDInfo: 0.7.5.5

  7. PLAYLIST REPORT:

  8. Name: 00800.MPLS
  9. Length: 2:59:25.754 (h:m:s.ms)
  10. Size: 95,384,825,856 bytes
  11. Total Bitrate: 70.88 Mbps

  12. (*) Indicates included stream hidden by this playlist.

  13. VIDEO:

  14. Codec Bitrate Description
  15. ----- ------- -----------
  16. MPEG-H HEVC Video 55695 kbps 2160p / 23.976 fps / 16:9 / Main 10 @ Level 5.1 @ High / 10 bits / HDR10 / BT.2020
  17. * MPEG-H HEVC Video 2097 kbps 1080p / 23.976 fps / 16:9 / Main 10 @ Level 5.1 @ High / 10 bits / Dolby Vision / BT.2020

  18. AUDIO:

  19. Codec Language Bitrate Description
  20. ----- -------- ------- -----------
  21. Dolby TrueHD/Atmos Audio English 3556 kbps 7.1 / 48 kHz / 3108 kbps / 16-bit (AC3 Embedded: 5.1-EX / 48 kHz / 448 kbps / DN -27dB)
  22. Dolby Digital EX Audio German 448 kbps 5.1-EX / 48 kHz / 448 kbps / DN -27dB
  23. Dolby TrueHD Audio Chinese 2656 kbps 7.1 / 48 kHz / 2016 kbps / 16-bit (AC3 Embedded: 5.1 / 48 kHz / 640 kbps / DN -31dB)
  24. Dolby Digital Audio Chinese 640 kbps 5.1 / 48 kHz / 640 kbps / DN -31dB

  25. SUBTITLES:

  26. Codec Language Bitrate Description
  27. ----- -------- ------- -----------
  28. Presentation Graphics English 20.038 kbps
  29. Presentation Graphics German 23.333 kbps
  30. Presentation Graphics Chinese 41.654 kbps
  31. Presentation Graphics Chinese 42.274 kbps
  32. Presentation Graphics Chinese 16.398 kbps
  33. Presentation Graphics Korean 15.391 kbps
  34. Presentation Graphics Czech 16.110 kbps
  35. Presentation Graphics Danish 16.601 kbps
  36. Presentation Graphics Finnish 17.163 kbps
  37. Presentation Graphics Chinese 55.325 kbps
  38. Presentation Graphics Norwegian 16.603 kbps
  39. Presentation Graphics Polish 15.563 kbps
  40. Presentation Graphics Chinese 55.832 kbps
  41. Presentation Graphics Thai 16.020 kbps
  42. Presentation Graphics German 0.537 kbps
  43. Presentation Graphics Spanish 0.460 kbps
  44. Presentation Graphics Czech 0.422 kbps

  45. FILES:

  46. Name Time In Length Size Total Bitrate
  47. ---- ------- ------ ---- -------------
  48. 00075.M2TS 0:00:00.000 2:59:25.754 95,384,825,856 70,880
复制代码



























【指环王2-加长版-DISK1】

  1. Disc Title: The Lord of the Rings: The Two Towers (EXT.) PT. 1
  2. Disc Label: 指环王2-加长版-DISK1.ISO
  3. Disc Size: 72,202,281,999 bytes
  4. Protection: AACS2
  5. Extras: Ultra HD, BD-Java
  6. BDInfo: 0.7.5.5

  7. PLAYLIST REPORT:

  8. Name: 00803.MPLS
  9. Length: 1:46:39.184 (h:m:s.ms)
  10. Size: 70,366,580,736 bytes
  11. Total Bitrate: 87.97 Mbps

  12. (*) Indicates included stream hidden by this playlist.

  13. VIDEO:

  14. Codec Bitrate Description
  15. ----- ------- -----------
  16. MPEG-H HEVC Video 64757 kbps 2160p / 23.976 fps / 16:9 / Main 10 @ Level 5.1 @ High / 10 bits / HDR10 / BT.2020
  17. * MPEG-H HEVC Video 2098 kbps 1080p / 23.976 fps / 16:9 / Main 10 @ Level 5.1 @ High / 10 bits / Dolby Vision / BT.2020

  18. AUDIO:

  19. Codec Language Bitrate Description
  20. ----- -------- ------- -----------
  21. Dolby TrueHD/Atmos Audio English 3537 kbps 7.1 / 48 kHz / 3089 kbps / 16-bit (AC3 Embedded: 5.1-EX / 48 kHz / 448 kbps / DN -27dB)
  22. DTS-HD Master Audio French 2235 kbps 5.1 / 48 kHz / 2235 kbps / 16-bit (DTS Core: 5.1 / 48 kHz / 1509 kbps / 16-bit)
  23. DTS-HD Master Audio German 2413 kbps 6.1 / 48 kHz / 2413 kbps / 16-bit (DTS Core: 6.1-ES / 48 kHz / 1509 kbps / 16-bit)
  24. Dolby Digital Audio Chinese 640 kbps 5.1 / 48 kHz / 640 kbps / DN -31dB
  25. Dolby TrueHD Audio Chinese 2588 kbps 7.1 / 48 kHz / 1948 kbps / 16-bit (AC3 Embedded: 5.1 / 48 kHz / 640 kbps / DN -31dB)
  26. DTS-HD Master Audio Japanese 2489 kbps 5.1 / 48 kHz / 2489 kbps / 24-bit (DTS Core: 5.1 / 48 kHz / 1509 kbps / 24-bit)

  27. SUBTITLES:

  28. Codec Language Bitrate Description
  29. ----- -------- ------- -----------
  30. Presentation Graphics English 23.741 kbps
  31. Presentation Graphics French 21.704 kbps
  32. Presentation Graphics German 27.899 kbps
  33. Presentation Graphics Italian 23.810 kbps
  34. Presentation Graphics Chinese 25.174 kbps
  35. Presentation Graphics Chinese 36.867 kbps
  36. Presentation Graphics Chinese 19.747 kbps
  37. Presentation Graphics Chinese 18.323 kbps
  38. Presentation Graphics Korean 18.055 kbps
  39. Presentation Graphics Chinese 25.654 kbps
  40. Presentation Graphics Czech 19.879 kbps
  41. Presentation Graphics Danish 19.984 kbps
  42. Presentation Graphics Finnish 20.575 kbps
  43. Presentation Graphics Chinese 37.307 kbps
  44. Presentation Graphics Norwegian 19.870 kbps
  45. Presentation Graphics Polish 19.560 kbps
  46. Presentation Graphics Swedish 20.996 kbps
  47. Presentation Graphics Thai 20.380 kbps
  48. Presentation Graphics French 0.085 kbps
  49. Presentation Graphics German 0.102 kbps
  50. Presentation Graphics Italian 0.036 kbps
  51. Presentation Graphics Spanish 0.045 kbps
  52. Presentation Graphics Japanese 20.635 kbps
  53. Presentation Graphics Japanese 0.072 kbps

  54. FILES:

  55. Name Time In Length Size Total Bitrate
  56. ---- ------- ------ ---- -------------
  57. 00073.M2TS 0:00:00.000 1:46:39.184 70,366,580,736 87,969
复制代码































【指环王2-加长版-DISK2】

  1. Disc Title: The Lord of the Rings: The Two Towers (EXT.) PT. 2
  2. Disc Label: 指环王2-加长版-DISK2.ISO
  3. Disc Size: 78,259,370,619 bytes
  4. Protection: AACS2
  5. Extras: Ultra HD, BD-Java
  6. BDInfo: 0.7.5.5

  7. PLAYLIST REPORT:

  8. Name: 00803.MPLS
  9. Length: 2:08:52.933 (h:m:s.ms)
  10. Size: 76,412,350,464 bytes
  11. Total Bitrate: 79.05 Mbps

  12. (*) Indicates included stream hidden by this playlist.

  13. VIDEO:

  14. Codec Bitrate Description
  15. ----- ------- -----------
  16. MPEG-H HEVC Video 56277 kbps 2160p / 23.976 fps / 16:9 / Main 10 @ Level 5.1 @ High / 10 bits / HDR10 / BT.2020
  17. * MPEG-H HEVC Video 2096 kbps 1080p / 23.976 fps / 16:9 / Main 10 @ Level 5.1 @ High / 10 bits / Dolby Vision / BT.2020

  18. AUDIO:

  19. Codec Language Bitrate Description
  20. ----- -------- ------- -----------
  21. Dolby TrueHD/Atmos Audio English 3480 kbps 7.1 / 48 kHz / 3032 kbps / 16-bit (AC3 Embedded: 5.1-EX / 48 kHz / 448 kbps / DN -27dB)
  22. DTS-HD Master Audio French 2272 kbps 5.1 / 48 kHz / 2272 kbps / 16-bit (DTS Core: 5.1 / 48 kHz / 1509 kbps / 16-bit)
  23. DTS-HD Master Audio Germanic 2471 kbps 6.1 / 48 kHz / 2471 kbps / 16-bit (DTS Core: 6.1-ES / 48 kHz / 1509 kbps / 16-bit)
  24. Dolby Digital Audio Chinese 640 kbps 5.1 / 48 kHz / 640 kbps / DN -31dB
  25. Dolby TrueHD Audio Chinese 2646 kbps 7.1 / 48 kHz / 2006 kbps / 16-bit (AC3 Embedded: 5.1 / 48 kHz / 640 kbps / DN -31dB)
  26. DTS-HD Master Audio Japanese 2257 kbps 5.1 / 48 kHz / 2257 kbps / 16-bit (DTS Core: 5.1 / 48 kHz / 1509 kbps / 16-bit)

  27. SUBTITLES:

  28. Codec Language Bitrate Description
  29. ----- -------- ------- -----------
  30. Presentation Graphics English 18.017 kbps
  31. Presentation Graphics French 16.477 kbps
  32. Presentation Graphics German 22.057 kbps
  33. Presentation Graphics Italian 19.056 kbps
  34. Presentation Graphics Chinese 47.036 kbps
  35. Presentation Graphics Chinese 59.730 kbps
  36. Presentation Graphics Chinese 15.228 kbps
  37. Presentation Graphics Chinese 14.489 kbps
  38. Presentation Graphics Korean 14.072 kbps
  39. Presentation Graphics Chinese 47.056 kbps
  40. Presentation Graphics Czech 15.387 kbps
  41. Presentation Graphics Danish 14.986 kbps
  42. Presentation Graphics Finnish 15.790 kbps
  43. Presentation Graphics Chinese 60.261 kbps
  44. Presentation Graphics Norwegian 15.042 kbps
  45. Presentation Graphics Polish 15.148 kbps
  46. Presentation Graphics Swedish 15.922 kbps
  47. Presentation Graphics Thai 15.685 kbps
  48. Presentation Graphics French 0.753 kbps
  49. Presentation Graphics German 0.923 kbps
  50. Presentation Graphics Italian 0.819 kbps
  51. Presentation Graphics Spanish 0.794 kbps
  52. Presentation Graphics Japanese 15.957 kbps
  53. Presentation Graphics Japanese 1.449 kbps

  54. FILES:

  55. Name Time In Length Size Total Bitrate
  56. ---- ------- ------ ---- -------------
  57. 00073.M2TS 0:00:00.000 2:08:52.933 76,412,350,464 79,051
复制代码





















指环王2_双塔奇兵 剧场版.The.Lord.of.the.Rings.The.Two.Towers.2002.2160p.UHD.Blu-.torrent (575.7 KB, 下载次数: 39)

回复

使用道具 举报

您需要登录后才可以回帖 登录 | 立即注册

本版积分规则

QQ|Archiver|手机版|小黑屋|蓝光电影网

GMT+8, 2024-4-13 11:26 , Processed in 0.055506 second(s), 25 queries .

Powered by Discuz! X3.4

Copyright © 2001-2020, Tencent Cloud.

快速回复 返回顶部 返回列表