找回密码
 立即注册

QQ登录

只需一步,快速开始

查看: 664|回复: 1

[动画片] 精灵旅社4:变身大冒险.Hotel.Transylvania.4.Transformania.2022.1080p.10bit.Blu-ray.DDP.5.1.x265.HEVC-NmCT 7.82GB

[复制链接]

0

精华

0

好友

2

听众

实习版主

Rank: 7Rank: 7Rank: 7

蓝光币
5
发表于 2023-8-19 12:18:16 | 显示全部楼层 |阅读模式


◎译  名 精灵旅社4:变身大冒险 / 鬼灵精怪大酒店:怪兽变错身(港) / 尖叫旅社:变形怪兽(台) / 精灵旅社4:人间大冒险 / Hotel Transylvania 4 / Hotel Transylvania: Transformania
◎片  名 Hotel Transylvania 4: Transformania
◎年  代 2022
◎产  地 美国
◎类  别 喜剧 / 动画 / 奇幻 / 冒险
◎语  言 英语
◎上映日期 2022-01-14(美国网络) / 2022-04-03(中国大陆)
◎IMDb评星  ★★★★★★☆☆☆☆
◎IMDb评分  6.0/10 from 35,469 users
◎IMDb链接  https://www.imdb.com/title/tt9848626/
◎豆瓣评星 ★★★☆☆
◎豆瓣评分 6.3/10 from 54,053 users
◎豆瓣链接 https://movie.douban.com/subject/30472643/
◎片  长 88分钟
◎导  演 德里克·德莱蒙 / Derek Drymon
      詹妮弗·克鲁斯卡 / Jennifer Kluska
◎演  员 布赖恩·哈尔 / Brian Hull | 配 Dracula
      安迪·萨姆伯格 / Andy Samberg | 配 Jonathan
      赛琳娜·戈麦斯 / Selena Gomez | 配 Mavis
      凯瑟琳·哈恩 / Kathryn Hahn | 配 Ericka
      史蒂夫·布西密 / Steve Buscemi | 配 Wayne
      大卫·斯佩德 / David Spade | 配 Griffin the Invisible Man
      科甘-迈克尔·凯 / Keegan-Michael Key | 配 Murray
      阿什·布林克夫 / Asher Blinkoff | 配 Dennis
      布拉德·阿布瑞尔 / Brad Abrell | 配 Frank
      法兰·德瑞雪 / Fran Drescher | 配 Eunice
      吉姆·加菲根 / Jim Gaffigan | 配 Van Helsing
      莫莉·香侬 / Molly Shannon | 配 Wanda
◎编  剧 格恩迪·塔塔科夫斯基 / Genndy Tartakovsky
      托德·杜伦 / Todd Durham
◎制  片  人 爱丽丝·杜威·戈德斯通 / Alice Dewey
      赛琳娜·戈麦斯 / Selena Gomez
      米歇尔·默多卡 / Michelle Murdocca
      格恩迪·塔塔科夫斯基 / Genndy Tartakovsky
◎音  乐 马克·马瑟斯鲍夫 / Mark Mothersbaugh
◎简  介 
  在精灵旅社125周年庆典派对上,一场意外使德古拉带领的精灵家族首次变身成人,而约翰尼则成了怪兽。为了寻找治疗方法,这对冤家翁婿前往危机重重的南美雨林开启了一场欢乐又刺激的冒险之旅,遭遇了种种令人捧腹的窘况。得知消息的梅菲斯带领精灵家族前去营救爱人和老爸,他们最终能否将一切恢复正常?
  1. Video
  2. ID                          : 1
  3. Format                      : HEVC
  4. Format/Info                 : High Efficiency Video Coding
  5. Format profile              : Main 10@L4@Main
  6. Codec ID                    : V_MPEGH/ISO/HEVC
  7. Duration                    : 1 h 27 min
  8. Bit rate                    : 12.3 Mb/s
  9. Width                       : 1 920 pixels
  10. Height                      : 1 032 pixels
  11. Display aspect ratio        : 1.85:1
  12. Frame rate mode             : Constant
  13. Frame rate                  : 23.976 (24000/1001) FPS
  14. Color space                 : YUV
  15. Chroma subsampling          : 4:2:0
  16. Bit depth                   : 10 bits
  17. Bits/(Pixel*Frame)          : 0.258
  18. Stream size                 : 7.51 GiB (96%)
  19. Language                    : English
  20. Default                     : Yes
  21. Forced                      : No
  22. Audio
  23. ID                          : 2
  24. Format                      : E-AC-3
  25. Format/Info                 : Enhanced AC-3
  26. Commercial name             : Dolby Digital Plus
  27. Codec ID                    : A_EAC3
  28. Duration                    : 1 h 27 min
  29. Bit rate mode               : Constant
  30. Bit rate                    : 512 kb/s
  31. Channel(s)                  : 6 channels
  32. Channel layout              : L R C LFE Ls Rs
  33. Sampling rate               : 48.0 kHz
  34. Frame rate                  : 31.250 FPS (1536 SPF)
  35. Compression mode            : Lossy
  36. Stream size                 : 321 MiB (4%)
  37. Language                    : English
  38. Service kind                : Complete Main
  39. Default                     : Yes
  40. Forced                      : No
  41. Text #1
  42. ID                          : 3
  43. Format                      : UTF-8
  44. Codec ID                    : S_TEXT/UTF8
  45. Codec ID/Info               : UTF-8 Plain Text
  46. Duration                    : 1 h 27 min
  47. Bit rate                    : 61 b/s
  48. Frame rate                  : 0.335 FPS
  49. Count of elements           : 1749
  50. Stream size                 : 39.1 KiB (0%)
  51. Title                       : Full
  52. Language                    : English
  53. Default                     : No
  54. Forced                      : No
  55. Text #2
  56. ID                          : 4
  57. Format                      : UTF-8
  58. Codec ID                    : S_TEXT/UTF8
  59. Codec ID/Info               : UTF-8 Plain Text
  60. Duration                    : 1 h 27 min
  61. Bit rate                    : 68 b/s
  62. Frame rate                  : 0.359 FPS
  63. Count of elements           : 1878
  64. Stream size                 : 43.6 KiB (0%)
  65. Title                       : SDH
  66. Language                    : English
  67. Default                     : No
  68. Forced                      : No
  69. Menu
  70. 00:00:00.000                : en:Chapter 01
  71. 00:06:29.972                : en:Chapter 02
  72. 00:09:54.427                : en:Chapter 03
  73. 00:15:59.708                : en:Chapter 04
  74. 00:20:52.876                : en:Chapter 05
  75. 00:25:22.229                : en:Chapter 06
  76. 00:31:30.597                : en:Chapter 07
  77. 00:36:37.945                : en:Chapter 08
  78. 00:41:04.545                : en:Chapter 09
  79. 00:45:43.824                : en:Chapter 10
  80. 00:50:45.709                : en:Chapter 11
  81. 00:55:01.840                : en:Chapter 12
  82. 00:59:50.712                : en:Chapter 13
  83. 01:04:49.051                : en:Chapter 14
  84. 01:13:53.554                : en:Chapter 15
  85. 01:17:11.627                : en:Chapter 16
复制代码









Hotel.Transylvania.4.Transformania.2022.1080p.10bit.Blu-ray.DDP.5.1.x265.HEVC-NmCT.torrent (157.41 KB, 下载次数: 4)
回复

使用道具 举报

0

精华

0

好友

3

听众

新手上路

Rank: 1

蓝光币
0
发表于 2023-8-20 16:29:49 | 显示全部楼层
回帖会有蓝光笔吗,怎么获得
回复

使用道具 举报

您需要登录后才可以回帖 登录 | 立即注册

本版积分规则

QQ|Archiver|手机版|小黑屋|蓝光电影网

GMT+8, 2024-6-21 20:08 , Processed in 0.052574 second(s), 24 queries .

Powered by Discuz! X3.4

Copyright © 2001-2020, Tencent Cloud.

快速回复 返回顶部 返回列表