找回密码
 立即注册

QQ登录

只需一步,快速开始

查看: 2144|回复: 17

[2160p-WEB] 变形金刚:超能勇士崛起.Transformers.Rise.of.the.Beasts.2023.2160p.AMZN.WEB-DL.DDP5.1.Atmos.H.265-MassModz 13.99GB

[复制链接]

0

精华

0

好友

2

听众

实习版主

Rank: 7Rank: 7Rank: 7

蓝光币
5
发表于 2023-7-14 00:24:23 | 显示全部楼层 |阅读模式


◎译  名 变形金刚:超能勇士崛起 / 变形金刚:狂兽崛起(港) / 变形金刚:万兽崛起(台) / 变形金刚7:超能勇士崛起 / 变形金刚7:群兽崛起 / 变形金刚7 / 真人版超能勇士
◎片  名 Transformers: Rise of the Beasts
◎年  代 2023
◎产  地 美国
◎类  别 动作 / 科幻 / 冒险
◎语  言 英语
◎上映日期 2023-06-06(韩国) / 2023-06-09(美国/中国大陆)
◎IMDb评星  ★★★★★★✦☆☆☆
◎IMDb评分  6.4/10 from 38,700 users
◎IMDb链接  https://www.imdb.com/title/tt5090568/
◎豆瓣评星 ★★★☆☆
◎豆瓣评分 6.1/10 from 108,974 users
◎豆瓣链接 https://movie.douban.com/subject/26634250/
◎片  长 127分钟 / 128分钟(中国大陆)
◎导  演 小斯蒂芬·卡普尔 / Steven Caple Jr.
◎演  员 安东尼·拉莫斯 / Anthony Ramos | 饰 诺亚·迪亚兹 Noah Diaz
      多米尼克·菲什巴克 / Dominique Fishback | 饰 埃琳娜·华莱士 Elena Wallace
      彼特·库伦 / Peter Cullen | 配 擎天柱 Optimus Prime
      朗·普尔曼 / Ron Perlman | 配 擎天圣 Optimus Primal
      彼特·丁拉基 / Peter Dinklage | 配 天灾 Scourge
      杨紫琼 / Michelle Yeoh | 配 飞箭勇士 Airazor
      皮特·戴维森 / Pete Davidson | 配 幻影 Mirage
      科尔曼·多明戈 / Colman Domingo | 配 宇宙大帝 Unicron
      丽兹·考什 / Liza Koshy | 配 阿尔茜 Arcee
      克里斯托·费尔南德斯 / Cristo Fernández | 配 千斤顶 Wheeljack
      MJ·罗德里格斯 / Mj Rodriguez | 配 夜莺 Nightbird
      大卫·索博洛夫 / David Sobolov | 配 犀牛勇士 / 圈套 Rhinox / Battletrap
      汤加伊·基里萨 / Tongayi Chirisa | 饰 黄豹勇士 Cheetor
      约翰·迪·马吉欧 / John Di Maggio | 配 同温层 Stratosphere
      迪恩·斯科特·瓦兹奎兹 / Dean Scott Vazquez | 饰 克里斯 Kris
      托贝·纽维吉 / Tobe Nwigwe | 饰 瑞克 Reek
      劳伦·维勒斯 / Lauren Vélez | 饰 迪亚兹太太 Mrs. Diaz
      莎拉·斯蒂尔斯 / Sarah Stiles | 饰 吉莉安 Jillian
      多梅尼克·迪罗萨 / Domenic Di Rosa | 饰 巴士司机 Bus Driver
◎编  剧 卓比·哈罗德 / Joby Harold
      达内尔·梅耶尔 / Darnell Metayer
      乔什·皮特斯 / Josh Peters
      埃里希·霍贝尔 / Erich Hoeber
      乔·霍贝尔 / Jon Hoeber
      马特·霍洛维 / Matt Holloway
      阿特·马库姆 / Art Marcum
      肯·诺兰 / Ken Nolan
◎制  片  人 迈克尔·贝 / Michael Bay
      史蒂文·斯皮尔伯格 / Steven Spielberg
      洛伦佐·迪·博纳文图拉 / Lorenzo di Bonaventura
◎摄  影 恩里克·切迪亚克 / Enrique Chediak
◎动  画 亚历山大·安东尼亚德斯 / Alexander Antoniades
◎简  介 
  故事重返上世纪90年代,终极反派宇宙大帝(科尔曼·多明戈 Colman Domingo 配音)从天而降,驱使以天灾(彼特·丁拉基 Peter Dinklage 配音)为首的恐惧兽掀起地球危机。绝境之中,蛰伏许久的巨无霸终觉醒,联合汽车人变形出发,一场前所未有的决战即将上演。
  1. Video
  2. ID: 1
  3. Format: HEVC
  4. Format/Info: High Efficiency Video Coding
  5. Format profile: Main@L5@Main
  6. Codec ID: V_MPEGH/ISO/HEVC
  7. Duration: 2 h 7 min
  8. Bit rate: 15.0 Mb/s
  9. Width: 3840 pixels
  10. Height: 1600 pixels
  11. Display aspect ratio: 2.40:1
  12. Frame rate mode: Constant
  13. Frame rate: 23.976 (24000/1001) FPS
  14. Color space: YUV
  15. Chroma subsampling: 4:2:0
  16. Bit depth: 8 bits
  17. Bits/(Pixel*Frame): 0.102
  18. Stream size: 13.3 GiB (95%)
  19. Language: English (US)
  20. Default: Yes
  21. Forced: No
  22. Color range: Limited
  23. Color primaries: BT.709
  24. Transfer characteristics: BT.709
  25. Matrix coefficients: BT.709
  26. Audio #1
  27. ID: 2
  28. Format: E-AC-3 JOC
  29. Format/Info: Enhanced AC-3 with Joint Object Coding
  30. Commercial name: Dolby Digital Plus with Dolby Atmos
  31. Codec ID: A_EAC3
  32. Duration: 2 h 7 min
  33. Bit rate mode: Constant
  34. Bit rate: 768 kb/s
  35. Channel(s): 6 channels
  36. Channel layout: L R C LFE Ls Rs
  37. Sampling rate: 48.0 kHz
  38. Frame rate: 31.250 FPS (1536 SPF)
  39. Compression mode: Lossy
  40. Delay relative to video: 19 ms
  41. Stream size: 698 MiB (5%)
  42. Language: English (US)
  43. Service kind: Complete Main
  44. Default: Yes
  45. Forced: No
  46. Complexity index: 16
  47. Number of dynamic objects: 15
  48. Bed channel count: 1 channel
  49. Bed channel configuration: LFE
  50. Subtitle #1
  51. ID: 3
  52. Format: UTF-8
  53. Codec ID: S_TEXT/UTF8
  54. Codec ID/Info: UTF-8 Plain Text
  55. Duration: 1 h 56 min
  56. Bit rate: 51 b/s
  57. Frame rate: 0.209 FPS
  58. Count of elements: 1456
  59. Stream size: 43.6 KiB (0%)
  60. Language: English (US)
  61. Default: No
  62. Forced: No
  63. Subtitle #2
  64. ID: 4
  65. Format: UTF-8
  66. Codec ID: S_TEXT/UTF8
  67. Codec ID/Info: UTF-8 Plain Text
  68. Duration: 1 h 56 min
  69. Bit rate: 63 b/s
  70. Frame rate: 0.281 FPS
  71. Count of elements: 1964
  72. Stream size: 54.1 KiB (0%)
  73. Title: SDH
  74. Language: English (US)
  75. Default: No
  76. Forced: No
  77. Subtitle #3
  78. ID: 5
  79. Format: UTF-8
  80. Codec ID: S_TEXT/UTF8
  81. Codec ID/Info: UTF-8 Plain Text
  82. Duration: 2 h 6 min
  83. Bit rate: 46 b/s
  84. Frame rate: 0.180 FPS
  85. Count of elements: 1362
  86. Stream size: 43.2 KiB (0%)
  87. Title: Canadian
  88. Language: French (CA)
  89. Default: No
  90. Forced: No
  91. Menu
  92. 00:00:00.019: en:Chapter 01
  93. 00:06:17.021: en:Chapter 02
  94. 00:15:53.347: en:Chapter 03
  95. 00:23:23.547: en:Chapter 04
  96. 00:29:30.748: en:Chapter 05
  97. 00:36:34.755: en:Chapter 06
  98. 00:46:33.103: en:Chapter 07
  99. 00:54:31.040: en:Chapter 08
  100. 01:01:05.350: en:Chapter 09
  101. 01:08:10.025: en:Chapter 10
  102. 01:17:10.524: en:Chapter 11
  103. 01:25:02.913: en:Chapter 12
  104. 01:32:21.310: en:Chapter 13
  105. 01:40:25.836: en:Chapter 14
  106. 01:50:07.084: en:Chapter 15
  107. 01:54:20.379: en:Chapter 16
复制代码









Transformers.Rise.of.the.Beasts.2023.2160p.AMZN.WEB-DL.DDP5.1.Atmos.H.265-MassModz.torrent (141.07 KB, 下载次数: 214)
回复

使用道具 举报

0

精华

0

好友

5

听众

新手上路

Rank: 1

蓝光币
12
发表于 2023-7-15 09:59:23 | 显示全部楼层
多谢分享~
回复

使用道具 举报

0

精华

0

好友

2

听众

新手上路

Rank: 1

蓝光币
0
发表于 2023-7-15 23:37:01 | 显示全部楼层
好电影
回复

使用道具 举报

0

精华

0

好友

1

听众

新手上路

Rank: 1

蓝光币
0
发表于 2023-7-16 14:17:12 | 显示全部楼层
感谢分享,这么好的资源,一定要先下手为强!!
回复

使用道具 举报

0

精华

0

好友

1

听众

新手上路

Rank: 1

蓝光币
0
发表于 2023-7-16 22:12:55 | 显示全部楼层
很好谢谢楼主
回复

使用道具 举报

0

精华

0

好友

1

听众

新手上路

Rank: 1

蓝光币
0
发表于 2023-7-18 20:50:09 | 显示全部楼层
好货,收了
回复

使用道具 举报

0

精华

0

好友

1

听众

新手上路

Rank: 1

蓝光币
0
发表于 2023-7-18 21:12:30 | 显示全部楼层

多谢分享~
回复

使用道具 举报

0

精华

0

好友

1

听众

新手上路

Rank: 1

蓝光币
0
发表于 2023-7-19 21:51:11 | 显示全部楼层
经典必须看
回复

使用道具 举报

0

精华

0

好友

0

听众

新手上路

Rank: 1

蓝光币
0
发表于 2023-7-20 10:10:20 | 显示全部楼层
被抖音种草
回复

使用道具 举报

0

精华

0

好友

2

听众

新手上路

Rank: 1

蓝光币
0
发表于 2023-7-21 12:47:27 | 显示全部楼层
感谢分享
回复

使用道具 举报

您需要登录后才可以回帖 登录 | 立即注册

本版积分规则

QQ|Archiver|手机版|小黑屋|蓝光电影网

GMT+8, 2024-7-24 19:54 , Processed in 0.087176 second(s), 30 queries .

Powered by Discuz! X3.4

Copyright © 2001-2020, Tencent Cloud.

快速回复 返回顶部 返回列表