找回密码
 立即注册

QQ登录

只需一步,快速开始

查看: 227|回复: 0

[其他] 暴力之夜 Violent.Night.2022.2160p.MA.WEB-DL.x265.10bit.HDR.DDP5.1.Atmos-FLUX 19.84GB

[复制链接]

0

精华

0

好友

2

听众

新手上路

Rank: 2

蓝光币
5
发表于 2022-12-22 08:00:15 | 显示全部楼层 |阅读模式
[img][/img]

◎标  题 暴力之夜
◎译  名 暴戾夜(台) / 杀神夜(港)
◎片  名 Violent Night
◎年  代 2022
◎产  地 美国
◎类  别 喜剧 / 动作 / 惊悚 / 恐怖 / 犯罪
◎语  言 英语
◎上映日期 2022-12-02(美国)
◎IMDb评分 7/10 (782人评价)
◎IMDb链接 https://www.imdb.com/title/tt12003946/
◎豆瓣链接 https://movie.douban.com/subject/35899025/
◎片  长 101分钟
◎导  演 托米·维尔科拉 Tommy Wirkola
◎编  剧 帕特里克·凯西 Patrick Casey
       乔什·米勒 Josh Miller
       Josh Miller Josh Miller
       Pat Casey Pat Casey
◎演  员 大卫·哈伯 David Harbour
       约翰·雷吉扎莫 John Leguizamo
       比佛莉·德安姬罗 Beverly D'Angelo
       凯姆·吉甘戴 Cam Gigandet
       布兰登·弗莱彻 Brendan Fletcher
       艾迪·帕特森 Edi Patterson
       阿历克斯·哈赛尔 Alex Hassell
       亚历克西斯·拉奥特 Alexis Louder
       麦克·多普德 Mike Dopud
       亚历山大·埃利奥特 Alexander Elliot
       斯蒂芬妮·西 Stephanie Sy
       安德烈·埃里克森 André Eriksen
       埃里克·阿塔瓦尔 Erik Athavale
       蜜特拉·苏里 Mitra Suri
◎简  介

  一支佣兵团队在圣诞夜突袭一栋富有人家的豪宅,并且挟持豪宅内的所有人为人质时,他们竟然遇到一个完全意想不到的强劲对手:圣诞老人(大卫·哈伯 饰),而且他会让他们知道圣诞老人并不是一个面容慈祥、心地善良的圣人。
  1. Video
  2. ID                                       : 1
  3. Format                                   : HEVC
  4. Format/Info                              : High Efficiency Video Coding
  5. Format profile                           : Main [email protected]@High
  6. HDR format                               : Dolby Vision, Version 1.0, dvhe.08.06, BL+RPU, HDR10 compatible / SMPTE ST 2086, HDR10 compatible
  7. Codec ID                                 : V_MPEGH/ISO/HEVC
  8. Duration                                 : 1 h 51 min
  9. Bit rate                                 : 24.7 Mb/s
  10. Width                                    : 3 840 pixels
  11. Height                                   : 2 160 pixels
  12. Display aspect ratio                     : 16:9
  13. Frame rate mode                          : Constant
  14. Frame rate                               : 23.976 (24000/1001/189150) FPS
  15. Color space                              : YUV
  16. Chroma subsampling                       : 4:2:0 (Type 2)
  17. Bit depth                                : 10 bits
  18. Bits/(Pixel*Frame)                       : 0.124
  19. Stream size                              : 19.2 GiB (97%)
  20. Language                                 : English
  21. Default                                  : Yes
  22. Forced                                   : No
  23. Color range                              : Limited
  24. Color primaries                          : BT.2020
  25. Transfer characteristics                 : PQ
  26. Matrix coefficients                      : BT.2020 non-constant
  27. Mastering display color primaries        : BT.2020
  28. Mastering display luminance              : min: 0.0050 cd/m2, max: 1000 cd/m2
  29. Maximum Content Light Level              : 998 cd/m2
  30. Maximum Frame-Average Light Level        : 120 cd/m2

  31. Audio
  32. ID                                       : 2
  33. Format                                   : E-AC-3 JOC
  34. Format/Info                              : Enhanced AC-3 with Joint Object Coding
  35. Commercial name                          : Dolby Digital Plus with Dolby Atmos
  36. Codec ID                                 : A_EAC3
  37. Duration                                 : 1 h 51 min
  38. Bit rate mode                            : Constant
  39. Bit rate                                 : 768 kb/s
  40. Channel(s)                               : 6 channels
  41. Channel layout                           : L R C LFE Ls Rs
  42. Sampling rate                            : 48.0 kHz
  43. Frame rate                               : 31.250 FPS (1536 SPF)
  44. Compression mode                         : Lossy
  45. Delay relative to video                  : 83 ms
  46. Stream size                              : 613 MiB (3%)
  47. Language                                 : English
  48. Service kind                             : Complete Main
  49. Default                                  : Yes
  50. Forced                                   : No
  51. Complexity index                         : 16
  52. Number of dynamic objects                : 15
  53. Bed channel count                        : 1 channel
  54. Bed channel configuration                : LFE

  55. Text #1
  56. ID                                       : 3
  57. Format                                   : UTF-8
  58. Codec ID                                 : S_TEXT/UTF8
  59. Codec ID/Info                            : UTF-8 Plain Text
  60. Duration                                 : 1 h 46 min
  61. Bit rate                                 : 52 b/s
  62. Frame rate                               : 0.236 FPS
  63. Count of elements                        : 1511
  64. Stream size                              : 41.0 KiB (0%)
  65. Language                                 : English
  66. Default                                  : No
  67. Forced                                   : No

  68. Text #2
  69. ID                                       : 4
  70. Format                                   : UTF-8
  71. Codec ID                                 : S_TEXT/UTF8
  72. Codec ID/Info                            : UTF-8 Plain Text
  73. Duration                                 : 1 h 51 min
  74. Bit rate                                 : 68 b/s
  75. Frame rate                               : 0.318 FPS
  76. Count of elements                        : 2132
  77. Stream size                              : 56.1 KiB (0%)
  78. Title                                    : SDH
  79. Language                                 : English
  80. Default                                  : No
  81. Forced                                   : No

  82. Text #3
  83. ID                                       : 5
  84. Format                                   : UTF-8
  85. Codec ID                                 : S_TEXT/UTF8
  86. Codec ID/Info                            : UTF-8 Plain Text
  87. Duration                                 : 1 h 50 min
  88. Bit rate                                 : 47 b/s
  89. Frame rate                               : 0.198 FPS
  90. Count of elements                        : 1314
  91. Stream size                              : 38.4 KiB (0%)
  92. Title                                    : Latin American
  93. Language                                 : Spanish
  94. Default                                  : No
  95. Forced                                   : No

  96. Menu
  97. 00:00:00.000                             : en:Chapter 1
  98. 00:04:52.000                             : en:Chapter 2
  99. 00:07:55.000                             : en:Chapter 3
  100. 00:13:14.000                             : en:Chapter 4
  101. 00:17:56.000                             : en:Chapter 5
  102. 00:21:24.000                             : en:Chapter 6
  103. 00:29:56.000                             : en:Chapter 7
  104. 00:33:29.000                             : en:Chapter 8
  105. 00:38:42.000                             : en:Chapter 9
  106. 00:44:14.000                             : en:Chapter 10
  107. 00:52:58.000                             : en:Chapter 11
  108. 00:58:52.000                             : en:Chapter 12
  109. 01:09:29.000                             : en:Chapter 13
  110. 01:15:18.000                             : en:Chapter 14
  111. 01:20:01.000                             : en:Chapter 15
  112. 01:24:39.000                             : en:Chapter 16
  113. 01:28:12.000                             : en:Chapter 17
  114. 01:32:52.000                             : en:Chapter 18
  115. 01:37:49.000                             : en:Chapter 19
  116. 01:45:32.000                             : en:Chapter 20
复制代码




                                       
                                       

                                       
                                       
                                       




Violent.Night.2022.2160p.MA.WEB-DL.x265.10bit.HDR.DDP5.1.Atmos-FLUX.torrent (25.46 KB, 下载次数: 12)
回复

使用道具 举报

您需要登录后才可以回帖 登录 | 立即注册

本版积分规则

QQ|Archiver|手机版|小黑屋|蓝光电影网

GMT+8, 2023-2-8 01:41 , Processed in 0.056260 second(s), 26 queries .

Powered by Discuz! X3.4

Copyright © 2001-2020, Tencent Cloud.

快速回复 返回顶部 返回列表