找回密码
 立即注册

QQ登录

只需一步,快速开始

查看: 233|回复: 0

[其他] 暴力之夜 Violent.Night.2022.2160p.MA.WEB-DL.DDP5.1.Atmos.DV.MKV.x265-FLUX 19.88GB

[复制链接]

0

精华

0

好友

2

听众

新手上路

Rank: 2

蓝光币
5
发表于 2022-12-22 08:00:13 | 显示全部楼层 |阅读模式
[img][/img]

◎标  题 暴力之夜
◎译  名 暴戾夜(台) / 杀神夜(港)
◎片  名 Violent Night
◎年  代 2022
◎产  地 美国
◎类  别 喜剧 / 动作 / 惊悚 / 恐怖 / 犯罪
◎语  言 英语
◎上映日期 2022-12-02(美国)
◎IMDb评分 7/10 (782人评价)
◎IMDb链接 https://www.imdb.com/title/tt12003946/
◎豆瓣链接 https://movie.douban.com/subject/35899025/
◎片  长 101分钟
◎导  演 托米·维尔科拉 Tommy Wirkola
◎编  剧 帕特里克·凯西 Patrick Casey
       乔什·米勒 Josh Miller
       Josh Miller Josh Miller
       Pat Casey Pat Casey
◎演  员 大卫·哈伯 David Harbour
       约翰·雷吉扎莫 John Leguizamo
       比佛莉·德安姬罗 Beverly D'Angelo
       凯姆·吉甘戴 Cam Gigandet
       布兰登·弗莱彻 Brendan Fletcher
       艾迪·帕特森 Edi Patterson
       阿历克斯·哈赛尔 Alex Hassell
       亚历克西斯·拉奥特 Alexis Louder
       麦克·多普德 Mike Dopud
       亚历山大·埃利奥特 Alexander Elliot
       斯蒂芬妮·西 Stephanie Sy
       安德烈·埃里克森 André Eriksen
       埃里克·阿塔瓦尔 Erik Athavale
       蜜特拉·苏里 Mitra Suri
◎简  介

  一支佣兵团队在圣诞夜突袭一栋富有人家的豪宅,并且挟持豪宅内的所有人为人质时,他们竟然遇到一个完全意想不到的强劲对手:圣诞老人(大卫·哈伯 饰),而且他会让他们知道圣诞老人并不是一个面容慈祥、心地善良的圣人。
  1. Video
  2. ID                                       : 1
  3. Format                                   : HEVC
  4. Format/Info                              : High Efficiency Video Coding
  5. Format profile                           : Main [email protected]@High
  6. HDR format                               : Dolby Vision, Version 1.0, dvhe.05.06, BL+RPU
  7. Codec ID                                 : V_MPEGH/ISO/HEVC
  8. Duration                                 : 1 h 51 min
  9. Bit rate                                 : 24.7 Mb/s
  10. Width                                    : 3 840 pixels
  11. Height                                   : 2 160 pixels
  12. Display aspect ratio                     : 16:9
  13. Frame rate mode                          : Constant
  14. Frame rate                               : 23.976 (24000/1001/189150) FPS
  15. Color space                              : YUV
  16. Chroma subsampling                       : 4:2:0 (Type 0)
  17. Bit depth                                : 10 bits
  18. Bits/(Pixel*Frame)                       : 0.124
  19. Stream size                              : 19.3 GiB (97%)
  20. Default                                  : No
  21. Forced                                   : No
  22. Color range                              : Full
  23. Audio
  24. ID                                       : 2
  25. Format                                   : E-AC-3 JOC
  26. Format/Info                              : Enhanced AC-3 with Joint Object Coding
  27. Commercial name                          : Dolby Digital Plus with Dolby Atmos
  28. Codec ID                                 : A_EAC3
  29. Duration                                 : 1 h 51 min
  30. Bit rate mode                            : Constant
  31. Bit rate                                 : 768 kb/s
  32. Channel(s)                               : 6 channels
  33. Channel layout                           : L R C LFE Ls Rs
  34. Sampling rate                            : 48.0 kHz
  35. Frame rate                               : 31.250 FPS (1536 SPF)
  36. Compression mode                         : Lossy
  37. Delay relative to video                  : 83 ms
  38. Stream size                              : 613 MiB (3%)
  39. Language                                 : English
  40. Service kind                             : Complete Main
  41. Default                                  : Yes
  42. Forced                                   : No
  43. Complexity index                         : 16
  44. Number of dynamic objects                : 15
  45. Bed channel count                        : 1 channel
  46. Bed channel configuration                : LFE
  47. Text #1
  48. ID                                       : 3
  49. Format                                   : UTF-8
  50. Codec ID                                 : S_TEXT/UTF8
  51. Codec ID/Info                            : UTF-8 Plain Text
  52. Duration                                 : 1 h 46 min
  53. Bit rate                                 : 51 b/s
  54. Frame rate                               : 0.236 FPS
  55. Count of elements                        : 1510
  56. Stream size                              : 40.3 KiB (0%)
  57. Language                                 : English
  58. Default                                  : No
  59. Forced                                   : No
  60. Text #2
  61. ID                                       : 4
  62. Format                                   : UTF-8
  63. Codec ID                                 : S_TEXT/UTF8
  64. Codec ID/Info                            : UTF-8 Plain Text
  65. Duration                                 : 1 h 51 min
  66. Bit rate                                 : 68 b/s
  67. Frame rate                               : 0.318 FPS
  68. Count of elements                        : 2132
  69. Stream size                              : 56.3 KiB (0%)
  70. Title                                    : SDH
  71. Language                                 : English
  72. Default                                  : No
  73. Forced                                   : No
  74. Text #3
  75. ID                                       : 5
  76. Format                                   : UTF-8
  77. Codec ID                                 : S_TEXT/UTF8
  78. Codec ID/Info                            : UTF-8 Plain Text
  79. Duration                                 : 1 h 50 min
  80. Bit rate                                 : 47 b/s
  81. Frame rate                               : 0.198 FPS
  82. Count of elements                        : 1314
  83. Stream size                              : 38.5 KiB (0%)
  84. Title                                    : Latin American
  85. Language                                 : Spanish
  86. Default                                  : No
  87. Forced                                   : No
  88. Menu
  89. 00:00:00.000                             : en:Chapter 1
  90. 00:04:52.000                             : en:Chapter 2
  91. 00:07:55.000                             : en:Chapter 3
  92. 00:13:14.000                             : en:Chapter 4
  93. 00:17:56.000                             : en:Chapter 5
  94. 00:21:24.000                             : en:Chapter 6
  95. 00:29:56.000                             : en:Chapter 7
  96. 00:33:29.000                             : en:Chapter 8
  97. 00:38:42.000                             : en:Chapter 9
  98. 00:44:14.000                             : en:Chapter 10
  99. 00:52:58.000                             : en:Chapter 11
  100. 00:58:52.000                             : en:Chapter 12
  101. 01:09:29.000                             : en:Chapter 13
  102. 01:15:18.000                             : en:Chapter 14
  103. 01:20:01.000                             : en:Chapter 15
  104. 01:24:39.000                             : en:Chapter 16
  105. 01:28:12.000                             : en:Chapter 17
  106. 01:32:52.000                             : en:Chapter 18
  107. 01:37:49.000                             : en:Chapter 19
  108. 01:45:32.000                             : en:Chapter 20
复制代码




                                       
                                       

                                       
                                       
                                       




Violent.Night.2022.2160p.MA.WEB-DL.DDP5.1.Atmos.DV.MKV.x265-FLUX.torrent (25.5 KB, 下载次数: 1)
回复

使用道具 举报

您需要登录后才可以回帖 登录 | 立即注册

本版积分规则

QQ|Archiver|手机版|小黑屋|蓝光电影网

GMT+8, 2023-2-8 03:14 , Processed in 0.052030 second(s), 28 queries .

Powered by Discuz! X3.4

Copyright © 2001-2020, Tencent Cloud.

快速回复 返回顶部 返回列表