找回密码
 立即注册

QQ登录

只需一步,快速开始

查看: 137|回复: 0

[UHD.HEVC] 金刚:骷髅岛 Kong.Skull.Island.2017.PROPER.2160p.BluRay.REMUX.HEVC.DTS-HD.MA.TrueHD.7.1.Atmos-FGT 54.83GB

[复制链接]

0

精华

0

好友

2

听众

新手上路

Rank: 2

蓝光币
5
发表于 2022-12-22 07:59:24 | 显示全部楼层 |阅读模式
[img][/img]

◎标  题 金刚:骷髅岛
◎译  名 Skull Island
◎片  名 Kong: Skull Island
◎年  代 2017
◎产  地 美国 / 中国大陆
◎类  别 动作 / 奇幻 / 冒险
◎语  言 英语 / 越南语
◎上映日期 2017-03-24(中国大陆) / 2017-02-28(伦敦首映) / 2017-03-10(美国)
◎IMDb评分 6.6/10 (301454人评价)
◎IMDb链接 https://www.imdb.com/title/tt3731562/
◎豆瓣评分 6.5/10 (215415人评价)
◎豆瓣链接 https://movie.douban.com/subject/26309788/
◎片  长 119分钟
◎导  演 乔丹·沃格特-罗伯茨 Jordan Vogt-Roberts
◎编  剧 丹·吉尔罗伊 Dan Gilroy
       麦克思·鲍伦斯坦 Max Borenstein
       德里克·康纳利 Derek Connolly
       约翰·盖汀斯 John Gatins
       梅里安·C·库珀 Merian C. Cooper
       埃德加·华莱士 Edgar Wallace
◎演  员 汤姆·希德勒斯顿 Tom Hiddleston
       塞缪尔·杰克逊 Samuel L. Jackson
       布丽·拉尔森 Brie Larson
       约翰·C·赖利 John C. Reilly
       约翰·古德曼 John Goodman
       科里·霍金斯 Corey Hawkins
       约翰·奥提兹 John Ortiz
       景甜 Tian Jing
       托比·凯贝尔 Toby Kebbell
       杰森·米切尔 Jason Mitchell
       谢伊·惠格姆 Shea Whigham
       托马斯·曼 Thomas Mann
       尤金·科德罗 Eugene Cordero
       马克·埃文·杰克逊 Marc Evan Jackson
       威尔·布里顿 Will Brittain
       石原贵雅 Miyavi
       理查德·詹金斯 Richard Jenkins
       艾琳·瑞秋 Allyn Rachel
       罗伯特·泰勒 Robert Taylor
       詹姆斯·M.康纳 James M. Connor
       托马斯·米德蒂奇 Thomas Middleditch
       布莱恩·萨卡 Brian Sacca
       乔恩·奎斯蒂德 Jon Quested
       达特·樊 Dat Phan
       吴辛惠 Cynthy Wu
       贝丝·肯尼迪 Beth Kennedy
       泰瑞·诺塔里 Terry Notary
       莫伊塞斯·阿里亚斯 Moises Arias
       拉吉·K.波斯 Raj K. Bose
       丹·格伦伯格 Dan Gruenberg
       Mitchell L. Johnson Mitchell L. Johnson
       凯文·肯特 Kevin Kent
       肖恩·麦克布莱德 Shawn McBride
       萨尔瓦多·梅伦达 Salvatore Merenda
       艾琳·莫里亚蒂 Erin Moriarty
       托西克欧尼扎瓦 Toshiko Onizawa
       尼克·罗宾森 Nick Robinson
       梁心羽 Jiaoying Liang
◎标  签 金刚 / 怪兽 / 美国 / 冒险 / 科幻 / 动作 / 奇幻 / 2017
◎简  介

    上世纪70年代,一支集结了科考队员、探险家、战地摄影记者、军人的探险队,冒险前往南太平洋上的神秘岛屿——骷髅岛。他们的到来惊扰了岛上之神——史上最大金刚。经过一番惨烈的激战之后,探险队员散落在了岛屿各处。此时,队员们才意识到这次探险并不是一次单纯的科考任务,而是去探索怪兽存在的证明。                                                                      在这片与世隔绝、危险密布的丛林,无数怪异的史前生物暗藏其中,时刻威胁着他们的生命。队员们还遇到了神秘的原始部落,金刚的身世和其守护岛屿的原因也被逐渐揭开,原来,恐怖阴森的骷髅岛上还蛰伏着更凶狠残暴的怪兽……
  1. Video
  2. ID                                       : 1
  3. ID in the original source medium         : 4113 (0x1011)
  4. Format                                   : HEVC
  5. Format/Info                              : High Efficiency Video Coding
  6. Format profile                           : Main [email protected]@High
  7. HDR format                               : SMPTE ST 2086, HDR10 compatible
  8. Codec ID                                 : V_MPEGH/ISO/HEVC
  9. Duration                                 : 1 h 58 min
  10. Bit rate                                 : 52.0 Mb/s
  11. Width                                    : 3 840 pixels
  12. Height                                   : 2 160 pixels
  13. Display aspect ratio                     : 16:9
  14. Frame rate mode                          : Constant
  15. Frame rate                               : 23.976 (24000/1001/189150) FPS
  16. Color space                              : YUV
  17. Chroma subsampling                       : 4:2:0 (Type 2)
  18. Bit depth                                : 10 bits
  19. Bits/(Pixel*Frame)                       : 0.261
  20. Stream size                              : 43.0 GiB (78%)
  21. Writing library                          : ATEME Titan File 3.8.3 (4.8.3.0)        
  22. Language                                 : English
  23. Default                                  : No
  24. Forced                                   : No
  25. Color range                              : Limited
  26. Color primaries                          : BT.2020
  27. Transfer characteristics                 : PQ
  28. Matrix coefficients                      : BT.2020 non-constant
  29. Mastering display color primaries        : Display P3
  30. Mastering display luminance              : min: 0.0050 cd/m2, max: 4000 cd/m2
  31. Maximum Content Light Level              : 456 cd/m2
  32. Maximum Frame-Average Light Level        : 151 cd/m2
  33. Original source medium                   : Blu-ray
  34. Audio #1
  35. ID                                       : 2
  36. ID in the original source medium         : 4352 (0x1100)
  37. Format                                   : MLP FBA 16-ch
  38. Format/Info                              : Meridian Lossless Packing FBA with 16-channel presentation
  39. Commercial name                          : Dolby TrueHD with Dolby Atmos
  40. Codec ID                                 : A_TRUEHD
  41. Duration                                 : 1 h 58 min
  42. Bit rate mode                            : Variable
  43. Bit rate                                 : 4 218 kb/s
  44. Maximum bit rate                         : 6 912 kb/s
  45. Channel(s)                               : 8 channels
  46. Channel layout                           : L R C LFE Ls Rs Lb Rb
  47. Sampling rate                            : 48.0 kHz
  48. Frame rate                               : 1 200.000 FPS (40 SPF)
  49. Bit depth                                : 24 bits
  50. Compression mode                         : Lossless
  51. Stream size                              : 3.49 GiB (6%)
  52. Title                                    : TrueHD 7.1 Atmos
  53. Language                                 : English
  54. Default                                  : Yes
  55. Forced                                   : No
  56. Original source medium                   : Blu-ray
  57. Number of dynamic objects                : 11
  58. Bed channel count                        : 1 channel
  59. Bed channel configuration                : LFE
  60. Audio #2
  61. ID                                       : 3
  62. Format                                   : DTS XLL
  63. Format/Info                              : Digital Theater Systems
  64. Commercial name                          : DTS-HD Master Audio
  65. Codec ID                                 : A_DTS
  66. Duration                                 : 1 h 58 min
  67. Bit rate mode                            : Variable
  68. Bit rate                                 : 4 205 kb/s
  69. Channel(s)                               : 8 channels
  70. Channel layout                           : C L R LFE Lb Rb Lss Rss
  71. Sampling rate                            : 48.0 kHz
  72. Frame rate                               : 93.750 FPS (512 SPF)
  73. Bit depth                                : 24 bits
  74. Compression mode                         : Lossless
  75. Stream size                              : 3.48 GiB (6%)
  76. Title                                    : DTS-HD MA 7.1
  77. Language                                 : English
  78. Default                                  : No
  79. Forced                                   : No
  80. Audio #3
  81. ID                                       : 4
  82. ID in the original source medium         : 4352 (0x1100)
  83. Format                                   : AC-3
  84. Format/Info                              : Audio Coding 3
  85. Commercial name                          : Dolby Digital
  86. Format settings                          : Dolby Surround EX
  87. Codec ID                                 : A_AC3
  88. Duration                                 : 1 h 58 min
  89. Bit rate mode                            : Constant
  90. Bit rate                                 : 448 kb/s
  91. Channel(s)                               : 6 channels
  92. Channel layout                           : L R C LFE Ls Rs
  93. Sampling rate                            : 48.0 kHz
  94. Frame rate                               : 31.250 FPS (1536 SPF)
  95. Compression mode                         : Lossy
  96. Stream size                              : 380 MiB (1%)
  97. Title                                    : DD 5.1
  98. Language                                 : English
  99. Service kind                             : Complete Main
  100. Default                                  : No
  101. Forced                                   : No
  102. Original source medium                   : Blu-ray
  103. Audio #4
  104. ID                                       : 5
  105. ID in the original source medium         : 4354 (0x1102)
  106. Format                                   : AC-3
  107. Format/Info                              : Audio Coding 3
  108. Commercial name                          : Dolby Digital
  109. Codec ID                                 : A_AC3
  110. Duration                                 : 1 h 58 min
  111. Bit rate mode                            : Constant
  112. Bit rate                                 : 448 kb/s
  113. Channel(s)                               : 6 channels
  114. Channel layout                           : L R C LFE Ls Rs
  115. Sampling rate                            : 48.0 kHz
  116. Frame rate                               : 31.250 FPS (1536 SPF)
  117. Compression mode                         : Lossy
  118. Stream size                              : 379 MiB (1%)
  119. Title                                    : DD 5.1
  120. Language                                 : English
  121. Service kind                             : Complete Main
  122. Default                                  : No
  123. Forced                                   : No
  124. Original source medium                   : Blu-ray
  125. Audio #5
  126. ID                                       : 6
  127. ID in the original source medium         : 4355 (0x1103)
  128. Format                                   : AC-3
  129. Format/Info                              : Audio Coding 3
  130. Commercial name                          : Dolby Digital
  131. Codec ID                                 : A_AC3
  132. Duration                                 : 1 h 58 min
  133. Bit rate mode                            : Constant
  134. Bit rate                                 : 448 kb/s
  135. Channel(s)                               : 6 channels
  136. Channel layout                           : L R C LFE Ls Rs
  137. Sampling rate                            : 48.0 kHz
  138. Frame rate                               : 31.250 FPS (1536 SPF)
  139. Compression mode                         : Lossy
  140. Stream size                              : 379 MiB (1%)
  141. Title                                    : DD 5.1
  142. Language                                 : French
  143. Service kind                             : Complete Main
  144. Default                                  : No
  145. Forced                                   : No
  146. Original source medium                   : Blu-ray
  147. Audio #6
  148. ID                                       : 7
  149. ID in the original source medium         : 4356 (0x1104)
  150. Format                                   : AC-3
  151. Format/Info                              : Audio Coding 3
  152. Commercial name                          : Dolby Digital
  153. Codec ID                                 : A_AC3
  154. Duration                                 : 1 h 58 min
  155. Bit rate mode                            : Constant
  156. Bit rate                                 : 448 kb/s
  157. Channel(s)                               : 6 channels
  158. Channel layout                           : L R C LFE Ls Rs
  159. Sampling rate                            : 48.0 kHz
  160. Frame rate                               : 31.250 FPS (1536 SPF)
  161. Compression mode                         : Lossy
  162. Stream size                              : 379 MiB (1%)
  163. Title                                    : DD 5.1
  164. Language                                 : Chinese
  165. Service kind                             : Complete Main
  166. Default                                  : No
  167. Forced                                   : No
  168. Original source medium                   : Blu-ray
  169. Audio #7
  170. ID                                       : 8
  171. ID in the original source medium         : 4357 (0x1105)
  172. Format                                   : AC-3
  173. Format/Info                              : Audio Coding 3
  174. Commercial name                          : Dolby Digital
  175. Codec ID                                 : A_AC3
  176. Duration                                 : 1 h 58 min
  177. Bit rate mode                            : Constant
  178. Bit rate                                 : 448 kb/s
  179. Channel(s)                               : 6 channels
  180. Channel layout                           : L R C LFE Ls Rs
  181. Sampling rate                            : 48.0 kHz
  182. Frame rate                               : 31.250 FPS (1536 SPF)
  183. Compression mode                         : Lossy
  184. Stream size                              : 379 MiB (1%)
  185. Title                                    : DD 5.1
  186. Language                                 : Spanish
  187. Service kind                             : Complete Main
  188. Default                                  : No
  189. Forced                                   : No
  190. Original source medium                   : Blu-ray
  191. Audio #8
  192. ID                                       : 9
  193. ID in the original source medium         : 4358 (0x1106)
  194. Format                                   : AC-3
  195. Format/Info                              : Audio Coding 3
  196. Commercial name                          : Dolby Digital
  197. Codec ID                                 : A_AC3
  198. Duration                                 : 1 h 58 min
  199. Bit rate mode                            : Constant
  200. Bit rate                                 : 448 kb/s
  201. Channel(s)                               : 6 channels
  202. Channel layout                           : L R C LFE Ls Rs
  203. Sampling rate                            : 48.0 kHz
  204. Frame rate                               : 31.250 FPS (1536 SPF)
  205. Compression mode                         : Lossy
  206. Stream size                              : 379 MiB (1%)
  207. Title                                    : DD 5.1
  208. Language                                 : Portuguese
  209. Service kind                             : Complete Main
  210. Default                                  : No
  211. Forced                                   : No
  212. Original source medium                   : Blu-ray
  213. Audio #9
  214. ID                                       : 10
  215. ID in the original source medium         : 4359 (0x1107)
  216. Format                                   : AC-3
  217. Format/Info                              : Audio Coding 3
  218. Commercial name                          : Dolby Digital
  219. Codec ID                                 : A_AC3
  220. Duration                                 : 1 h 58 min
  221. Bit rate mode                            : Constant
  222. Bit rate                                 : 448 kb/s
  223. Channel(s)                               : 6 channels
  224. Channel layout                           : L R C LFE Ls Rs
  225. Sampling rate                            : 48.0 kHz
  226. Frame rate                               : 31.250 FPS (1536 SPF)
  227. Compression mode                         : Lossy
  228. Stream size                              : 379 MiB (1%)
  229. Title                                    : DD 5.1
  230. Language                                 : Hindi
  231. Service kind                             : Complete Main
  232. Default                                  : No
  233. Forced                                   : No
  234. Original source medium                   : Blu-ray
  235. Audio #10
  236. ID                                       : 11
  237. ID in the original source medium         : 4360 (0x1108)
  238. Format                                   : AC-3
  239. Format/Info                              : Audio Coding 3
  240. Commercial name                          : Dolby Digital
  241. Codec ID                                 : A_AC3
  242. Duration                                 : 1 h 58 min
  243. Bit rate mode                            : Constant
  244. Bit rate                                 : 448 kb/s
  245. Channel(s)                               : 6 channels
  246. Channel layout                           : L R C LFE Ls Rs
  247. Sampling rate                            : 48.0 kHz
  248. Frame rate                               : 31.250 FPS (1536 SPF)
  249. Compression mode                         : Lossy
  250. Stream size                              : 379 MiB (1%)
  251. Title                                    : DD 5.1
  252. Language                                 : Hungarian
  253. Service kind                             : Complete Main
  254. Default                                  : No
  255. Forced                                   : No
  256. Original source medium                   : Blu-ray
  257. Audio #11
  258. ID                                       : 12
  259. ID in the original source medium         : 4361 (0x1109)
  260. Format                                   : AC-3
  261. Format/Info                              : Audio Coding 3
  262. Commercial name                          : Dolby Digital
  263. Codec ID                                 : A_AC3
  264. Duration                                 : 1 h 58 min
  265. Bit rate mode                            : Constant
  266. Bit rate                                 : 448 kb/s
  267. Channel(s)                               : 6 channels
  268. Channel layout                           : L R C LFE Ls Rs
  269. Sampling rate                            : 48.0 kHz
  270. Frame rate                               : 31.250 FPS (1536 SPF)
  271. Compression mode                         : Lossy
  272. Stream size                              : 379 MiB (1%)
  273. Title                                    : DD 5.1
  274. Language                                 : Tamil
  275. Service kind                             : Complete Main
  276. Default                                  : No
  277. Forced                                   : No
  278. Original source medium                   : Blu-ray
  279. Audio #12
  280. ID                                       : 13
  281. ID in the original source medium         : 4362 (0x110A)
  282. Format                                   : AC-3
  283. Format/Info                              : Audio Coding 3
  284. Commercial name                          : Dolby Digital
  285. Codec ID                                 : A_AC3
  286. Duration                                 : 1 h 58 min
  287. Bit rate mode                            : Constant
  288. Bit rate                                 : 448 kb/s
  289. Channel(s)                               : 6 channels
  290. Channel layout                           : L R C LFE Ls Rs
  291. Sampling rate                            : 48.0 kHz
  292. Frame rate                               : 31.250 FPS (1536 SPF)
  293. Compression mode                         : Lossy
  294. Stream size                              : 379 MiB (1%)
  295. Title                                    : DD 5.1
  296. Language                                 : Telugu
  297. Service kind                             : Complete Main
  298. Default                                  : No
  299. Forced                                   : No
  300. Original source medium                   : Blu-ray
  301. Audio #13
  302. ID                                       : 14
  303. ID in the original source medium         : 4363 (0x110B)
  304. Format                                   : AC-3
  305. Format/Info                              : Audio Coding 3
  306. Commercial name                          : Dolby Digital
  307. Codec ID                                 : A_AC3
  308. Duration                                 : 1 h 58 min
  309. Bit rate mode                            : Constant
  310. Bit rate                                 : 448 kb/s
  311. Channel(s)                               : 6 channels
  312. Channel layout                           : L R C LFE Ls Rs
  313. Sampling rate                            : 48.0 kHz
  314. Frame rate                               : 31.250 FPS (1536 SPF)
  315. Compression mode                         : Lossy
  316. Stream size                              : 379 MiB (1%)
  317. Title                                    : DD 5.1
  318. Language                                 : Thai
  319. Service kind                             : Complete Main
  320. Default                                  : No
  321. Forced                                   : No
  322. Original source medium                   : Blu-ray
  323. Audio #14
  324. ID                                       : 15
  325. ID in the original source medium         : 4364 (0x110C)
  326. Format                                   : AC-3
  327. Format/Info                              : Audio Coding 3
  328. Commercial name                          : Dolby Digital
  329. Codec ID                                 : A_AC3
  330. Duration                                 : 1 h 58 min
  331. Bit rate mode                            : Constant
  332. Bit rate                                 : 448 kb/s
  333. Channel(s)                               : 6 channels
  334. Channel layout                           : L R C LFE Ls Rs
  335. Sampling rate                            : 48.0 kHz
  336. Frame rate                               : 31.250 FPS (1536 SPF)
  337. Compression mode                         : Lossy
  338. Stream size                              : 379 MiB (1%)
  339. Title                                    : DD 5.1
  340. Language                                 : Turkish
  341. Service kind                             : Complete Main
  342. Default                                  : No
  343. Forced                                   : No
  344. Original source medium                   : Blu-ray
  345. Audio #15
  346. ID                                       : 16
  347. ID in the original source medium         : 4365 (0x110D)
  348. Format                                   : AC-3
  349. Format/Info                              : Audio Coding 3
  350. Commercial name                          : Dolby Digital
  351. Format settings                          : Dolby Surround
  352. Codec ID                                 : A_AC3
  353. Duration                                 : 1 h 58 min
  354. Bit rate mode                            : Constant
  355. Bit rate                                 : 192 kb/s
  356. Channel(s)                               : 2 channels
  357. Channel layout                           : L R
  358. Sampling rate                            : 48.0 kHz
  359. Frame rate                               : 31.250 FPS (1536 SPF)
  360. Compression mode                         : Lossy
  361. Stream size                              : 163 MiB (0%)
  362. Title                                    : DD 2.0
  363. Language                                 : English
  364. Service kind                             : Complete Main
  365. Default                                  : No
  366. Forced                                   : No
  367. Original source medium                   : Blu-ray
  368. Text #1
  369. ID                                       : 17
  370. Format                                   : UTF-8
  371. Codec ID                                 : S_TEXT/UTF8
  372. Codec ID/Info                            : UTF-8 Plain Text
  373. Duration                                 : 1 h 55 min
  374. Bit rate                                 : 46 b/s
  375. Frame rate                               : 0.180 FPS
  376. Count of elements                        : 1241
  377. Stream size                              : 39.0 KiB (0%)
  378. Language                                 : English
  379. Default                                  : Yes
  380. Forced                                   : No
  381. Text #2
  382. ID                                       : 18
  383. Format                                   : UTF-8
  384. Codec ID                                 : S_TEXT/UTF8
  385. Codec ID/Info                            : UTF-8 Plain Text
  386. Duration                                 : 1 h 58 min
  387. Bit rate                                 : 50 b/s
  388. Frame rate                               : 0.215 FPS
  389. Count of elements                        : 1522
  390. Stream size                              : 43.6 KiB (0%)
  391. Title                                    : SDH
  392. Language                                 : English
  393. Default                                  : No
  394. Forced                                   : No
  395. Text #3
  396. ID                                       : 19
  397. ID in the original source medium         : 4768 (0x12A0)
  398. Format                                   : PGS
  399. Muxing mode                              : zlib
  400. Codec ID                                 : S_HDMV/PGS
  401. Codec ID/Info                            : Picture based subtitle format used on BDs/HD-DVDs
  402. Duration                                 : 1 h 58 min
  403. Bit rate                                 : 31.4 kb/s
  404. Frame rate                               : 0.431 FPS
  405. Count of elements                        : 3060
  406. Stream size                              : 26.6 MiB (0%)
  407. Language                                 : English
  408. Default                                  : No
  409. Forced                                   : No
  410. Original source medium                   : Blu-ray
  411. Text #4
  412. ID                                       : 20
  413. ID in the original source medium         : 4769 (0x12A1)
  414. Format                                   : PGS
  415. Muxing mode                              : zlib
  416. Codec ID                                 : S_HDMV/PGS
  417. Codec ID/Info                            : Picture based subtitle format used on BDs/HD-DVDs
  418. Duration                                 : 1 h 57 min
  419. Bit rate                                 : 21.9 kb/s
  420. Frame rate                               : 0.342 FPS
  421. Count of elements                        : 2420
  422. Stream size                              : 18.4 MiB (0%)
  423. Language                                 : French
  424. Default                                  : No
  425. Forced                                   : No
  426. Original source medium                   : Blu-ray
  427. Text #5
  428. ID                                       : 21
  429. ID in the original source medium         : 4770 (0x12A2)
  430. Format                                   : PGS
  431. Muxing mode                              : zlib
  432. Codec ID                                 : S_HDMV/PGS
  433. Codec ID/Info                            : Picture based subtitle format used on BDs/HD-DVDs
  434. Duration                                 : 1 h 57 min
  435. Bit rate                                 : 24.7 kb/s
  436. Frame rate                               : 0.349 FPS
  437. Count of elements                        : 2468
  438. Stream size                              : 20.8 MiB (0%)
  439. Language                                 : Chinese
  440. Default                                  : No
  441. Forced                                   : No
  442. Original source medium                   : Blu-ray
  443. Text #6
  444. ID                                       : 22
  445. ID in the original source medium         : 4771 (0x12A3)
  446. Format                                   : PGS
  447. Muxing mode                              : zlib
  448. Codec ID                                 : S_HDMV/PGS
  449. Codec ID/Info                            : Picture based subtitle format used on BDs/HD-DVDs
  450. Duration                                 : 1 h 58 min
  451. Bit rate                                 : 24.9 kb/s
  452. Frame rate                               : 0.361 FPS
  453. Count of elements                        : 2566
  454. Stream size                              : 21.0 MiB (0%)
  455. Language                                 : Chinese
  456. Default                                  : No
  457. Forced                                   : No
  458. Original source medium                   : Blu-ray
  459. Text #7
  460. ID                                       : 23
  461. ID in the original source medium         : 4772 (0x12A4)
  462. Format                                   : PGS
  463. Muxing mode                              : zlib
  464. Codec ID                                 : S_HDMV/PGS
  465. Codec ID/Info                            : Picture based subtitle format used on BDs/HD-DVDs
  466. Duration                                 : 1 h 57 min
  467. Bit rate                                 : 24.4 kb/s
  468. Frame rate                               : 0.366 FPS
  469. Count of elements                        : 2586
  470. Stream size                              : 20.6 MiB (0%)
  471. Language                                 : Chinese
  472. Default                                  : No
  473. Forced                                   : No
  474. Original source medium                   : Blu-ray
  475. Text #8
  476. ID                                       : 24
  477. ID in the original source medium         : 4773 (0x12A5)
  478. Format                                   : PGS
  479. Muxing mode                              : zlib
  480. Codec ID                                 : S_HDMV/PGS
  481. Codec ID/Info                            : Picture based subtitle format used on BDs/HD-DVDs
  482. Duration                                 : 1 h 57 min
  483. Bit rate                                 : 15.8 kb/s
  484. Frame rate                               : 0.359 FPS
  485. Count of elements                        : 2540
  486. Stream size                              : 13.3 MiB (0%)
  487. Language                                 : Korean
  488. Default                                  : No
  489. Forced                                   : No
  490. Original source medium                   : Blu-ray
  491. Text #9
  492. ID                                       : 25
  493. ID in the original source medium         : 4774 (0x12A6)
  494. Format                                   : PGS
  495. Muxing mode                              : zlib
  496. Codec ID                                 : S_HDMV/PGS
  497. Codec ID/Info                            : Picture based subtitle format used on BDs/HD-DVDs
  498. Duration                                 : 1 h 57 min
  499. Bit rate                                 : 26.5 kb/s
  500. Frame rate                               : 0.363 FPS
  501. Count of elements                        : 2562
  502. Stream size                              : 22.3 MiB (0%)
  503. Language                                 : Spanish
  504. Default                                  : No
  505. Forced                                   : No
  506. Original source medium                   : Blu-ray
  507. Text #10
  508. ID                                       : 26
  509. ID in the original source medium         : 4775 (0x12A7)
  510. Format                                   : PGS
  511. Muxing mode                              : zlib
  512. Codec ID                                 : S_HDMV/PGS
  513. Codec ID/Info                            : Picture based subtitle format used on BDs/HD-DVDs
  514. Duration                                 : 1 h 57 min
  515. Bit rate                                 : 26.0 kb/s
  516. Frame rate                               : 0.360 FPS
  517. Count of elements                        : 2544
  518. Stream size                              : 21.9 MiB (0%)
  519. Language                                 : Portuguese
  520. Default                                  : No
  521. Forced                                   : No
  522. Original source medium                   : Blu-ray
  523. Text #11
  524. ID                                       : 27
  525. ID in the original source medium         : 4776 (0x12A8)
  526. Format                                   : PGS
  527. Muxing mode                              : zlib
  528. Codec ID                                 : S_HDMV/PGS
  529. Codec ID/Info                            : Picture based subtitle format used on BDs/HD-DVDs
  530. Duration                                 : 1 h 57 min
  531. Bit rate                                 : 13.7 kb/s
  532. Frame rate                               : 0.359 FPS
  533. Count of elements                        : 2534
  534. Stream size                              : 11.5 MiB (0%)
  535. Language                                 : Arabic
  536. Default                                  : No
  537. Forced                                   : No
  538. Original source medium                   : Blu-ray
  539. Text #12
  540. ID                                       : 28
  541. ID in the original source medium         : 4777 (0x12A9)
  542. Format                                   : PGS
  543. Muxing mode                              : zlib
  544. Codec ID                                 : S_HDMV/PGS
  545. Codec ID/Info                            : Picture based subtitle format used on BDs/HD-DVDs
  546. Duration                                 : 1 h 57 min
  547. Bit rate                                 : 25.1 kb/s
  548. Frame rate                               : 0.345 FPS
  549. Count of elements                        : 2438
  550. Stream size                              : 21.1 MiB (0%)
  551. Language                                 : Croatian
  552. Default                                  : No
  553. Forced                                   : No
  554. Original source medium                   : Blu-ray
  555. Text #13
  556. ID                                       : 29
  557. ID in the original source medium         : 4778 (0x12AA)
  558. Format                                   : PGS
  559. Muxing mode                              : zlib
  560. Codec ID                                 : S_HDMV/PGS
  561. Codec ID/Info                            : Picture based subtitle format used on BDs/HD-DVDs
  562. Duration                                 : 1 h 57 min
  563. Bit rate                                 : 22.5 kb/s
  564. Frame rate                               : 0.241 FPS
  565. Count of elements                        : 1704
  566. Stream size                              : 19.0 MiB (0%)
  567. Language                                 : Danish
  568. Default                                  : No
  569. Forced                                   : No
  570. Original source medium                   : Blu-ray
  571. Text #14
  572. ID                                       : 30
  573. ID in the original source medium         : 4779 (0x12AB)
  574. Format                                   : PGS
  575. Muxing mode                              : zlib
  576. Codec ID                                 : S_HDMV/PGS
  577. Codec ID/Info                            : Picture based subtitle format used on BDs/HD-DVDs
  578. Duration                                 : 1 h 57 min
  579. Bit rate                                 : 23.4 kb/s
  580. Frame rate                               : 0.356 FPS
  581. Count of elements                        : 2512
  582. Stream size                              : 19.8 MiB (0%)
  583. Language                                 : Finnish
  584. Default                                  : No
  585. Forced                                   : No
  586. Original source medium                   : Blu-ray
  587. Text #15
  588. ID                                       : 31
  589. ID in the original source medium         : 4780 (0x12AC)
  590. Format                                   : PGS
  591. Muxing mode                              : zlib
  592. Codec ID                                 : S_HDMV/PGS
  593. Codec ID/Info                            : Picture based subtitle format used on BDs/HD-DVDs
  594. Duration                                 : 1 h 57 min
  595. Bit rate                                 : 26.3 kb/s
  596. Frame rate                               : 0.325 FPS
  597. Count of elements                        : 2298
  598. Stream size                              : 22.1 MiB (0%)
  599. Language                                 : Greek
  600. Default                                  : No
  601. Forced                                   : No
  602. Original source medium                   : Blu-ray
  603. Text #16
  604. ID                                       : 32
  605. ID in the original source medium         : 4781 (0x12AD)
  606. Format                                   : PGS
  607. Muxing mode                              : zlib
  608. Codec ID                                 : S_HDMV/PGS
  609. Codec ID/Info                            : Picture based subtitle format used on BDs/HD-DVDs
  610. Duration                                 : 1 h 57 min
  611. Bit rate                                 : 21.0 kb/s
  612. Frame rate                               : 0.365 FPS
  613. Count of elements                        : 2580
  614. Stream size                              : 17.7 MiB (0%)
  615. Language                                 : Hebrew
  616. Default                                  : No
  617. Forced                                   : No
  618. Original source medium                   : Blu-ray
  619. Text #17
  620. ID                                       : 33
  621. ID in the original source medium         : 4782 (0x12AE)
  622. Format                                   : PGS
  623. Muxing mode                              : zlib
  624. Codec ID                                 : S_HDMV/PGS
  625. Codec ID/Info                            : Picture based subtitle format used on BDs/HD-DVDs
  626. Duration                                 : 1 h 57 min
  627. Bit rate                                 : 24.9 kb/s
  628. Frame rate                               : 0.356 FPS
  629. Count of elements                        : 2514
  630. Stream size                              : 21.0 MiB (0%)
  631. Language                                 : Hungarian
  632. Default                                  : No
  633. Forced                                   : No
  634. Original source medium                   : Blu-ray
  635. Text #18
  636. ID                                       : 34
  637. ID in the original source medium         : 4783 (0x12AF)
  638. Format                                   : PGS
  639. Muxing mode                              : zlib
  640. Codec ID                                 : S_HDMV/PGS
  641. Codec ID/Info                            : Picture based subtitle format used on BDs/HD-DVDs
  642. Duration                                 : 1 h 57 min
  643. Bit rate                                 : 22.8 kb/s
  644. Frame rate                               : 0.275 FPS
  645. Count of elements                        : 1940
  646. Stream size                              : 19.2 MiB (0%)
  647. Language                                 : Norwegian
  648. Default                                  : No
  649. Forced                                   : No
  650. Original source medium                   : Blu-ray
  651. Text #19
  652. ID                                       : 35
  653. ID in the original source medium         : 4784 (0x12B0)
  654. Format                                   : PGS
  655. Muxing mode                              : zlib
  656. Codec ID                                 : S_HDMV/PGS
  657. Codec ID/Info                            : Picture based subtitle format used on BDs/HD-DVDs
  658. Duration                                 : 1 h 57 min
  659. Bit rate                                 : 26.9 kb/s
  660. Frame rate                               : 0.361 FPS
  661. Count of elements                        : 2550
  662. Stream size                              : 22.6 MiB (0%)
  663. Language                                 : Portuguese
  664. Default                                  : No
  665. Forced                                   : No
  666. Original source medium                   : Blu-ray
  667. Text #20
  668. ID                                       : 36
  669. ID in the original source medium         : 4785 (0x12B1)
  670. Format                                   : PGS
  671. Muxing mode                              : zlib
  672. Codec ID                                 : S_HDMV/PGS
  673. Codec ID/Info                            : Picture based subtitle format used on BDs/HD-DVDs
  674. Duration                                 : 1 h 57 min
  675. Bit rate                                 : 24.5 kb/s
  676. Frame rate                               : 0.332 FPS
  677. Count of elements                        : 2344
  678. Stream size                              : 20.7 MiB (0%)
  679. Language                                 : Romanian
  680. Default                                  : No
  681. Forced                                   : No
  682. Original source medium                   : Blu-ray
  683. Text #21
  684. ID                                       : 37
  685. ID in the original source medium         : 4786 (0x12B2)
  686. Format                                   : PGS
  687. Muxing mode                              : zlib
  688. Codec ID                                 : S_HDMV/PGS
  689. Codec ID/Info                            : Picture based subtitle format used on BDs/HD-DVDs
  690. Duration                                 : 1 h 57 min
  691. Bit rate                                 : 24.0 kb/s
  692. Frame rate                               : 0.356 FPS
  693. Count of elements                        : 2518
  694. Stream size                              : 20.3 MiB (0%)
  695. Language                                 : Swedish
  696. Default                                  : No
  697. Forced                                   : No
  698. Original source medium                   : Blu-ray
  699. Text #22
  700. ID                                       : 38
  701. ID in the original source medium         : 4787 (0x12B3)
  702. Format                                   : PGS
  703. Muxing mode                              : zlib
  704. Codec ID                                 : S_HDMV/PGS
  705. Codec ID/Info                            : Picture based subtitle format used on BDs/HD-DVDs
  706. Duration                                 : 1 h 57 min
  707. Bit rate                                 : 25.9 kb/s
  708. Frame rate                               : 0.364 FPS
  709. Count of elements                        : 2574
  710. Stream size                              : 21.8 MiB (0%)
  711. Language                                 : Thai
  712. Default                                  : No
  713. Forced                                   : No
  714. Original source medium                   : Blu-ray
  715. Text #23
  716. ID                                       : 39
  717. ID in the original source medium         : 4788 (0x12B4)
  718. Format                                   : PGS
  719. Muxing mode                              : zlib
  720. Codec ID                                 : S_HDMV/PGS
  721. Codec ID/Info                            : Picture based subtitle format used on BDs/HD-DVDs
  722. Duration                                 : 1 h 57 min
  723. Bit rate                                 : 25.2 kb/s
  724. Frame rate                               : 0.342 FPS
  725. Count of elements                        : 2420
  726. Stream size                              : 21.2 MiB (0%)
  727. Language                                 : Turkish
  728. Default                                  : No
  729. Forced                                   : No
  730. Original source medium                   : Blu-ray
  731. Text #24
  732. ID                                       : 40
  733. ID in the original source medium         : 4789 (0x12B5)
  734. Format                                   : PGS
  735. Muxing mode                              : zlib
  736. Codec ID                                 : S_HDMV/PGS
  737. Codec ID/Info                            : Picture based subtitle format used on BDs/HD-DVDs
  738. Duration                                 : 1 h 58 min
  739. Bit rate                                 : 61.3 kb/s
  740. Frame rate                               : 0.613 FPS
  741. Count of elements                        : 4354
  742. Stream size                              : 51.9 MiB (0%)
  743. Language                                 : Chinese
  744. Default                                  : No
  745. Forced                                   : No
  746. Original source medium                   : Blu-ray
  747. Text #25
  748. ID                                       : 41
  749. ID in the original source medium         : 4790 (0x12B6)
  750. Format                                   : PGS
  751. Muxing mode                              : zlib
  752. Codec ID                                 : S_HDMV/PGS
  753. Codec ID/Info                            : Picture based subtitle format used on BDs/HD-DVDs
  754. Duration                                 : 1 h 57 min
  755. Bit rate                                 : 889 b/s
  756. Frame rate                               : 0.009 FPS
  757. Count of elements                        : 62
  758. Stream size                              : 767 KiB (0%)
  759. Language                                 : French
  760. Default                                  : No
  761. Forced                                   : No
  762. Original source medium                   : Blu-ray
  763. Text #26
  764. ID                                       : 42
  765. ID in the original source medium         : 4791 (0x12B7)
  766. Format                                   : PGS
  767. Muxing mode                              : zlib
  768. Codec ID                                 : S_HDMV/PGS
  769. Codec ID/Info                            : Picture based subtitle format used on BDs/HD-DVDs
  770. Duration                                 : 1 h 58 min
  771. Bit rate                                 : 1 732 b/s
  772. Frame rate                               : 0.024 FPS
  773. Count of elements                        : 172
  774. Stream size                              : 1.47 MiB (0%)
  775. Language                                 : Chinese
  776. Default                                  : No
  777. Forced                                   : No
  778. Original source medium                   : Blu-ray
  779. Text #27
  780. ID                                       : 43
  781. ID in the original source medium         : 4792 (0x12B8)
  782. Format                                   : PGS
  783. Muxing mode                              : zlib
  784. Codec ID                                 : S_HDMV/PGS
  785. Codec ID/Info                            : Picture based subtitle format used on BDs/HD-DVDs
  786. Duration                                 : 1 h 54 min
  787. Bit rate                                 : 635 b/s
  788. Frame rate                               : 0.009 FPS
  789. Count of elements                        : 62
  790. Stream size                              : 535 KiB (0%)
  791. Language                                 : Spanish
  792. Default                                  : No
  793. Forced                                   : No
  794. Original source medium                   : Blu-ray
  795. Text #28
  796. ID                                       : 44
  797. ID in the original source medium         : 4793 (0x12B9)
  798. Format                                   : PGS
  799. Muxing mode                              : zlib
  800. Codec ID                                 : S_HDMV/PGS
  801. Codec ID/Info                            : Picture based subtitle format used on BDs/HD-DVDs
  802. Duration                                 : 1 h 54 min
  803. Bit rate                                 : 505 b/s
  804. Frame rate                               : 0.008 FPS
  805. Count of elements                        : 54
  806. Stream size                              : 426 KiB (0%)
  807. Language                                 : Portuguese
  808. Default                                  : No
  809. Forced                                   : No
  810. Original source medium                   : Blu-ray
  811. Text #29
  812. ID                                       : 45
  813. ID in the original source medium         : 4794 (0x12BA)
  814. Format                                   : PGS
  815. Muxing mode                              : zlib
  816. Codec ID                                 : S_HDMV/PGS
  817. Codec ID/Info                            : Picture based subtitle format used on BDs/HD-DVDs
  818. Duration                                 : 1 h 54 min
  819. Bit rate                                 : 550 b/s
  820. Frame rate                               : 0.008 FPS
  821. Count of elements                        : 58
  822. Stream size                              : 464 KiB (0%)
  823. Language                                 : Hindi
  824. Default                                  : No
  825. Forced                                   : No
  826. Original source medium                   : Blu-ray
  827. Text #30
  828. ID                                       : 46
  829. ID in the original source medium         : 4795 (0x12BB)
  830. Format                                   : PGS
  831. Muxing mode                              : zlib
  832. Codec ID                                 : S_HDMV/PGS
  833. Codec ID/Info                            : Picture based subtitle format used on BDs/HD-DVDs
  834. Duration                                 : 1 h 57 min
  835. Bit rate                                 : 572 b/s
  836. Frame rate                               : 0.008 FPS
  837. Count of elements                        : 60
  838. Stream size                              : 493 KiB (0%)
  839. Language                                 : Hungarian
  840. Default                                  : No
  841. Forced                                   : No
  842. Original source medium                   : Blu-ray
  843. Text #31
  844. ID                                       : 47
  845. ID in the original source medium         : 4796 (0x12BC)
  846. Format                                   : PGS
  847. Muxing mode                              : zlib
  848. Codec ID                                 : S_HDMV/PGS
  849. Codec ID/Info                            : Picture based subtitle format used on BDs/HD-DVDs
  850. Duration                                 : 1 h 54 min
  851. Bit rate                                 : 497 b/s
  852. Frame rate                               : 0.008 FPS
  853. Count of elements                        : 58
  854. Stream size                              : 419 KiB (0%)
  855. Language                                 : Tamil
  856. Default                                  : No
  857. Forced                                   : No
  858. Original source medium                   : Blu-ray
  859. Text #32
  860. ID                                       : 48
  861. ID in the original source medium         : 4797 (0x12BD)
  862. Format                                   : PGS
  863. Muxing mode                              : zlib
  864. Codec ID                                 : S_HDMV/PGS
  865. Codec ID/Info                            : Picture based subtitle format used on BDs/HD-DVDs
  866. Duration                                 : 1 h 54 min
  867. Bit rate                                 : 363 b/s
  868. Frame rate                               : 0.008 FPS
  869. Count of elements                        : 58
  870. Stream size                              : 306 KiB (0%)
  871. Language                                 : Telugu
  872. Default                                  : No
  873. Forced                                   : No
  874. Original source medium                   : Blu-ray
  875. Text #33
  876. ID                                       : 49
  877. ID in the original source medium         : 4798 (0x12BE)
  878. Format                                   : PGS
  879. Muxing mode                              : zlib
  880. Codec ID                                 : S_HDMV/PGS
  881. Codec ID/Info                            : Picture based subtitle format used on BDs/HD-DVDs
  882. Duration                                 : 1 h 54 min
  883. Bit rate                                 : 719 b/s
  884. Frame rate                               : 0.012 FPS
  885. Count of elements                        : 80
  886. Stream size                              : 606 KiB (0%)
  887. Language                                 : Thai
  888. Default                                  : No
  889. Forced                                   : No
  890. Original source medium                   : Blu-ray
  891. Text #34
  892. ID                                       : 50
  893. ID in the original source medium         : 4799 (0x12BF)
  894. Format                                   : PGS
  895. Muxing mode                              : zlib
  896. Codec ID                                 : S_HDMV/PGS
  897. Codec ID/Info                            : Picture based subtitle format used on BDs/HD-DVDs
  898. Duration                                 : 1 h 57 min
  899. Bit rate                                 : 611 b/s
  900. Frame rate                               : 0.010 FPS
  901. Count of elements                        : 68
  902. Stream size                              : 528 KiB (0%)
  903. Language                                 : Turkish
  904. Default                                  : No
  905. Forced                                   : No
  906. Original source medium                   : Blu-ray
  907. Menu
  908. 00:00:00.000                             : en:Chapter 01
  909. 00:08:54.659                             : en:Chapter 02
  910. 00:19:51.690                             : en:Chapter 03
  911. 00:30:00.799                             : en:Chapter 04
  912. 00:40:00.022                             : en:Chapter 05
  913. 00:50:13.093                             : en:Chapter 06
  914. 01:00:49.646                             : en:Chapter 07
  915. 01:10:29.516                             : en:Chapter 08
  916. 01:18:05.639                             : en:Chapter 09
  917. 01:30:12.573                             : en:Chapter 10
  918. 01:39:08.943                             : en:Chapter 11
  919. 01:47:05.752                             : en:Chapter 12
复制代码




                                       
                                       

                                       
                                       
                                       




金刚:骷髅岛 Kong.Skull.Island.2017.PROPER.2160p.BluRay.REMUX.HEVC.DTS-HD.MA.TrueHD.7.1.Atmos-FGT 54.83GB

Kong.Skull.Island.2017.PROPER.2160p.BluRay.REMUX.HEVC.DTS-HD.MA.TrueHD.7.1.Atmos.torrent

69.22 KB, 下载次数: 4, 下载积分: 蓝光币 -2

回复

使用道具 举报

您需要登录后才可以回帖 登录 | 立即注册

本版积分规则

QQ|Archiver|手机版|小黑屋|蓝光电影网

GMT+8, 2023-2-8 02:17 , Processed in 0.059689 second(s), 28 queries .

Powered by Discuz! X3.4

Copyright © 2001-2020, Tencent Cloud.

快速回复 返回顶部 返回列表