找回密码
 立即注册

QQ登录

只需一步,快速开始

查看: 103|回复: 0

[UHD.HEVC] 头号玩家 Ready.Player.One.2018.PROPER.2160p.BluRay.REMUX.HEVC.DTS-HD.MA.TrueHD.7.1.Atmos-FGT 75.94GB

[复制链接]

0

精华

0

好友

2

听众

新手上路

Rank: 2

蓝光币
5
发表于 2022-12-22 07:59:15 | 显示全部楼层 |阅读模式
[img][/img]

◎标  题 头号玩家
◎译  名 玩家一号 / 挑战者1号(港) / 一级玩家(台) / 一号玩家
◎片  名 Ready Player One
◎年  代 2018
◎产  地 美国
◎类  别 动作 / 科幻 / 冒险
◎语  言 英语 / 日语 / 汉语普通话
◎上映日期 2018-03-30(中国大陆) / 2018-03-11(西南偏南电影节) / 2018-03-29(美国)
◎IMDb评分 7.4/10 (404868人评价)
◎IMDb链接 https://www.imdb.com/title/tt1677720/
◎豆瓣评分 8.7/10 (1191445人评价)
◎豆瓣链接 https://movie.douban.com/subject/4920389/
◎片  长 140分钟
◎导  演 史蒂文·斯皮尔伯格 Steven Spielberg
◎编  剧 扎克·佩恩 Zak Penn
       恩斯特·克莱恩 Ernest Cline
       埃里克·伊森 Eric Eason
◎演  员 泰伊·谢里丹 Tye Sheridan
       奥利维亚·库克 Olivia Cooke
       本·门德尔森 Ben Mendelsohn
       马克·里朗斯 Mark Rylance
       丽娜·维特 Lena Waithe
       森崎温 Win Morisaki
       赵家正 Philip Zhao
       西蒙·佩吉 Simon Pegg
       T·J·米勒 T.J. Miller
       汉娜·乔恩-卡门 Hannah John-Kamen
       拉尔夫·伊内森 Ralph Ineson
       苏珊·林奇 Susan Lynch
       克莱尔·希金斯 Clare Higgins
       劳伦斯·斯佩尔曼 Laurence Spellman
       佩蒂塔·维克斯 Perdita Weeks
       艾萨克·安德鲁斯 Isaac Andrews
       基特·康纳 Kit Connor
       杰登·福拉-奈特 Jayden Fowora-Knight
       罗娜·莫里森 Rona Morison
       丹尼尔·祖尔格哈德利 Daniel Zolghadri
       阿隆索·阿尔瓦雷斯 Alonso Alvarez
       阿玛尼·杰克森 Armani Jackson
       露露·威尔逊 Lulu Wilson
       内特·莫汗 Neet Mohan
       朱莉娅·尼克森 Julia Nickson
       利蒂希娅·赖特 Letitia Wright
       雅各布·贝特兰德 Jacob Bertrand
       埃里克·西格蒙德森 Eric Sigmundsson
       罗伯特·吉尔贝托 Robert Gilbert
       迈克尔·怀德曼 Michael Wildman
       图尔洛夫·科维里 Turlough Convery
       麦肯娜·格瑞丝 Mckenna Grace
       程武 Wu Cheng
       史蒂文·斯皮尔伯格 Steven Spielberg
       亚伦·史维斯查 Alan Silvestri
       雅努什·卡明斯基 Janusz Kaminski
       迈克尔·卡恩 Michael Kahn
       亚当·斯托克豪森 Adam Stockhausen
       弗格斯·克莱格 Fergus Clegg
       罗杰·盖耶特 Roger Guyett
       大卫·谢克 David Shirk
       马修·E·巴特勒 Matthew E. Butler
       特里·马里奥特 Terry Marriott
       格拉迪·科菲 Grady Cofer
◎标  签 科幻 / 虚拟现实 / 游戏 / VR / 美国 / 冒险 / 动作 / 2018
◎简  介

  故事发生在2045年,虚拟现实技术已经渗透到了人类生活的每一个角落。詹姆斯哈利迪(马克·里朗斯 Mark Rylance 饰)一手建造了名为“绿洲”的虚拟现实游戏世界,临终前,他宣布自己在游戏中设置了一个彩蛋,找到这枚彩蛋的人即可成为绿洲的继承人。要找到这枚彩蛋,必须先获得三把钥匙,而寻找钥匙的线索就隐藏在詹姆斯的过往之中。                                    
                                韦德(泰尔·谢里丹 Tye Sheridan 饰)、艾奇(丽娜·维特 Lena Waithe 饰)、大东(森崎温 饰)和修(赵家正 饰)是游戏中的好友,和之后遇见的阿尔忒弥斯(奥利维亚·库克 Olivia Cooke 饰)一起,五人踏上了寻找彩蛋的征程。他们所要对抗的,是名为诺兰索伦托(本·门德尔森 Ben Mendelsohn 饰)的大资本家。
  1. Video
  2. ID                                       : 1
  3. ID in the original source medium         : 4113 (0x1011)
  4. Format                                   : HEVC
  5. Format/Info                              : High Efficiency Video Coding
  6. Format profile                           : Main [email protected]@High
  7. HDR format                               : Dolby Vision, Version 1.0, dvhe.07.06, BL+EL+RPU, Blu-ray compatible / SMPTE ST 2086, HDR10 compatible
  8. Codec ID                                 : V_MPEGH/ISO/HEVC
  9. Duration                                 : 2 h 19 min
  10. Bit rate                                 : 63.0 Mb/s
  11. Width                                    : 3 840 pixels
  12. Height                                   : 2 160 pixels
  13. Display aspect ratio                     : 16:9
  14. Frame rate mode                          : Constant
  15. Frame rate                               : 23.976 (24000/1001/189150) FPS
  16. Color space                              : YUV
  17. Chroma subsampling                       : 4:2:0 (Type 2)
  18. Bit depth                                : 10 bits
  19. Bits/(Pixel*Frame)                       : 0.317
  20. Stream size                              : 61.6 GiB (81%)
  21. Language                                 : English
  22. Default                                  : No
  23. Forced                                   : No
  24. Color range                              : Limited
  25. Color primaries                          : BT.2020
  26. Transfer characteristics                 : PQ
  27. Matrix coefficients                      : BT.2020 non-constant
  28. Mastering display color primaries        : BT.2020
  29. Mastering display luminance              : min: 0.0050 cd/m2, max: 4000 cd/m2
  30. Maximum Content Light Level              : 725 cd/m2
  31. Maximum Frame-Average Light Level        : 162 cd/m2
  32. Original source medium                   : Blu-ray
  33. Audio #1
  34. ID                                       : 2
  35. ID in the original source medium         : 4352 (0x1100)
  36. Format                                   : MLP FBA 16-ch
  37. Format/Info                              : Meridian Lossless Packing FBA with 16-channel presentation
  38. Commercial name                          : Dolby TrueHD with Dolby Atmos
  39. Codec ID                                 : A_TRUEHD
  40. Duration                                 : 2 h 19 min
  41. Bit rate mode                            : Variable
  42. Bit rate                                 : 3 218 kb/s
  43. Maximum bit rate                         : 5 004 kb/s
  44. Channel(s)                               : 8 channels
  45. Channel layout                           : L R C LFE Ls Rs Lb Rb
  46. Sampling rate                            : 48.0 kHz
  47. Frame rate                               : 1 200.000 FPS (40 SPF)
  48. Bit depth                                : 24 bits
  49. Compression mode                         : Lossless
  50. Stream size                              : 3.15 GiB (4%)
  51. Title                                    : TrueHD 7.1 Atmos
  52. Language                                 : English
  53. Default                                  : Yes
  54. Forced                                   : No
  55. Original source medium                   : Blu-ray
  56. Number of dynamic objects                : 11
  57. Bed channel count                        : 1 channel
  58. Bed channel configuration                : LFE
  59. Audio #2
  60. ID                                       : 3
  61. Format                                   : DTS XLL
  62. Format/Info                              : Digital Theater Systems
  63. Commercial name                          : DTS-HD Master Audio
  64. Codec ID                                 : A_DTS
  65. Duration                                 : 2 h 19 min
  66. Bit rate mode                            : Variable
  67. Bit rate                                 : 4 184 kb/s
  68. Channel(s)                               : 8 channels
  69. Channel layout                           : C L R LFE Lb Rb Lss Rss
  70. Sampling rate                            : 48.0 kHz
  71. Frame rate                               : 93.750 FPS (512 SPF)
  72. Bit depth                                : 24 bits
  73. Compression mode                         : Lossless
  74. Stream size                              : 4.09 GiB (5%)
  75. Title                                    : DTS-HD MA 7.1
  76. Language                                 : English
  77. Default                                  : No
  78. Forced                                   : No
  79. Audio #3
  80. ID                                       : 4
  81. ID in the original source medium         : 4352 (0x1100)
  82. Format                                   : AC-3
  83. Format/Info                              : Audio Coding 3
  84. Commercial name                          : Dolby Digital
  85. Format settings                          : Dolby Surround EX
  86. Codec ID                                 : A_AC3
  87. Duration                                 : 2 h 19 min
  88. Bit rate mode                            : Constant
  89. Bit rate                                 : 448 kb/s
  90. Channel(s)                               : 6 channels
  91. Channel layout                           : L R C LFE Ls Rs
  92. Sampling rate                            : 48.0 kHz
  93. Frame rate                               : 31.250 FPS (1536 SPF)
  94. Compression mode                         : Lossy
  95. Stream size                              : 448 MiB (0%)
  96. Title                                    : DD 5.1
  97. Language                                 : English
  98. Service kind                             : Complete Main
  99. Default                                  : No
  100. Forced                                   : No
  101. Original source medium                   : Blu-ray
  102. Audio #4
  103. ID                                       : 5
  104. ID in the original source medium         : 4354 (0x1102)
  105. Format                                   : AC-3
  106. Format/Info                              : Audio Coding 3
  107. Commercial name                          : Dolby Digital
  108. Codec ID                                 : A_AC3
  109. Duration                                 : 2 h 19 min
  110. Bit rate mode                            : Constant
  111. Bit rate                                 : 384 kb/s
  112. Channel(s)                               : 6 channels
  113. Channel layout                           : L R C LFE Ls Rs
  114. Sampling rate                            : 48.0 kHz
  115. Frame rate                               : 31.250 FPS (1536 SPF)
  116. Compression mode                         : Lossy
  117. Stream size                              : 384 MiB (0%)
  118. Title                                    : DD 5.1
  119. Language                                 : English
  120. Service kind                             : Complete Main
  121. Default                                  : No
  122. Forced                                   : No
  123. Original source medium                   : Blu-ray
  124. Audio #5
  125. ID                                       : 6
  126. ID in the original source medium         : 4355 (0x1103)
  127. Format                                   : AC-3
  128. Format/Info                              : Audio Coding 3
  129. Commercial name                          : Dolby Digital
  130. Codec ID                                 : A_AC3
  131. Duration                                 : 2 h 19 min
  132. Bit rate mode                            : Constant
  133. Bit rate                                 : 384 kb/s
  134. Channel(s)                               : 6 channels
  135. Channel layout                           : L R C LFE Ls Rs
  136. Sampling rate                            : 48.0 kHz
  137. Frame rate                               : 31.250 FPS (1536 SPF)
  138. Compression mode                         : Lossy
  139. Stream size                              : 384 MiB (0%)
  140. Title                                    : DD 5.1
  141. Language                                 : French
  142. Service kind                             : Complete Main
  143. Default                                  : No
  144. Forced                                   : No
  145. Original source medium                   : Blu-ray
  146. Audio #6
  147. ID                                       : 7
  148. ID in the original source medium         : 4356 (0x1104)
  149. Format                                   : DTS XLL
  150. Format/Info                              : Digital Theater Systems
  151. Commercial name                          : DTS-HD Master Audio
  152. Codec ID                                 : A_DTS
  153. Duration                                 : 2 h 19 min
  154. Bit rate mode                            : Variable
  155. Bit rate                                 : 2 303 kb/s
  156. Channel(s)                               : 6 channels
  157. Channel layout                           : C L R Ls Rs LFE
  158. Sampling rate                            : 48.0 kHz
  159. Frame rate                               : 93.750 FPS (512 SPF)
  160. Bit depth                                : 16 bits
  161. Compression mode                         : Lossless
  162. Stream size                              : 2.25 GiB (3%)
  163. Title                                    : DTS-HD MA 5.1
  164. Language                                 : Italian
  165. Default                                  : No
  166. Forced                                   : No
  167. Original source medium                   : Blu-ray
  168. Audio #7
  169. ID                                       : 8
  170. ID in the original source medium         : 4357 (0x1105)
  171. Format                                   : AC-3
  172. Format/Info                              : Audio Coding 3
  173. Commercial name                          : Dolby Digital
  174. Codec ID                                 : A_AC3
  175. Duration                                 : 2 h 19 min
  176. Bit rate mode                            : Constant
  177. Bit rate                                 : 384 kb/s
  178. Channel(s)                               : 6 channels
  179. Channel layout                           : L R C LFE Ls Rs
  180. Sampling rate                            : 48.0 kHz
  181. Frame rate                               : 31.250 FPS (1536 SPF)
  182. Compression mode                         : Lossy
  183. Stream size                              : 384 MiB (0%)
  184. Title                                    : DD 5.1
  185. Language                                 : Spanish
  186. Service kind                             : Complete Main
  187. Default                                  : No
  188. Forced                                   : No
  189. Original source medium                   : Blu-ray
  190. Audio #8
  191. ID                                       : 9
  192. ID in the original source medium         : 4358 (0x1106)
  193. Format                                   : AC-3
  194. Format/Info                              : Audio Coding 3
  195. Commercial name                          : Dolby Digital
  196. Codec ID                                 : A_AC3
  197. Duration                                 : 2 h 19 min
  198. Bit rate mode                            : Constant
  199. Bit rate                                 : 384 kb/s
  200. Channel(s)                               : 6 channels
  201. Channel layout                           : L R C LFE Ls Rs
  202. Sampling rate                            : 48.0 kHz
  203. Frame rate                               : 31.250 FPS (1536 SPF)
  204. Compression mode                         : Lossy
  205. Stream size                              : 384 MiB (0%)
  206. Title                                    : DD 5.1
  207. Language                                 : Portuguese
  208. Service kind                             : Complete Main
  209. Default                                  : No
  210. Forced                                   : No
  211. Original source medium                   : Blu-ray
  212. Audio #9
  213. ID                                       : 10
  214. ID in the original source medium         : 4359 (0x1107)
  215. Format                                   : AC-3
  216. Format/Info                              : Audio Coding 3
  217. Commercial name                          : Dolby Digital
  218. Codec ID                                 : A_AC3
  219. Duration                                 : 2 h 19 min
  220. Bit rate mode                            : Constant
  221. Bit rate                                 : 384 kb/s
  222. Channel(s)                               : 6 channels
  223. Channel layout                           : L R C LFE Ls Rs
  224. Sampling rate                            : 48.0 kHz
  225. Frame rate                               : 31.250 FPS (1536 SPF)
  226. Compression mode                         : Lossy
  227. Stream size                              : 384 MiB (0%)
  228. Title                                    : DD 5.1
  229. Language                                 : Czech
  230. Service kind                             : Complete Main
  231. Default                                  : No
  232. Forced                                   : No
  233. Original source medium                   : Blu-ray
  234. Audio #10
  235. ID                                       : 11
  236. ID in the original source medium         : 4360 (0x1108)
  237. Format                                   : AC-3
  238. Format/Info                              : Audio Coding 3
  239. Commercial name                          : Dolby Digital
  240. Codec ID                                 : A_AC3
  241. Duration                                 : 2 h 19 min
  242. Bit rate mode                            : Constant
  243. Bit rate                                 : 384 kb/s
  244. Channel(s)                               : 6 channels
  245. Channel layout                           : L R C LFE Ls Rs
  246. Sampling rate                            : 48.0 kHz
  247. Frame rate                               : 31.250 FPS (1536 SPF)
  248. Compression mode                         : Lossy
  249. Stream size                              : 384 MiB (0%)
  250. Title                                    : DD 5.1
  251. Language                                 : Hungarian
  252. Service kind                             : Complete Main
  253. Default                                  : No
  254. Forced                                   : No
  255. Original source medium                   : Blu-ray
  256. Audio #11
  257. ID                                       : 12
  258. ID in the original source medium         : 4361 (0x1109)
  259. Format                                   : AC-3
  260. Format/Info                              : Audio Coding 3
  261. Commercial name                          : Dolby Digital
  262. Codec ID                                 : A_AC3
  263. Duration                                 : 2 h 19 min
  264. Bit rate mode                            : Constant
  265. Bit rate                                 : 384 kb/s
  266. Channel(s)                               : 6 channels
  267. Channel layout                           : L R C LFE Ls Rs
  268. Sampling rate                            : 48.0 kHz
  269. Frame rate                               : 31.250 FPS (1536 SPF)
  270. Compression mode                         : Lossy
  271. Stream size                              : 384 MiB (0%)
  272. Title                                    : DD 5.1
  273. Language                                 : Polish
  274. Service kind                             : Complete Main
  275. Default                                  : No
  276. Forced                                   : No
  277. Original source medium                   : Blu-ray
  278. Audio #12
  279. ID                                       : 13
  280. ID in the original source medium         : 4362 (0x110A)
  281. Format                                   : AC-3
  282. Format/Info                              : Audio Coding 3
  283. Commercial name                          : Dolby Digital
  284. Codec ID                                 : A_AC3
  285. Duration                                 : 2 h 19 min
  286. Bit rate mode                            : Constant
  287. Bit rate                                 : 384 kb/s
  288. Channel(s)                               : 6 channels
  289. Channel layout                           : L R C LFE Ls Rs
  290. Sampling rate                            : 48.0 kHz
  291. Frame rate                               : 31.250 FPS (1536 SPF)
  292. Compression mode                         : Lossy
  293. Stream size                              : 384 MiB (0%)
  294. Title                                    : DD 5.1
  295. Language                                 : Polish
  296. Service kind                             : Complete Main
  297. Default                                  : No
  298. Forced                                   : No
  299. Original source medium                   : Blu-ray
  300. Audio #13
  301. ID                                       : 14
  302. ID in the original source medium         : 4363 (0x110B)
  303. Format                                   : AC-3
  304. Format/Info                              : Audio Coding 3
  305. Commercial name                          : Dolby Digital
  306. Codec ID                                 : A_AC3
  307. Duration                                 : 2 h 19 min
  308. Bit rate mode                            : Constant
  309. Bit rate                                 : 384 kb/s
  310. Channel(s)                               : 6 channels
  311. Channel layout                           : L R C LFE Ls Rs
  312. Sampling rate                            : 48.0 kHz
  313. Frame rate                               : 31.250 FPS (1536 SPF)
  314. Compression mode                         : Lossy
  315. Stream size                              : 384 MiB (0%)
  316. Title                                    : DD 5.1
  317. Language                                 : Russian
  318. Service kind                             : Complete Main
  319. Default                                  : No
  320. Forced                                   : No
  321. Original source medium                   : Blu-ray
  322. Audio #14
  323. ID                                       : 15
  324. ID in the original source medium         : 4364 (0x110C)
  325. Format                                   : AC-3
  326. Format/Info                              : Audio Coding 3
  327. Commercial name                          : Dolby Digital
  328. Codec ID                                 : A_AC3
  329. Duration                                 : 2 h 19 min
  330. Bit rate mode                            : Constant
  331. Bit rate                                 : 384 kb/s
  332. Channel(s)                               : 6 channels
  333. Channel layout                           : L R C LFE Ls Rs
  334. Sampling rate                            : 48.0 kHz
  335. Frame rate                               : 31.250 FPS (1536 SPF)
  336. Compression mode                         : Lossy
  337. Stream size                              : 384 MiB (0%)
  338. Title                                    : DD 5.1
  339. Language                                 : Thai
  340. Service kind                             : Complete Main
  341. Default                                  : No
  342. Forced                                   : No
  343. Original source medium                   : Blu-ray
  344. Audio #15
  345. ID                                       : 16
  346. ID in the original source medium         : 4365 (0x110D)
  347. Format                                   : AC-3
  348. Format/Info                              : Audio Coding 3
  349. Commercial name                          : Dolby Digital
  350. Codec ID                                 : A_AC3
  351. Duration                                 : 2 h 19 min
  352. Bit rate mode                            : Constant
  353. Bit rate                                 : 384 kb/s
  354. Channel(s)                               : 6 channels
  355. Channel layout                           : L R C LFE Ls Rs
  356. Sampling rate                            : 48.0 kHz
  357. Frame rate                               : 31.250 FPS (1536 SPF)
  358. Compression mode                         : Lossy
  359. Stream size                              : 384 MiB (0%)
  360. Title                                    : DD 5.1
  361. Language                                 : Turkish
  362. Service kind                             : Complete Main
  363. Default                                  : No
  364. Forced                                   : No
  365. Original source medium                   : Blu-ray
  366. Text #1
  367. ID                                       : 17
  368. Format                                   : UTF-8
  369. Codec ID                                 : S_TEXT/UTF8
  370. Codec ID/Info                            : UTF-8 Plain Text
  371. Duration                                 : 2 h 18 min
  372. Bit rate                                 : 52 b/s
  373. Frame rate                               : 0.192 FPS
  374. Count of elements                        : 1598
  375. Stream size                              : 53.6 KiB (0%)
  376. Language                                 : English
  377. Default                                  : Yes
  378. Forced                                   : No
  379. Text #2
  380. ID                                       : 18
  381. Format                                   : UTF-8
  382. Codec ID                                 : S_TEXT/UTF8
  383. Codec ID/Info                            : UTF-8 Plain Text
  384. Duration                                 : 2 h 18 min
  385. Bit rate                                 : 56 b/s
  386. Frame rate                               : 0.219 FPS
  387. Count of elements                        : 1824
  388. Stream size                              : 57.7 KiB (0%)
  389. Title                                    : SDH
  390. Language                                 : English
  391. Default                                  : No
  392. Forced                                   : No
  393. Text #3
  394. ID                                       : 19
  395. ID in the original source medium         : 4768 (0x12A0)
  396. Format                                   : PGS
  397. Muxing mode                              : zlib
  398. Codec ID                                 : S_HDMV/PGS
  399. Codec ID/Info                            : Picture based subtitle format used on BDs/HD-DVDs
  400. Duration                                 : 2 h 18 min
  401. Bit rate                                 : 34.2 kb/s
  402. Frame rate                               : 0.441 FPS
  403. Count of elements                        : 3680
  404. Stream size                              : 34.0 MiB (0%)
  405. Language                                 : English
  406. Default                                  : No
  407. Forced                                   : No
  408. Original source medium                   : Blu-ray
  409. Text #4
  410. ID                                       : 20
  411. ID in the original source medium         : 4769 (0x12A1)
  412. Format                                   : PGS
  413. Muxing mode                              : zlib
  414. Codec ID                                 : S_HDMV/PGS
  415. Codec ID/Info                            : Picture based subtitle format used on BDs/HD-DVDs
  416. Duration                                 : 2 h 18 min
  417. Bit rate                                 : 25.8 kb/s
  418. Frame rate                               : 0.384 FPS
  419. Count of elements                        : 3200
  420. Stream size                              : 25.6 MiB (0%)
  421. Language                                 : French
  422. Default                                  : No
  423. Forced                                   : No
  424. Original source medium                   : Blu-ray
  425. Text #5
  426. ID                                       : 21
  427. ID in the original source medium         : 4770 (0x12A2)
  428. Format                                   : PGS
  429. Muxing mode                              : zlib
  430. Codec ID                                 : S_HDMV/PGS
  431. Codec ID/Info                            : Picture based subtitle format used on BDs/HD-DVDs
  432. Duration                                 : 2 h 19 min
  433. Bit rate                                 : 32.8 kb/s
  434. Frame rate                               : 0.453 FPS
  435. Count of elements                        : 3778
  436. Stream size                              : 32.7 MiB (0%)
  437. Language                                 : Italian
  438. Default                                  : No
  439. Forced                                   : No
  440. Original source medium                   : Blu-ray
  441. Text #6
  442. ID                                       : 22
  443. ID in the original source medium         : 4771 (0x12A3)
  444. Format                                   : PGS
  445. Muxing mode                              : zlib
  446. Codec ID                                 : S_HDMV/PGS
  447. Codec ID/Info                            : Picture based subtitle format used on BDs/HD-DVDs
  448. Duration                                 : 2 h 18 min
  449. Bit rate                                 : 28.9 kb/s
  450. Frame rate                               : 0.371 FPS
  451. Count of elements                        : 3094
  452. Stream size                              : 28.8 MiB (0%)
  453. Language                                 : Chinese
  454. Default                                  : No
  455. Forced                                   : No
  456. Original source medium                   : Blu-ray
  457. Text #7
  458. ID                                       : 23
  459. ID in the original source medium         : 4772 (0x12A4)
  460. Format                                   : PGS
  461. Muxing mode                              : zlib
  462. Codec ID                                 : S_HDMV/PGS
  463. Codec ID/Info                            : Picture based subtitle format used on BDs/HD-DVDs
  464. Duration                                 : 2 h 18 min
  465. Bit rate                                 : 27.7 kb/s
  466. Frame rate                               : 0.385 FPS
  467. Count of elements                        : 3214
  468. Stream size                              : 27.6 MiB (0%)
  469. Language                                 : Chinese
  470. Default                                  : No
  471. Forced                                   : No
  472. Original source medium                   : Blu-ray
  473. Text #8
  474. ID                                       : 24
  475. ID in the original source medium         : 4773 (0x12A5)
  476. Format                                   : PGS
  477. Muxing mode                              : zlib
  478. Codec ID                                 : S_HDMV/PGS
  479. Codec ID/Info                            : Picture based subtitle format used on BDs/HD-DVDs
  480. Duration                                 : 2 h 18 min
  481. Bit rate                                 : 18.4 kb/s
  482. Frame rate                               : 0.389 FPS
  483. Count of elements                        : 3246
  484. Stream size                              : 18.2 MiB (0%)
  485. Language                                 : Korean
  486. Default                                  : No
  487. Forced                                   : No
  488. Original source medium                   : Blu-ray
  489. Text #9
  490. ID                                       : 25
  491. ID in the original source medium         : 4774 (0x12A6)
  492. Format                                   : PGS
  493. Muxing mode                              : zlib
  494. Codec ID                                 : S_HDMV/PGS
  495. Codec ID/Info                            : Picture based subtitle format used on BDs/HD-DVDs
  496. Duration                                 : 2 h 18 min
  497. Bit rate                                 : 28.2 kb/s
  498. Frame rate                               : 0.387 FPS
  499. Count of elements                        : 3226
  500. Stream size                              : 28.0 MiB (0%)
  501. Language                                 : Spanish
  502. Default                                  : No
  503. Forced                                   : No
  504. Original source medium                   : Blu-ray
  505. Text #10
  506. ID                                       : 26
  507. ID in the original source medium         : 4775 (0x12A7)
  508. Format                                   : PGS
  509. Muxing mode                              : zlib
  510. Codec ID                                 : S_HDMV/PGS
  511. Codec ID/Info                            : Picture based subtitle format used on BDs/HD-DVDs
  512. Duration                                 : 2 h 18 min
  513. Bit rate                                 : 29.7 kb/s
  514. Frame rate                               : 0.386 FPS
  515. Count of elements                        : 3214
  516. Stream size                              : 29.5 MiB (0%)
  517. Language                                 : Portuguese
  518. Default                                  : No
  519. Forced                                   : No
  520. Original source medium                   : Blu-ray
  521. Text #11
  522. ID                                       : 27
  523. ID in the original source medium         : 4776 (0x12A8)
  524. Format                                   : PGS
  525. Muxing mode                              : zlib
  526. Codec ID                                 : S_HDMV/PGS
  527. Codec ID/Info                            : Picture based subtitle format used on BDs/HD-DVDs
  528. Duration                                 : 2 h 18 min
  529. Bit rate                                 : 17.8 kb/s
  530. Frame rate                               : 0.397 FPS
  531. Count of elements                        : 3312
  532. Stream size                              : 17.7 MiB (0%)
  533. Language                                 : Arabic
  534. Default                                  : No
  535. Forced                                   : No
  536. Original source medium                   : Blu-ray
  537. Text #12
  538. ID                                       : 28
  539. ID in the original source medium         : 4777 (0x12A9)
  540. Format                                   : PGS
  541. Muxing mode                              : zlib
  542. Codec ID                                 : S_HDMV/PGS
  543. Codec ID/Info                            : Picture based subtitle format used on BDs/HD-DVDs
  544. Duration                                 : 2 h 18 min
  545. Bit rate                                 : 28.8 kb/s
  546. Frame rate                               : 0.386 FPS
  547. Count of elements                        : 3218
  548. Stream size                              : 28.7 MiB (0%)
  549. Language                                 : Czech
  550. Default                                  : No
  551. Forced                                   : No
  552. Original source medium                   : Blu-ray
  553. Text #13
  554. ID                                       : 29
  555. ID in the original source medium         : 4778 (0x12AA)
  556. Format                                   : PGS
  557. Muxing mode                              : zlib
  558. Codec ID                                 : S_HDMV/PGS
  559. Codec ID/Info                            : Picture based subtitle format used on BDs/HD-DVDs
  560. Duration                                 : 2 h 18 min
  561. Bit rate                                 : 27.2 kb/s
  562. Frame rate                               : 0.303 FPS
  563. Count of elements                        : 2522
  564. Stream size                              : 27.0 MiB (0%)
  565. Language                                 : Danish
  566. Default                                  : No
  567. Forced                                   : No
  568. Original source medium                   : Blu-ray
  569. Text #14
  570. ID                                       : 30
  571. ID in the original source medium         : 4779 (0x12AB)
  572. Format                                   : PGS
  573. Muxing mode                              : zlib
  574. Codec ID                                 : S_HDMV/PGS
  575. Codec ID/Info                            : Picture based subtitle format used on BDs/HD-DVDs
  576. Duration                                 : 2 h 18 min
  577. Bit rate                                 : 30.3 kb/s
  578. Frame rate                               : 0.391 FPS
  579. Count of elements                        : 3260
  580. Stream size                              : 30.2 MiB (0%)
  581. Language                                 : Finnish
  582. Default                                  : No
  583. Forced                                   : No
  584. Original source medium                   : Blu-ray
  585. Text #15
  586. ID                                       : 31
  587. ID in the original source medium         : 4780 (0x12AC)
  588. Format                                   : PGS
  589. Muxing mode                              : zlib
  590. Codec ID                                 : S_HDMV/PGS
  591. Codec ID/Info                            : Picture based subtitle format used on BDs/HD-DVDs
  592. Duration                                 : 2 h 18 min
  593. Bit rate                                 : 26.4 kb/s
  594. Frame rate                               : 0.304 FPS
  595. Count of elements                        : 2538
  596. Stream size                              : 26.2 MiB (0%)
  597. Language                                 : Hungarian
  598. Default                                  : No
  599. Forced                                   : No
  600. Original source medium                   : Blu-ray
  601. Text #16
  602. ID                                       : 32
  603. ID in the original source medium         : 4781 (0x12AD)
  604. Format                                   : PGS
  605. Muxing mode                              : zlib
  606. Codec ID                                 : S_HDMV/PGS
  607. Codec ID/Info                            : Picture based subtitle format used on BDs/HD-DVDs
  608. Duration                                 : 2 h 18 min
  609. Bit rate                                 : 25.8 kb/s
  610. Frame rate                               : 0.305 FPS
  611. Count of elements                        : 2542
  612. Stream size                              : 25.6 MiB (0%)
  613. Language                                 : Norwegian
  614. Default                                  : No
  615. Forced                                   : No
  616. Original source medium                   : Blu-ray
  617. Text #17
  618. ID                                       : 33
  619. ID in the original source medium         : 4782 (0x12AE)
  620. Format                                   : PGS
  621. Muxing mode                              : zlib
  622. Codec ID                                 : S_HDMV/PGS
  623. Codec ID/Info                            : Picture based subtitle format used on BDs/HD-DVDs
  624. Duration                                 : 2 h 18 min
  625. Bit rate                                 : 25.5 kb/s
  626. Frame rate                               : 0.353 FPS
  627. Count of elements                        : 2944
  628. Stream size                              : 25.4 MiB (0%)
  629. Language                                 : Polish
  630. Default                                  : No
  631. Forced                                   : No
  632. Original source medium                   : Blu-ray
  633. Text #18
  634. ID                                       : 34
  635. ID in the original source medium         : 4783 (0x12AF)
  636. Format                                   : PGS
  637. Muxing mode                              : zlib
  638. Codec ID                                 : S_HDMV/PGS
  639. Codec ID/Info                            : Picture based subtitle format used on BDs/HD-DVDs
  640. Duration                                 : 2 h 18 min
  641. Bit rate                                 : 28.1 kb/s
  642. Frame rate                               : 0.350 FPS
  643. Count of elements                        : 2918
  644. Stream size                              : 27.9 MiB (0%)
  645. Language                                 : Romanian
  646. Default                                  : No
  647. Forced                                   : No
  648. Original source medium                   : Blu-ray
  649. Text #19
  650. ID                                       : 35
  651. ID in the original source medium         : 4784 (0x12B0)
  652. Format                                   : PGS
  653. Muxing mode                              : zlib
  654. Codec ID                                 : S_HDMV/PGS
  655. Codec ID/Info                            : Picture based subtitle format used on BDs/HD-DVDs
  656. Duration                                 : 2 h 19 min
  657. Bit rate                                 : 30.0 kb/s
  658. Frame rate                               : 0.338 FPS
  659. Count of elements                        : 2824
  660. Stream size                              : 29.9 MiB (0%)
  661. Language                                 : Russian
  662. Default                                  : No
  663. Forced                                   : No
  664. Original source medium                   : Blu-ray
  665. Text #20
  666. ID                                       : 36
  667. ID in the original source medium         : 4785 (0x12B1)
  668. Format                                   : PGS
  669. Muxing mode                              : zlib
  670. Codec ID                                 : S_HDMV/PGS
  671. Codec ID/Info                            : Picture based subtitle format used on BDs/HD-DVDs
  672. Duration                                 : 2 h 18 min
  673. Bit rate                                 : 29.1 kb/s
  674. Frame rate                               : 0.385 FPS
  675. Count of elements                        : 3212
  676. Stream size                              : 29.0 MiB (0%)
  677. Language                                 : Swedish
  678. Default                                  : No
  679. Forced                                   : No
  680. Original source medium                   : Blu-ray
  681. Text #21
  682. ID                                       : 37
  683. ID in the original source medium         : 4786 (0x12B2)
  684. Format                                   : PGS
  685. Muxing mode                              : zlib
  686. Codec ID                                 : S_HDMV/PGS
  687. Codec ID/Info                            : Picture based subtitle format used on BDs/HD-DVDs
  688. Duration                                 : 2 h 18 min
  689. Bit rate                                 : 28.0 kb/s
  690. Frame rate                               : 0.389 FPS
  691. Count of elements                        : 3244
  692. Stream size                              : 27.8 MiB (0%)
  693. Language                                 : Thai
  694. Default                                  : No
  695. Forced                                   : No
  696. Original source medium                   : Blu-ray
  697. Text #22
  698. ID                                       : 38
  699. ID in the original source medium         : 4787 (0x12B3)
  700. Format                                   : PGS
  701. Muxing mode                              : zlib
  702. Codec ID                                 : S_HDMV/PGS
  703. Codec ID/Info                            : Picture based subtitle format used on BDs/HD-DVDs
  704. Duration                                 : 2 h 18 min
  705. Bit rate                                 : 28.8 kb/s
  706. Frame rate                               : 0.382 FPS
  707. Count of elements                        : 3188
  708. Stream size                              : 28.7 MiB (0%)
  709. Language                                 : Turkish
  710. Default                                  : No
  711. Forced                                   : No
  712. Original source medium                   : Blu-ray
  713. Text #23
  714. ID                                       : 39
  715. ID in the original source medium         : 4788 (0x12B4)
  716. Format                                   : PGS
  717. Muxing mode                              : zlib
  718. Codec ID                                 : S_HDMV/PGS
  719. Codec ID/Info                            : Picture based subtitle format used on BDs/HD-DVDs
  720. Duration                                 : 2 h 18 min
  721. Bit rate                                 : 355 b/s
  722. Frame rate                               : 0.004 FPS
  723. Count of elements                        : 34
  724. Stream size                              : 362 KiB (0%)
  725. Language                                 : French
  726. Default                                  : No
  727. Forced                                   : No
  728. Original source medium                   : Blu-ray
  729. Text #24
  730. ID                                       : 40
  731. ID in the original source medium         : 4789 (0x12B5)
  732. Format                                   : PGS
  733. Muxing mode                              : zlib
  734. Codec ID                                 : S_HDMV/PGS
  735. Codec ID/Info                            : Picture based subtitle format used on BDs/HD-DVDs
  736. Duration                                 : 2 h 18 min
  737. Bit rate                                 : 881 b/s
  738. Frame rate                               : 0.012 FPS
  739. Count of elements                        : 100
  740. Stream size                              : 898 KiB (0%)
  741. Language                                 : Italian
  742. Default                                  : No
  743. Forced                                   : No
  744. Original source medium                   : Blu-ray
  745. Text #25
  746. ID                                       : 41
  747. ID in the original source medium         : 4790 (0x12B6)
  748. Format                                   : PGS
  749. Muxing mode                              : zlib
  750. Codec ID                                 : S_HDMV/PGS
  751. Codec ID/Info                            : Picture based subtitle format used on BDs/HD-DVDs
  752. Duration                                 : 2 h 16 min
  753. Bit rate                                 : 711 b/s
  754. Frame rate                               : 0.010 FPS
  755. Count of elements                        : 82
  756. Stream size                              : 710 KiB (0%)
  757. Language                                 : Spanish
  758. Default                                  : No
  759. Forced                                   : No
  760. Original source medium                   : Blu-ray
  761. Text #26
  762. ID                                       : 42
  763. ID in the original source medium         : 4791 (0x12B7)
  764. Format                                   : PGS
  765. Muxing mode                              : zlib
  766. Codec ID                                 : S_HDMV/PGS
  767. Codec ID/Info                            : Picture based subtitle format used on BDs/HD-DVDs
  768. Duration                                 : 2 h 16 min
  769. Bit rate                                 : 716 b/s
  770. Frame rate                               : 0.010 FPS
  771. Count of elements                        : 84
  772. Stream size                              : 714 KiB (0%)
  773. Language                                 : Portuguese
  774. Default                                  : No
  775. Forced                                   : No
  776. Original source medium                   : Blu-ray
  777. Text #27
  778. ID                                       : 43
  779. ID in the original source medium         : 4792 (0x12B8)
  780. Format                                   : PGS
  781. Muxing mode                              : zlib
  782. Codec ID                                 : S_HDMV/PGS
  783. Codec ID/Info                            : Picture based subtitle format used on BDs/HD-DVDs
  784. Duration                                 : 2 h 18 min
  785. Bit rate                                 : 660 b/s
  786. Frame rate                               : 0.011 FPS
  787. Count of elements                        : 88
  788. Stream size                              : 672 KiB (0%)
  789. Language                                 : Czech
  790. Default                                  : No
  791. Forced                                   : No
  792. Original source medium                   : Blu-ray
  793. Text #28
  794. ID                                       : 44
  795. ID in the original source medium         : 4793 (0x12B9)
  796. Format                                   : PGS
  797. Muxing mode                              : zlib
  798. Codec ID                                 : S_HDMV/PGS
  799. Codec ID/Info                            : Picture based subtitle format used on BDs/HD-DVDs
  800. Duration                                 : 2 h 18 min
  801. Bit rate                                 : 402 b/s
  802. Frame rate                               : 0.006 FPS
  803. Count of elements                        : 48
  804. Stream size                              : 410 KiB (0%)
  805. Language                                 : Hungarian
  806. Default                                  : No
  807. Forced                                   : No
  808. Original source medium                   : Blu-ray
  809. Text #29
  810. ID                                       : 45
  811. ID in the original source medium         : 4794 (0x12BA)
  812. Format                                   : PGS
  813. Muxing mode                              : zlib
  814. Codec ID                                 : S_HDMV/PGS
  815. Codec ID/Info                            : Picture based subtitle format used on BDs/HD-DVDs
  816. Duration                                 : 2 h 18 min
  817. Bit rate                                 : 268 b/s
  818. Frame rate                               : 0.005 FPS
  819. Count of elements                        : 38
  820. Stream size                              : 273 KiB (0%)
  821. Language                                 : Polish
  822. Default                                  : No
  823. Forced                                   : No
  824. Original source medium                   : Blu-ray
  825. Text #30
  826. ID                                       : 46
  827. ID in the original source medium         : 4795 (0x12BB)
  828. Format                                   : PGS
  829. Muxing mode                              : zlib
  830. Codec ID                                 : S_HDMV/PGS
  831. Codec ID/Info                            : Picture based subtitle format used on BDs/HD-DVDs
  832. Duration                                 : 2 h 19 min
  833. Bit rate                                 : 695 b/s
  834. Frame rate                               : 0.009 FPS
  835. Count of elements                        : 72
  836. Stream size                              : 708 KiB (0%)
  837. Language                                 : Russian
  838. Default                                  : No
  839. Forced                                   : No
  840. Original source medium                   : Blu-ray
  841. Text #31
  842. ID                                       : 47
  843. ID in the original source medium         : 4796 (0x12BC)
  844. Format                                   : PGS
  845. Muxing mode                              : zlib
  846. Codec ID                                 : S_HDMV/PGS
  847. Codec ID/Info                            : Picture based subtitle format used on BDs/HD-DVDs
  848. Duration                                 : 2 h 18 min
  849. Bit rate                                 : 546 b/s
  850. Frame rate                               : 0.010 FPS
  851. Count of elements                        : 82
  852. Stream size                              : 553 KiB (0%)
  853. Language                                 : Thai
  854. Default                                  : No
  855. Forced                                   : No
  856. Original source medium                   : Blu-ray
  857. Text #32
  858. ID                                       : 48
  859. ID in the original source medium         : 4797 (0x12BD)
  860. Format                                   : PGS
  861. Muxing mode                              : zlib
  862. Codec ID                                 : S_HDMV/PGS
  863. Codec ID/Info                            : Picture based subtitle format used on BDs/HD-DVDs
  864. Duration                                 : 2 h 16 min
  865. Bit rate                                 : 660 b/s
  866. Frame rate                               : 0.011 FPS
  867. Count of elements                        : 86
  868. Stream size                              : 659 KiB (0%)
  869. Language                                 : Turkish
  870. Default                                  : No
  871. Forced                                   : No
  872. Original source medium                   : Blu-ray
  873. Menu
  874. 00:00:00.000                             : en:Chapter 01
  875. 00:10:08.232                             : en:Chapter 02
  876. 00:20:18.258                             : en:Chapter 03
  877. 00:30:37.460                             : en:Chapter 04
  878. 00:40:38.269                             : en:Chapter 05
  879. 00:50:08.964                             : en:Chapter 06
  880. 01:03:01.444                             : en:Chapter 07
  881. 01:11:54.935                             : en:Chapter 08
  882. 01:20:14.518                             : en:Chapter 09
  883. 01:30:57.994                             : en:Chapter 10
  884. 01:43:26.742                             : en:Chapter 11
  885. 01:53:02.150                             : en:Chapter 12
  886. 02:04:20.161                             : en:Chapter 13
  887. 02:09:17.040                             : en:Chapter 14
复制代码




                                       
                                       

                                       
                                       
                                       




头号玩家 Ready.Player.One.2018.PROPER.2160p.BluRay.REMUX.HEVC.DTS-HD.MA.TrueHD.7.1.Atmos-FGT 75.94GB

Ready.Player.One.2018.PROPER.2160p.BluRay.REMUX.HEVC.DTS-HD.MA.TrueHD.7.1.Atmos-.torrent

95.62 KB, 下载次数: 3, 下载积分: 蓝光币 -2

回复

使用道具 举报

您需要登录后才可以回帖 登录 | 立即注册

本版积分规则

QQ|Archiver|手机版|小黑屋|蓝光电影网

GMT+8, 2023-2-8 03:18 , Processed in 0.059996 second(s), 28 queries .

Powered by Discuz! X3.4

Copyright © 2001-2020, Tencent Cloud.

快速回复 返回顶部 返回列表