找回密码
 立即注册

QQ登录

只需一步,快速开始

查看: 135|回复: 0

[UHD.HEVC] 哥斯拉大战金刚 Godzilla.vs.Kong.2021.PROPER.2160p.BluRay.REMUX.HEVC.DTS-HD.MA.TrueHD.7.1.Atmos-FGT 53.07GB

[复制链接]

0

精华

0

好友

2

听众

新手上路

Rank: 2

蓝光币
5
发表于 2022-12-22 07:59:05 | 显示全部楼层 |阅读模式
[img][/img]

◎标  题 哥斯拉大战金刚
◎译  名 金刚大战哥斯拉 / 哥吉拉大战金刚(台) / King Kong vs. Godzilla / GvK
◎片  名 Godzilla vs Kong
◎年  代 2021
◎产  地 美国 / 澳大利亚 / 加拿大 / 印度
◎类  别 动作 / 科幻 / 冒险
◎语  言 英语 / 美国手语
◎上映日期 2021-03-26(中国大陆) / 2021-03-24(中国台湾) / 2021-03-31(美国)
◎IMDb评分 6.3/10 (197063人评价)
◎IMDb链接 https://www.imdb.com/title/tt5034838/
◎豆瓣评分 6.3/10 (274131人评价)
◎豆瓣链接 https://movie.douban.com/subject/26613692/
◎片  长 113分钟
◎导  演 亚当·温加德 Adam Wingard
◎编  剧 特里·鲁西奥 Terry Rossio
       埃里克·皮尔森 Eric Pearson
       麦克思·鲍伦斯坦 Max Borenstein
       迈克尔·道赫蒂 Michael Dougherty
       扎克·希尔兹 Zach Shields
◎演  员 亚历山大·斯卡斯加德 Alexander Skarsgård
       米莉·波比·布朗 Millie Bobby Brown
       丽贝卡·豪尔 Rebecca Hall
       凯莉·霍特尔 Kaylee Hottle
       布莱恩·泰里·亨利 Brian Tyree Henry
       小栗旬 Shun Oguri
       艾莎·冈萨雷斯 Eiza González
       朱利安·迪尼森 Julian Dennison
       兰斯·莱迪克 Lance Reddick
       凯尔·钱德勒 Kyle Chandler
       德米安·比齐尔 Demián Bichir
       哈基姆·凯-卡西姆 Hakeem Kae-Kazim
       钱信伊 Ronny Chieng
       约翰·皮鲁切洛 John Pirruccello
       克里斯·乔克 Chris Chalk
       康兰·卡萨尔 Conlan Casal
       布拉德·麦克默里 Brad McMurray
       本杰明·里格比 Benjamin Rigby
       普里西拉·道伊西 Priscilla Doueihy
       戴维·卡斯蒂洛 David Castillo
       吉姆·帕尔默 Jim Palmer
       柯蒂斯·布什 Curtis Bush
       皮拉·福德 Piéra Forde
       爱丽丝·兰斯伯里 Alice Lanesbury
       肖恩·麦克布莱德 Shawn McBride
       乔尔·皮尔斯 Joel Pierce
       乔恩·奎斯蒂德 Jon Quested
       塔斯尼姆·罗克 Tasneem Roc
       艾梅伯·瓦尔斯 Amber Walls
       迪索·拉莫斯 Diezel Ramos
       卡德罗莎·奥娜·卡罗尔
       田中圭 Kei Tanaka
       渡边谦 Ken Watanabe
       玛丽·帕伦特 Mary Parent
       亚历克斯·加西亚 Alex Garcia
       艾瑞克·麦克勒德 Eric McLeod
       布莱恩·罗杰斯 Brian Rogers
       奥平谦二 Kenji Okuhira
       坂野义光 Yoshimitsu Banno
       乔·贾希尼 Jon Jashni
       托马斯·图尔 Thomas Tull
       杰伊·阿申菲尔特 Jay Ashenfelter
       赫伯特·W·吉恩斯 Herbert W. Gains
       林单 Dan Lin
       罗伊·李 Roy Lee
       琼基·XL Junkie XL
       本·塞雷森 Ben Seresin
       乔希·谢弗 Josh Schaeffer
       萨拉·芬兰 Sarah Finn
       托马斯·S·哈默克 Thomas S. Hammock
       欧文·帕特森 Owen Paterson
       比尔·布斯 Bill Booth
       米歇尔·麦加希 Michelle McGahey
       哈里·E·奥托 Harry E. Otto
       道恩·斯维德斯基 Dawn Swiderski
       罗纳德·R·赖斯 Ronald R. Reiss
       安·弗利 Ann Foley
       约翰·德斯贾尔丁 John 'D.J.' Des Jardin
       马特·姆林斯 Matt Mullins
◎简  介

  这两位宛如神衹一般强大的对手于一场壮观的战争中相遇,彼时世界命运正悬于一线。为了找到真正的家园,金刚与他的保护者们踏上了一次艰难的旅程。与他们一道前行的还有一个年轻的孤儿女孩——吉雅,这个女孩与金刚之间存在着一种独特而强大的紧密联系。但意想不到的是,他们在前行的航道上与愤怒的哥斯拉狭路相逢,也由此在全球引起了一系列破坏。一股无形的力量造成了这两只巨兽之间的巨大冲突,深藏在地心深处的奥秘也由此揭开。
  1. Video
  2. ID                                       : 1
  3. ID in the original source medium         : 4113 (0x1011)
  4. Format                                   : HEVC
  5. Format/Info                              : High Efficiency Video Coding
  6. Format profile                           : Main [email protected]@High
  7. HDR format                               : Dolby Vision, Version 1.0, dvhe.07.06, BL+EL+RPU, Blu-ray compatible / SMPTE ST 2094 App 4, Version 1, HDR10+ Profile B compatible
  8. Codec ID                                 : V_MPEGH/ISO/HEVC
  9. Duration                                 : 1 h 53 min
  10. Bit rate                                 : 51.9 Mb/s
  11. Width                                    : 3 840 pixels
  12. Height                                   : 2 160 pixels
  13. Display aspect ratio                     : 16:9
  14. Frame rate mode                          : Constant
  15. Frame rate                               : 23.976 (24000/1001/189150) FPS
  16. Color space                              : YUV
  17. Chroma subsampling                       : 4:2:0 (Type 2)
  18. Bit depth                                : 10 bits
  19. Bits/(Pixel*Frame)                       : 0.261
  20. Stream size                              : 41.0 GiB (77%)
  21. Language                                 : English
  22. Default                                  : No
  23. Forced                                   : No
  24. Color range                              : Limited
  25. Color primaries                          : BT.2020
  26. Transfer characteristics                 : PQ
  27. Matrix coefficients                      : BT.2020 non-constant
  28. Mastering display color primaries        : Display P3
  29. Mastering display luminance              : min: 0.0001 cd/m2, max: 1000 cd/m2
  30. Maximum Content Light Level              : 598 cd/m2
  31. Maximum Frame-Average Light Level        : 273 cd/m2
  32. Original source medium                   : Blu-ray
  33. Audio #1
  34. ID                                       : 2
  35. ID in the original source medium         : 4352 (0x1100)
  36. Format                                   : MLP FBA 16-ch
  37. Format/Info                              : Meridian Lossless Packing FBA with 16-channel presentation
  38. Commercial name                          : Dolby TrueHD with Dolby Atmos
  39. Codec ID                                 : A_TRUEHD
  40. Duration                                 : 1 h 53 min
  41. Bit rate mode                            : Variable
  42. Bit rate                                 : 3 455 kb/s
  43. Maximum bit rate                         : 5 742 kb/s
  44. Channel(s)                               : 8 channels
  45. Channel layout                           : L R C LFE Ls Rs Lb Rb
  46. Sampling rate                            : 48.0 kHz
  47. Frame rate                               : 1 200.000 FPS (40 SPF)
  48. Bit depth                                : 24 bits
  49. Compression mode                         : Lossless
  50. Stream size                              : 2.73 GiB (5%)
  51. Title                                    : TrueHD 7.1 Atmos
  52. Language                                 : English
  53. Default                                  : Yes
  54. Forced                                   : No
  55. Original source medium                   : Blu-ray
  56. Number of dynamic objects                : 11
  57. Bed channel count                        : 1 channel
  58. Bed channel configuration                : LFE
  59. Audio #2
  60. ID                                       : 3
  61. Format                                   : DTS XLL
  62. Format/Info                              : Digital Theater Systems
  63. Commercial name                          : DTS-HD Master Audio
  64. Codec ID                                 : A_DTS
  65. Duration                                 : 1 h 53 min
  66. Bit rate mode                            : Variable
  67. Bit rate                                 : 3 810 kb/s
  68. Channel(s)                               : 8 channels
  69. Channel layout                           : C L R LFE Lb Rb Lss Rss
  70. Sampling rate                            : 48.0 kHz
  71. Frame rate                               : 93.750 FPS (512 SPF)
  72. Bit depth                                : 24 bits
  73. Compression mode                         : Lossless
  74. Stream size                              : 3.01 GiB (6%)
  75. Title                                    : DTS-HD MA 7.1
  76. Language                                 : English
  77. Default                                  : No
  78. Forced                                   : No
  79. Audio #3
  80. ID                                       : 4
  81. ID in the original source medium         : 4352 (0x1100)
  82. Format                                   : AC-3
  83. Format/Info                              : Audio Coding 3
  84. Commercial name                          : Dolby Digital
  85. Format settings                          : Dolby Surround EX
  86. Codec ID                                 : A_AC3
  87. Duration                                 : 1 h 53 min
  88. Bit rate mode                            : Constant
  89. Bit rate                                 : 448 kb/s
  90. Channel(s)                               : 6 channels
  91. Channel layout                           : L R C LFE Ls Rs
  92. Sampling rate                            : 48.0 kHz
  93. Frame rate                               : 31.250 FPS (1536 SPF)
  94. Compression mode                         : Lossy
  95. Stream size                              : 363 MiB (1%)
  96. Title                                    : DD 5.1
  97. Language                                 : English
  98. Service kind                             : Complete Main
  99. Default                                  : No
  100. Forced                                   : No
  101. Original source medium                   : Blu-ray
  102. Audio #4
  103. ID                                       : 5
  104. ID in the original source medium         : 4353 (0x1101)
  105. Format                                   : AC-3
  106. Format/Info                              : Audio Coding 3
  107. Commercial name                          : Dolby Digital
  108. Codec ID                                 : A_AC3
  109. Duration                                 : 1 h 53 min
  110. Bit rate mode                            : Constant
  111. Bit rate                                 : 640 kb/s
  112. Channel(s)                               : 6 channels
  113. Channel layout                           : L R C LFE Ls Rs
  114. Sampling rate                            : 48.0 kHz
  115. Frame rate                               : 31.250 FPS (1536 SPF)
  116. Compression mode                         : Lossy
  117. Stream size                              : 518 MiB (1%)
  118. Title                                    : DD 5.1
  119. Language                                 : English
  120. Service kind                             : Complete Main
  121. Default                                  : No
  122. Forced                                   : No
  123. Original source medium                   : Blu-ray
  124. Audio #5
  125. ID                                       : 6
  126. ID in the original source medium         : 4354 (0x1102)
  127. Format                                   : AC-3
  128. Format/Info                              : Audio Coding 3
  129. Commercial name                          : Dolby Digital
  130. Codec ID                                 : A_AC3
  131. Duration                                 : 1 h 53 min
  132. Bit rate mode                            : Constant
  133. Bit rate                                 : 640 kb/s
  134. Channel(s)                               : 6 channels
  135. Channel layout                           : L R C LFE Ls Rs
  136. Sampling rate                            : 48.0 kHz
  137. Frame rate                               : 31.250 FPS (1536 SPF)
  138. Compression mode                         : Lossy
  139. Stream size                              : 518 MiB (1%)
  140. Title                                    : DD 5.1
  141. Language                                 : English
  142. Service kind                             : Complete Main
  143. Default                                  : No
  144. Forced                                   : No
  145. Original source medium                   : Blu-ray
  146. Audio #6
  147. ID                                       : 7
  148. ID in the original source medium         : 4355 (0x1103)
  149. Format                                   : AC-3
  150. Format/Info                              : Audio Coding 3
  151. Commercial name                          : Dolby Digital
  152. Codec ID                                 : A_AC3
  153. Duration                                 : 1 h 53 min
  154. Bit rate mode                            : Constant
  155. Bit rate                                 : 640 kb/s
  156. Channel(s)                               : 6 channels
  157. Channel layout                           : L R C LFE Ls Rs
  158. Sampling rate                            : 48.0 kHz
  159. Frame rate                               : 31.250 FPS (1536 SPF)
  160. Compression mode                         : Lossy
  161. Stream size                              : 518 MiB (1%)
  162. Title                                    : DD 5.1
  163. Language                                 : French
  164. Service kind                             : Complete Main
  165. Default                                  : No
  166. Forced                                   : No
  167. Original source medium                   : Blu-ray
  168. Audio #7
  169. ID                                       : 8
  170. ID in the original source medium         : 4356 (0x1104)
  171. Format                                   : MLP FBA 16-ch
  172. Format/Info                              : Meridian Lossless Packing FBA with 16-channel presentation
  173. Commercial name                          : Dolby TrueHD with Dolby Atmos
  174. Codec ID                                 : A_TRUEHD
  175. Duration                                 : 1 h 53 min
  176. Bit rate mode                            : Variable
  177. Bit rate                                 : 3 481 kb/s
  178. Maximum bit rate                         : 5 484 kb/s
  179. Channel(s)                               : 8 channels
  180. Channel layout                           : L R C LFE Ls Rs Lb Rb
  181. Sampling rate                            : 48.0 kHz
  182. Frame rate                               : 1 200.000 FPS (40 SPF)
  183. Bit depth                                : 24 bits
  184. Compression mode                         : Lossless
  185. Stream size                              : 2.75 GiB (5%)
  186. Title                                    : TrueHD 7.1 Atmos
  187. Language                                 : Italian
  188. Default                                  : No
  189. Forced                                   : No
  190. Original source medium                   : Blu-ray
  191. Number of dynamic objects                : 11
  192. Bed channel count                        : 1 channel
  193. Bed channel configuration                : LFE
  194. Audio #8
  195. ID                                       : 9
  196. ID in the original source medium         : 4356 (0x1104)
  197. Format                                   : AC-3
  198. Format/Info                              : Audio Coding 3
  199. Commercial name                          : Dolby Digital
  200. Format settings                          : Dolby Surround EX
  201. Codec ID                                 : A_AC3
  202. Duration                                 : 1 h 53 min
  203. Bit rate mode                            : Constant
  204. Bit rate                                 : 448 kb/s
  205. Channel(s)                               : 6 channels
  206. Channel layout                           : L R C LFE Ls Rs
  207. Sampling rate                            : 48.0 kHz
  208. Frame rate                               : 31.250 FPS (1536 SPF)
  209. Compression mode                         : Lossy
  210. Stream size                              : 363 MiB (1%)
  211. Title                                    : DD 5.1
  212. Language                                 : Italian
  213. Service kind                             : Complete Main
  214. Default                                  : No
  215. Forced                                   : No
  216. Original source medium                   : Blu-ray
  217. Audio #9
  218. ID                                       : 10
  219. ID in the original source medium         : 4357 (0x1105)
  220. Format                                   : AC-3
  221. Format/Info                              : Audio Coding 3
  222. Commercial name                          : Dolby Digital
  223. Codec ID                                 : A_AC3
  224. Duration                                 : 1 h 53 min
  225. Bit rate mode                            : Constant
  226. Bit rate                                 : 640 kb/s
  227. Channel(s)                               : 6 channels
  228. Channel layout                           : L R C LFE Ls Rs
  229. Sampling rate                            : 48.0 kHz
  230. Frame rate                               : 31.250 FPS (1536 SPF)
  231. Compression mode                         : Lossy
  232. Stream size                              : 518 MiB (1%)
  233. Title                                    : DD 5.1
  234. Language                                 : Italian
  235. Service kind                             : Complete Main
  236. Default                                  : No
  237. Forced                                   : No
  238. Original source medium                   : Blu-ray
  239. Audio #10
  240. ID                                       : 11
  241. ID in the original source medium         : 4358 (0x1106)
  242. Format                                   : AC-3
  243. Format/Info                              : Audio Coding 3
  244. Commercial name                          : Dolby Digital
  245. Codec ID                                 : A_AC3
  246. Duration                                 : 1 h 53 min
  247. Bit rate mode                            : Constant
  248. Bit rate                                 : 640 kb/s
  249. Channel(s)                               : 6 channels
  250. Channel layout                           : L R C LFE Ls Rs
  251. Sampling rate                            : 48.0 kHz
  252. Frame rate                               : 31.250 FPS (1536 SPF)
  253. Compression mode                         : Lossy
  254. Stream size                              : 518 MiB (1%)
  255. Title                                    : DD 5.1
  256. Language                                 : Spanish
  257. Service kind                             : Complete Main
  258. Default                                  : No
  259. Forced                                   : No
  260. Original source medium                   : Blu-ray
  261. Audio #11
  262. ID                                       : 12
  263. ID in the original source medium         : 4359 (0x1107)
  264. Format                                   : AC-3
  265. Format/Info                              : Audio Coding 3
  266. Commercial name                          : Dolby Digital
  267. Format settings                          : Dolby Surround
  268. Codec ID                                 : A_AC3
  269. Duration                                 : 1 h 53 min
  270. Bit rate mode                            : Constant
  271. Bit rate                                 : 192 kb/s
  272. Channel(s)                               : 2 channels
  273. Channel layout                           : L R
  274. Sampling rate                            : 48.0 kHz
  275. Frame rate                               : 31.250 FPS (1536 SPF)
  276. Compression mode                         : Lossy
  277. Stream size                              : 155 MiB (0%)
  278. Title                                    : DD 2.0
  279. Language                                 : English
  280. Service kind                             : Complete Main
  281. Default                                  : No
  282. Forced                                   : No
  283. Original source medium                   : Blu-ray
  284. Text #1
  285. ID                                       : 13
  286. Format                                   : UTF-8
  287. Codec ID                                 : S_TEXT/UTF8
  288. Codec ID/Info                            : UTF-8 Plain Text
  289. Duration                                 : 1 h 45 min
  290. Bit rate                                 : 37 b/s
  291. Frame rate                               : 0.145 FPS
  292. Count of elements                        : 917
  293. Stream size                              : 28.8 KiB (0%)
  294. Language                                 : English
  295. Default                                  : Yes
  296. Forced                                   : No
  297. Text #2
  298. ID                                       : 14
  299. Format                                   : UTF-8
  300. Codec ID                                 : S_TEXT/UTF8
  301. Codec ID/Info                            : UTF-8 Plain Text
  302. Duration                                 : 1 h 45 min
  303. Bit rate                                 : 48 b/s
  304. Frame rate                               : 0.212 FPS
  305. Count of elements                        : 1345
  306. Stream size                              : 37.9 KiB (0%)
  307. Title                                    : SDH
  308. Language                                 : English
  309. Default                                  : No
  310. Forced                                   : No
  311. Text #3
  312. ID                                       : 15
  313. ID in the original source medium         : 4768 (0x12A0)
  314. Format                                   : PGS
  315. Muxing mode                              : zlib
  316. Codec ID                                 : S_HDMV/PGS
  317. Codec ID/Info                            : Picture based subtitle format used on BDs/HD-DVDs
  318. Duration                                 : 1 h 45 min
  319. Bit rate                                 : 31.2 kb/s
  320. Frame rate                               : 0.426 FPS
  321. Count of elements                        : 2706
  322. Stream size                              : 23.6 MiB (0%)
  323. Language                                 : English
  324. Default                                  : No
  325. Forced                                   : No
  326. Original source medium                   : Blu-ray
  327. Text #4
  328. ID                                       : 16
  329. ID in the original source medium         : 4769 (0x12A1)
  330. Format                                   : PGS
  331. Muxing mode                              : zlib
  332. Codec ID                                 : S_HDMV/PGS
  333. Codec ID/Info                            : Picture based subtitle format used on BDs/HD-DVDs
  334. Duration                                 : 1 h 52 min
  335. Bit rate                                 : 18.4 kb/s
  336. Frame rate                               : 0.272 FPS
  337. Count of elements                        : 1836
  338. Stream size                              : 14.7 MiB (0%)
  339. Language                                 : French
  340. Default                                  : No
  341. Forced                                   : No
  342. Original source medium                   : Blu-ray
  343. Text #5
  344. ID                                       : 17
  345. ID in the original source medium         : 4770 (0x12A2)
  346. Format                                   : PGS
  347. Muxing mode                              : zlib
  348. Codec ID                                 : S_HDMV/PGS
  349. Codec ID/Info                            : Picture based subtitle format used on BDs/HD-DVDs
  350. Duration                                 : 1 h 45 min
  351. Bit rate                                 : 31.6 kb/s
  352. Frame rate                               : 0.451 FPS
  353. Count of elements                        : 2866
  354. Stream size                              : 23.9 MiB (0%)
  355. Language                                 : Italian
  356. Default                                  : No
  357. Forced                                   : No
  358. Original source medium                   : Blu-ray
  359. Text #6
  360. ID                                       : 18
  361. ID in the original source medium         : 4771 (0x12A3)
  362. Format                                   : PGS
  363. Muxing mode                              : zlib
  364. Codec ID                                 : S_HDMV/PGS
  365. Codec ID/Info                            : Picture based subtitle format used on BDs/HD-DVDs
  366. Duration                                 : 1 h 44 min
  367. Bit rate                                 : 23.1 kb/s
  368. Frame rate                               : 0.278 FPS
  369. Count of elements                        : 1740
  370. Stream size                              : 17.3 MiB (0%)
  371. Language                                 : Chinese
  372. Default                                  : No
  373. Forced                                   : No
  374. Original source medium                   : Blu-ray
  375. Text #7
  376. ID                                       : 19
  377. ID in the original source medium         : 4772 (0x12A4)
  378. Format                                   : PGS
  379. Muxing mode                              : zlib
  380. Codec ID                                 : S_HDMV/PGS
  381. Codec ID/Info                            : Picture based subtitle format used on BDs/HD-DVDs
  382. Duration                                 : 1 h 52 min
  383. Bit rate                                 : 19.0 kb/s
  384. Frame rate                               : 0.266 FPS
  385. Count of elements                        : 1794
  386. Stream size                              : 15.2 MiB (0%)
  387. Language                                 : Chinese
  388. Default                                  : No
  389. Forced                                   : No
  390. Original source medium                   : Blu-ray
  391. Text #8
  392. ID                                       : 20
  393. ID in the original source medium         : 4773 (0x12A5)
  394. Format                                   : PGS
  395. Muxing mode                              : zlib
  396. Codec ID                                 : S_HDMV/PGS
  397. Codec ID/Info                            : Picture based subtitle format used on BDs/HD-DVDs
  398. Duration                                 : 1 h 44 min
  399. Bit rate                                 : 13.9 kb/s
  400. Frame rate                               : 0.279 FPS
  401. Count of elements                        : 1746
  402. Stream size                              : 10.4 MiB (0%)
  403. Language                                 : Korean
  404. Default                                  : No
  405. Forced                                   : No
  406. Original source medium                   : Blu-ray
  407. Text #9
  408. ID                                       : 21
  409. ID in the original source medium         : 4774 (0x12A6)
  410. Format                                   : PGS
  411. Muxing mode                              : zlib
  412. Codec ID                                 : S_HDMV/PGS
  413. Codec ID/Info                            : Picture based subtitle format used on BDs/HD-DVDs
  414. Duration                                 : 1 h 52 min
  415. Bit rate                                 : 22.5 kb/s
  416. Frame rate                               : 0.262 FPS
  417. Count of elements                        : 1764
  418. Stream size                              : 18.1 MiB (0%)
  419. Language                                 : Spanish
  420. Default                                  : No
  421. Forced                                   : No
  422. Original source medium                   : Blu-ray
  423. Text #10
  424. ID                                       : 22
  425. ID in the original source medium         : 4775 (0x12A7)
  426. Format                                   : PGS
  427. Muxing mode                              : zlib
  428. Codec ID                                 : S_HDMV/PGS
  429. Codec ID/Info                            : Picture based subtitle format used on BDs/HD-DVDs
  430. Duration                                 : 1 h 52 min
  431. Bit rate                                 : 18.1 kb/s
  432. Frame rate                               : 0.192 FPS
  433. Count of elements                        : 1296
  434. Stream size                              : 14.5 MiB (0%)
  435. Language                                 : Danish
  436. Default                                  : No
  437. Forced                                   : No
  438. Original source medium                   : Blu-ray
  439. Text #11
  440. ID                                       : 23
  441. ID in the original source medium         : 4776 (0x12A8)
  442. Format                                   : PGS
  443. Muxing mode                              : zlib
  444. Codec ID                                 : S_HDMV/PGS
  445. Codec ID/Info                            : Picture based subtitle format used on BDs/HD-DVDs
  446. Duration                                 : 1 h 52 min
  447. Bit rate                                 : 20.9 kb/s
  448. Frame rate                               : 0.270 FPS
  449. Count of elements                        : 1820
  450. Stream size                              : 16.8 MiB (0%)
  451. Language                                 : Finnish
  452. Default                                  : No
  453. Forced                                   : No
  454. Original source medium                   : Blu-ray
  455. Text #12
  456. ID                                       : 24
  457. ID in the original source medium         : 4777 (0x12A9)
  458. Format                                   : PGS
  459. Muxing mode                              : zlib
  460. Codec ID                                 : S_HDMV/PGS
  461. Codec ID/Info                            : Picture based subtitle format used on BDs/HD-DVDs
  462. Duration                                 : 1 h 52 min
  463. Bit rate                                 : 19.3 kb/s
  464. Frame rate                               : 0.225 FPS
  465. Count of elements                        : 1518
  466. Stream size                              : 15.5 MiB (0%)
  467. Language                                 : Norwegian
  468. Default                                  : No
  469. Forced                                   : No
  470. Original source medium                   : Blu-ray
  471. Text #13
  472. ID                                       : 25
  473. ID in the original source medium         : 4778 (0x12AA)
  474. Format                                   : PGS
  475. Muxing mode                              : zlib
  476. Codec ID                                 : S_HDMV/PGS
  477. Codec ID/Info                            : Picture based subtitle format used on BDs/HD-DVDs
  478. Duration                                 : 1 h 52 min
  479. Bit rate                                 : 18.3 kb/s
  480. Frame rate                               : 0.208 FPS
  481. Count of elements                        : 1400
  482. Stream size                              : 14.7 MiB (0%)
  483. Language                                 : Swedish
  484. Default                                  : No
  485. Forced                                   : No
  486. Original source medium                   : Blu-ray
  487. Text #14
  488. ID                                       : 26
  489. ID in the original source medium         : 4779 (0x12AB)
  490. Format                                   : PGS
  491. Muxing mode                              : zlib
  492. Codec ID                                 : S_HDMV/PGS
  493. Codec ID/Info                            : Picture based subtitle format used on BDs/HD-DVDs
  494. Duration                                 : 1 h 44 min
  495. Bit rate                                 : 1 388 b/s
  496. Frame rate                               : 0.025 FPS
  497. Count of elements                        : 154
  498. Stream size                              : 1.04 MiB (0%)
  499. Language                                 : French
  500. Default                                  : No
  501. Forced                                   : No
  502. Original source medium                   : Blu-ray
  503. Text #15
  504. ID                                       : 27
  505. ID in the original source medium         : 4780 (0x12AC)
  506. Format                                   : PGS
  507. Muxing mode                              : zlib
  508. Codec ID                                 : S_HDMV/PGS
  509. Codec ID/Info                            : Picture based subtitle format used on BDs/HD-DVDs
  510. Duration                                 : 1 h 44 min
  511. Bit rate                                 : 1 590 b/s
  512. Frame rate                               : 0.029 FPS
  513. Count of elements                        : 184
  514. Stream size                              : 1.19 MiB (0%)
  515. Language                                 : Italian
  516. Default                                  : No
  517. Forced                                   : No
  518. Original source medium                   : Blu-ray
  519. Text #16
  520. ID                                       : 28
  521. ID in the original source medium         : 4781 (0x12AD)
  522. Format                                   : PGS
  523. Muxing mode                              : zlib
  524. Codec ID                                 : S_HDMV/PGS
  525. Codec ID/Info                            : Picture based subtitle format used on BDs/HD-DVDs
  526. Duration                                 : 1 h 41 min
  527. Bit rate                                 : 665 b/s
  528. Frame rate                               : 0.016 FPS
  529. Count of elements                        : 98
  530. Stream size                              : 494 KiB (0%)
  531. Language                                 : Spanish
  532. Default                                  : No
  533. Forced                                   : No
  534. Original source medium                   : Blu-ray
  535. Menu
  536. 00:00:00.000                             : en:Chapter 01
  537. 00:09:51.215                             : en:Chapter 02
  538. 00:20:07.331                             : en:Chapter 03
  539. 00:29:02.323                             : en:Chapter 04
  540. 00:38:39.734                             : en:Chapter 05
  541. 00:49:15.994                             : en:Chapter 06
  542. 00:57:16.850                             : en:Chapter 07
  543. 01:09:07.643                             : en:Chapter 08
  544. 01:18:33.709                             : en:Chapter 09
  545. 01:30:06.109                             : en:Chapter 10
  546. 01:41:58.821                             : en:Chapter 11
复制代码




                                       
                                       

                                       
                                       
                                       




哥斯拉大战金刚 Godzilla.vs.Kong.2021.PROPER.2160p.BluRay.REMUX.HEVC.DTS-HD.MA.TrueHD.7.1.Atmos-FGT 53.07GB

Godzilla.vs.Kong.2021.PROPER.2160p.BluRay.REMUX.HEVC.DTS-HD.MA.TrueHD.7.1.Atmos-.torrent

67.03 KB, 下载次数: 3, 下载积分: 蓝光币 -2

回复

使用道具 举报

您需要登录后才可以回帖 登录 | 立即注册

本版积分规则

QQ|Archiver|手机版|小黑屋|蓝光电影网

GMT+8, 2023-2-8 01:51 , Processed in 0.055970 second(s), 28 queries .

Powered by Discuz! X3.4

Copyright © 2001-2020, Tencent Cloud.

快速回复 返回顶部 返回列表