找回密码
 立即注册

QQ登录

只需一步,快速开始

查看: 102|回复: 0

[UHD.HEVC] 哥斯拉2:怪兽之王 Godzilla.King.of.the.Monsters.2019.PROPER.2160p.BluRay.REMUX.HEVC.DTS-HD.MA.TrueHD.7.1.Atmos-FGT 72.90GB

[复制链接]

0

精华

0

好友

2

听众

新手上路

Rank: 2

蓝光币
5
发表于 2022-12-22 07:58:44 | 显示全部楼层 |阅读模式
[img][/img]

◎标  题 哥斯拉2:怪兽之王
◎译  名 哥斯拉:怪兽之王 / 哥斯拉II: 王者巨兽(港) / 哥吉拉II怪兽之王(台) / 哥斯拉2 / 哥斯拉2018 / Godzilla 2
◎片  名 Godzilla: King of the Monsters
◎年  代 2019
◎产  地 美国 / 日本 / 中国大陆 / 加拿大
◎类  别 动作 / 科幻 / 冒险 / 灾难
◎语  言 英语
◎上映日期 2019-05-31(中国大陆/美国) / 2019-05-25(大规模点映)
◎IMDb评分 6/10 (169955人评价)
◎IMDb链接 https://www.imdb.com/title/tt3741700/
◎豆瓣评分 6.3/10 (249493人评价)
◎豆瓣链接 https://movie.douban.com/subject/25890017/
◎片  长 132分钟
◎导  演 迈克尔·道赫蒂 Michael Dougherty
◎编  剧 迈克尔·道赫蒂 Michael Dougherty
       扎克·希尔兹 Zach Shields
       麦克思·鲍伦斯坦 Max Borenstein
◎演  员 凯尔·钱德勒 Kyle Chandler
       维拉·法米加 Vera Farmiga
       米莉·波比·布朗 Millie Bobby Brown
       章子怡 Ziyi Zhang
       渡边谦 Ken Watanabe
       布莱德利·惠特福德 Bradley Whitford
       托马斯·米德蒂奇 Thomas Middleditch
       艾莎·辛德斯 Aisha Hinds
       莎莉·霍金斯 Sally Hawkins
       查尔斯·丹斯 Charles Dance
       大卫·斯特雷泽恩 David Strathairn
       小奥谢拉·杰克逊 O'Shea Jackson Jr.
       希·庞德 CCH Pounder
       安东尼·拉莫斯 Anthony Ramos
       杰森·莱尔斯 Jason Liles
       乔纳森·霍华德 Jonathan Howard
       莱尔·布罗卡托 Lyle Brocato
       兰德尔·P·海文斯 Randall P. Havens
       T·C·马特恩 T.C. Matherne
       吉米·冈萨雷斯 Jimmy Gonzales
       萨莎·里翁达 Sasha Rionda
       文斯·福斯特 Vince Foster
       贾斯蒂斯·利克 Justice Leak
       菲奥娜·哈丁汉姆 Fiona Hardingham
       露西·卡罗尔 Lucie Carroll
       约书亚·利瑞 Joshua Leary
       艾伦·马克森 Alan Maxson
       肯尼斯·以色列 Kenneth Israel
       阿尔·维森特 Al Vicente
       塞西尔·M·亨利 Cecil M. Henry
       迈克尔·大卫·育尔 Michael David Yuhl
       本杰明·韦弗 Benjamin Weaver
       卡梅伦·布鲁姆布罗 Cameron Brumbelow
       帕蒂·舍尔哈斯 Patti Schellhaas
       理查德·多顿 Richard Dorton
       詹姆斯·斯特林 James Sterling
       麦克斯威尔·海史密斯 Maxwell Highsmith
       贾斯汀·斯劳特 Justin Slaughter
       肖恩·索斯 Shawn South
       马科·查卡 Marko Caka
       蒂莫西·卡尔 Timothy Carr
       亚历珊德拉‧瑞秋·拉贝 Alexandra Rachael Rabe
       泰勒·克朗姆利 Tyler Crumley
       詹姆斯·威廉·巴拉德 James William Ballard
       戴安娜·隆博拉 Diana Rombola
       斯凯拉·丹尼 Skylar Denney
       乔·莫顿 Joe Morton
       芦田爱菜 Mana Ashida
       田中圭 Kei Tanaka
       托马斯·图尔 Thomas Tull
       贝尔·麦克里里 Bear McCreary
       鲍勃·达克萨 Bob Ducsay
       罗杰·巴顿 Roger Barton
       林童 Tong Jason Lin
       汤姆·伍德鲁夫 Tom Woodruff Jr.
       布莱斯利斯维尔德 Brice Liesveld
       菲利普沃尔夫 Philipp Wolf
       洛伊·齐默曼 Loic Zimmermann
       特里·马里奥特 Terry Marriott
       莱昂·贝利斯 Leon Berlis
       卡洛斯·弗洛雷斯 Carlos E. Flores
       劳尔·佩雷斯 Raul Perez
       威尔·华莱士 Will Wallace
       伊利亚·阿法纳西耶夫 Illia Afanasiev
       达里尔·索丘克 Daryl Sawchuk
       劳伦·麦卡勒姆 Lauren McCallum
       亚苏里·阿德里亚内拉·阿里扎·罗德里格斯 Yasuri Adrianela Ariza Rodríguez
       弗朗西斯科·丹尼尔·利纳·伊达尔戈 Francisco Daniel Leana Hidalgo
       斯凯拉·戈雷尔 Skylar Gorrell
       王乔 Qiao Wang
◎标  签 怪兽 / 科幻 / 灾难 / 美国 / 特效 / 2019 / 动作 / 日本
◎简  介

  随着《哥斯拉》和《金刚:骷髅岛》在全球范围内取得成功,传奇影业和华纳兄弟影业联手开启了怪兽宇宙系列电影的新篇章—一部史诗级动作冒险巨制。在这部电影中,哥斯拉将和众多大家在流行文化中所熟知的怪兽展开较量。全新故事中,研究神秘动物学的机构“帝王组织”将勇敢直面巨型怪兽,其中强大的哥斯拉也将和魔斯拉、拉顿和它的死对头——三头王者基多拉展开激烈对抗。当这些只存在于传说里的超级生物再度崛起时,它们将展开王者争霸,人类的命运岌岌可危……
  1. Video
  2. ID                                       : 1
  3. ID in the original source medium         : 4113 (0x1011)
  4. Format                                   : HEVC
  5. Format/Info                              : High Efficiency Video Coding
  6. Format profile                           : Main [email protected]@High
  7. HDR format                               : Dolby Vision, Version 1.0, dvhe.07.06, BL+EL+RPU, Blu-ray compatible / SMPTE ST 2094 App 4, Version 1, HDR10+ Profile B compatible
  8. Codec ID                                 : V_MPEGH/ISO/HEVC
  9. Duration                                 : 2 h 11 min
  10. Bit rate                                 : 58.5 Mb/s
  11. Width                                    : 3 840 pixels
  12. Height                                   : 2 160 pixels
  13. Display aspect ratio                     : 16:9
  14. Frame rate mode                          : Constant
  15. Frame rate                               : 23.976 (24000/1001/189150) FPS
  16. Color space                              : YUV
  17. Chroma subsampling                       : 4:2:0 (Type 2)
  18. Bit depth                                : 10 bits
  19. Bits/(Pixel*Frame)                       : 0.294
  20. Stream size                              : 53.8 GiB (74%)
  21. Language                                 : English
  22. Default                                  : No
  23. Forced                                   : No
  24. Color range                              : Limited
  25. Color primaries                          : BT.2020
  26. Transfer characteristics                 : PQ
  27. Matrix coefficients                      : BT.2020 non-constant
  28. Mastering display color primaries        : Display P3
  29. Mastering display luminance              : min: 0.0050 cd/m2, max: 4000 cd/m2
  30. Maximum Content Light Level              : 1998 cd/m2
  31. Maximum Frame-Average Light Level        : 414 cd/m2
  32. Original source medium                   : Blu-ray
  33. Audio #1
  34. ID                                       : 2
  35. ID in the original source medium         : 4352 (0x1100)
  36. Format                                   : MLP FBA 16-ch
  37. Format/Info                              : Meridian Lossless Packing FBA with 16-channel presentation
  38. Commercial name                          : Dolby TrueHD with Dolby Atmos
  39. Codec ID                                 : A_TRUEHD
  40. Duration                                 : 2 h 11 min
  41. Bit rate mode                            : Variable
  42. Bit rate                                 : 3 797 kb/s
  43. Maximum bit rate                         : 6 537 kb/s
  44. Channel(s)                               : 8 channels
  45. Channel layout                           : L R C LFE Ls Rs Lb Rb
  46. Sampling rate                            : 48.0 kHz
  47. Frame rate                               : 1 200.000 FPS (40 SPF)
  48. Bit depth                                : 24 bits
  49. Compression mode                         : Lossless
  50. Stream size                              : 3.49 GiB (5%)
  51. Title                                    : TrueHD 7.1 Atmos
  52. Language                                 : English
  53. Default                                  : Yes
  54. Forced                                   : No
  55. Original source medium                   : Blu-ray
  56. Number of dynamic objects                : 15
  57. Bed channel count                        : 1 channel
  58. Bed channel configuration                : LFE
  59. Audio #2
  60. ID                                       : 3
  61. Format                                   : DTS XLL
  62. Format/Info                              : Digital Theater Systems
  63. Commercial name                          : DTS-HD Master Audio
  64. Codec ID                                 : A_DTS
  65. Duration                                 : 2 h 11 min
  66. Bit rate mode                            : Variable
  67. Bit rate                                 : 3 901 kb/s
  68. Channel(s)                               : 8 channels
  69. Channel layout                           : C L R LFE Lb Rb Lss Rss
  70. Sampling rate                            : 48.0 kHz
  71. Frame rate                               : 93.750 FPS (512 SPF)
  72. Bit depth                                : 24 bits
  73. Compression mode                         : Lossless
  74. Stream size                              : 3.59 GiB (5%)
  75. Title                                    : DTS-HD MA 7.1
  76. Language                                 : English
  77. Default                                  : No
  78. Forced                                   : No
  79. Audio #3
  80. ID                                       : 4
  81. ID in the original source medium         : 4352 (0x1100)
  82. Format                                   : AC-3
  83. Format/Info                              : Audio Coding 3
  84. Commercial name                          : Dolby Digital
  85. Format settings                          : Dolby Surround EX
  86. Codec ID                                 : A_AC3
  87. Duration                                 : 2 h 11 min
  88. Bit rate mode                            : Constant
  89. Bit rate                                 : 448 kb/s
  90. Channel(s)                               : 6 channels
  91. Channel layout                           : L R C LFE Ls Rs
  92. Sampling rate                            : 48.0 kHz
  93. Frame rate                               : 31.250 FPS (1536 SPF)
  94. Compression mode                         : Lossy
  95. Stream size                              : 422 MiB (0%)
  96. Title                                    : DD 5.1
  97. Language                                 : English
  98. Service kind                             : Complete Main
  99. Default                                  : No
  100. Forced                                   : No
  101. Original source medium                   : Blu-ray
  102. Audio #4
  103. ID                                       : 5
  104. ID in the original source medium         : 4353 (0x1101)
  105. Format                                   : AC-3
  106. Format/Info                              : Audio Coding 3
  107. Commercial name                          : Dolby Digital
  108. Codec ID                                 : A_AC3
  109. Duration                                 : 2 h 11 min
  110. Bit rate mode                            : Constant
  111. Bit rate                                 : 448 kb/s
  112. Channel(s)                               : 6 channels
  113. Channel layout                           : L R C LFE Ls Rs
  114. Sampling rate                            : 48.0 kHz
  115. Frame rate                               : 31.250 FPS (1536 SPF)
  116. Compression mode                         : Lossy
  117. Stream size                              : 422 MiB (0%)
  118. Title                                    : DD 5.1
  119. Language                                 : English
  120. Service kind                             : Complete Main
  121. Default                                  : No
  122. Forced                                   : No
  123. Original source medium                   : Blu-ray
  124. Audio #5
  125. ID                                       : 6
  126. ID in the original source medium         : 4354 (0x1102)
  127. Format                                   : AC-3
  128. Format/Info                              : Audio Coding 3
  129. Commercial name                          : Dolby Digital
  130. Codec ID                                 : A_AC3
  131. Duration                                 : 2 h 11 min
  132. Bit rate mode                            : Constant
  133. Bit rate                                 : 448 kb/s
  134. Channel(s)                               : 6 channels
  135. Channel layout                           : L R C LFE Ls Rs
  136. Sampling rate                            : 48.0 kHz
  137. Frame rate                               : 31.250 FPS (1536 SPF)
  138. Compression mode                         : Lossy
  139. Stream size                              : 422 MiB (0%)
  140. Title                                    : DD 5.1
  141. Language                                 : English
  142. Service kind                             : Complete Main
  143. Default                                  : No
  144. Forced                                   : No
  145. Original source medium                   : Blu-ray
  146. Audio #6
  147. ID                                       : 7
  148. ID in the original source medium         : 4355 (0x1103)
  149. Format                                   : MLP FBA 16-ch
  150. Format/Info                              : Meridian Lossless Packing FBA with 16-channel presentation
  151. Commercial name                          : Dolby TrueHD with Dolby Atmos
  152. Codec ID                                 : A_TRUEHD
  153. Duration                                 : 2 h 11 min
  154. Bit rate mode                            : Variable
  155. Bit rate                                 : 3 848 kb/s
  156. Maximum bit rate                         : 6 576 kb/s
  157. Channel(s)                               : 8 channels
  158. Channel layout                           : L R C LFE Ls Rs Lb Rb
  159. Sampling rate                            : 48.0 kHz
  160. Frame rate                               : 1 200.000 FPS (40 SPF)
  161. Bit depth                                : 24 bits
  162. Compression mode                         : Lossless
  163. Stream size                              : 3.54 GiB (5%)
  164. Title                                    : TrueHD 7.1 Atmos
  165. Language                                 : German
  166. Default                                  : No
  167. Forced                                   : No
  168. Original source medium                   : Blu-ray
  169. Number of dynamic objects                : 15
  170. Bed channel count                        : 1 channel
  171. Bed channel configuration                : LFE
  172. Audio #7
  173. ID                                       : 8
  174. ID in the original source medium         : 4355 (0x1103)
  175. Format                                   : AC-3
  176. Format/Info                              : Audio Coding 3
  177. Commercial name                          : Dolby Digital
  178. Format settings                          : Dolby Surround EX
  179. Codec ID                                 : A_AC3
  180. Duration                                 : 2 h 11 min
  181. Bit rate mode                            : Constant
  182. Bit rate                                 : 448 kb/s
  183. Channel(s)                               : 6 channels
  184. Channel layout                           : L R C LFE Ls Rs
  185. Sampling rate                            : 48.0 kHz
  186. Frame rate                               : 31.250 FPS (1536 SPF)
  187. Compression mode                         : Lossy
  188. Stream size                              : 422 MiB (0%)
  189. Title                                    : DD 5.1
  190. Language                                 : German
  191. Service kind                             : Complete Main
  192. Default                                  : No
  193. Forced                                   : No
  194. Original source medium                   : Blu-ray
  195. Audio #8
  196. ID                                       : 9
  197. ID in the original source medium         : 4356 (0x1104)
  198. Format                                   : AC-3
  199. Format/Info                              : Audio Coding 3
  200. Commercial name                          : Dolby Digital
  201. Codec ID                                 : A_AC3
  202. Duration                                 : 2 h 11 min
  203. Bit rate mode                            : Constant
  204. Bit rate                                 : 448 kb/s
  205. Channel(s)                               : 6 channels
  206. Channel layout                           : L R C LFE Ls Rs
  207. Sampling rate                            : 48.0 kHz
  208. Frame rate                               : 31.250 FPS (1536 SPF)
  209. Compression mode                         : Lossy
  210. Stream size                              : 422 MiB (0%)
  211. Title                                    : DD 5.1
  212. Language                                 : German
  213. Service kind                             : Complete Main
  214. Default                                  : No
  215. Forced                                   : No
  216. Original source medium                   : Blu-ray
  217. Audio #9
  218. ID                                       : 10
  219. ID in the original source medium         : 4357 (0x1105)
  220. Format                                   : AC-3
  221. Format/Info                              : Audio Coding 3
  222. Commercial name                          : Dolby Digital
  223. Format settings                          : Dolby Surround
  224. Codec ID                                 : A_AC3
  225. Duration                                 : 2 h 11 min
  226. Bit rate mode                            : Constant
  227. Bit rate                                 : 192 kb/s
  228. Channel(s)                               : 2 channels
  229. Channel layout                           : L R
  230. Sampling rate                            : 48.0 kHz
  231. Frame rate                               : 31.250 FPS (1536 SPF)
  232. Compression mode                         : Lossy
  233. Stream size                              : 181 MiB (0%)
  234. Title                                    : DD 5.1
  235. Language                                 : German
  236. Service kind                             : Complete Main
  237. Default                                  : No
  238. Forced                                   : No
  239. Original source medium                   : Blu-ray
  240. Audio #10
  241. ID                                       : 11
  242. ID in the original source medium         : 4358 (0x1106)
  243. Format                                   : MLP FBA 16-ch
  244. Format/Info                              : Meridian Lossless Packing FBA with 16-channel presentation
  245. Commercial name                          : Dolby TrueHD with Dolby Atmos
  246. Codec ID                                 : A_TRUEHD
  247. Duration                                 : 2 h 11 min
  248. Bit rate mode                            : Variable
  249. Bit rate                                 : 4 013 kb/s
  250. Maximum bit rate                         : 6 891 kb/s
  251. Channel(s)                               : 8 channels
  252. Channel layout                           : L R C LFE Ls Rs Lb Rb
  253. Sampling rate                            : 48.0 kHz
  254. Frame rate                               : 1 200.000 FPS (40 SPF)
  255. Bit depth                                : 24 bits
  256. Compression mode                         : Lossless
  257. Stream size                              : 3.69 GiB (5%)
  258. Title                                    : TrueHD 7.1 Atmos
  259. Language                                 : Italian
  260. Default                                  : No
  261. Forced                                   : No
  262. Original source medium                   : Blu-ray
  263. Number of dynamic objects                : 15
  264. Bed channel count                        : 1 channel
  265. Bed channel configuration                : LFE
  266. Audio #11
  267. ID                                       : 12
  268. ID in the original source medium         : 4358 (0x1106)
  269. Format                                   : AC-3
  270. Format/Info                              : Audio Coding 3
  271. Commercial name                          : Dolby Digital
  272. Format settings                          : Dolby Surround EX
  273. Codec ID                                 : A_AC3
  274. Duration                                 : 2 h 11 min
  275. Bit rate mode                            : Constant
  276. Bit rate                                 : 448 kb/s
  277. Channel(s)                               : 6 channels
  278. Channel layout                           : L R C LFE Ls Rs
  279. Sampling rate                            : 48.0 kHz
  280. Frame rate                               : 31.250 FPS (1536 SPF)
  281. Compression mode                         : Lossy
  282. Stream size                              : 422 MiB (0%)
  283. Title                                    : DD 5.1
  284. Language                                 : Italian
  285. Service kind                             : Complete Main
  286. Default                                  : No
  287. Forced                                   : No
  288. Original source medium                   : Blu-ray
  289. Audio #12
  290. ID                                       : 13
  291. ID in the original source medium         : 4359 (0x1107)
  292. Format                                   : AC-3
  293. Format/Info                              : Audio Coding 3
  294. Commercial name                          : Dolby Digital
  295. Codec ID                                 : A_AC3
  296. Duration                                 : 2 h 11 min
  297. Bit rate mode                            : Constant
  298. Bit rate                                 : 448 kb/s
  299. Channel(s)                               : 6 channels
  300. Channel layout                           : L R C LFE Ls Rs
  301. Sampling rate                            : 48.0 kHz
  302. Frame rate                               : 31.250 FPS (1536 SPF)
  303. Compression mode                         : Lossy
  304. Stream size                              : 422 MiB (0%)
  305. Title                                    : DD 5.1
  306. Language                                 : Italian
  307. Service kind                             : Complete Main
  308. Default                                  : No
  309. Forced                                   : No
  310. Original source medium                   : Blu-ray
  311. Audio #13
  312. ID                                       : 14
  313. ID in the original source medium         : 4360 (0x1108)
  314. Format                                   : AC-3
  315. Format/Info                              : Audio Coding 3
  316. Commercial name                          : Dolby Digital
  317. Codec ID                                 : A_AC3
  318. Duration                                 : 2 h 11 min
  319. Bit rate mode                            : Constant
  320. Bit rate                                 : 448 kb/s
  321. Channel(s)                               : 6 channels
  322. Channel layout                           : L R C LFE Ls Rs
  323. Sampling rate                            : 48.0 kHz
  324. Frame rate                               : 31.250 FPS (1536 SPF)
  325. Compression mode                         : Lossy
  326. Stream size                              : 422 MiB (0%)
  327. Title                                    : DD 5.1
  328. Language                                 : Spanish
  329. Service kind                             : Complete Main
  330. Default                                  : No
  331. Forced                                   : No
  332. Original source medium                   : Blu-ray
  333. Audio #14
  334. ID                                       : 15
  335. ID in the original source medium         : 4361 (0x1109)
  336. Format                                   : AC-3
  337. Format/Info                              : Audio Coding 3
  338. Commercial name                          : Dolby Digital
  339. Codec ID                                 : A_AC3
  340. Duration                                 : 2 h 11 min
  341. Bit rate mode                            : Constant
  342. Bit rate                                 : 448 kb/s
  343. Channel(s)                               : 6 channels
  344. Channel layout                           : L R C LFE Ls Rs
  345. Sampling rate                            : 48.0 kHz
  346. Frame rate                               : 31.250 FPS (1536 SPF)
  347. Compression mode                         : Lossy
  348. Stream size                              : 422 MiB (0%)
  349. Title                                    : DD 5.1
  350. Language                                 : Polish
  351. Service kind                             : Complete Main
  352. Default                                  : No
  353. Forced                                   : No
  354. Original source medium                   : Blu-ray
  355. Audio #15
  356. ID                                       : 16
  357. ID in the original source medium         : 4362 (0x110A)
  358. Format                                   : AC-3
  359. Format/Info                              : Audio Coding 3
  360. Commercial name                          : Dolby Digital
  361. Codec ID                                 : A_AC3
  362. Duration                                 : 2 h 11 min
  363. Bit rate mode                            : Constant
  364. Bit rate                                 : 448 kb/s
  365. Channel(s)                               : 6 channels
  366. Channel layout                           : L R C LFE Ls Rs
  367. Sampling rate                            : 48.0 kHz
  368. Frame rate                               : 31.250 FPS (1536 SPF)
  369. Compression mode                         : Lossy
  370. Stream size                              : 422 MiB (0%)
  371. Title                                    : DD 5.1
  372. Language                                 : Polish
  373. Service kind                             : Complete Main
  374. Default                                  : No
  375. Forced                                   : No
  376. Original source medium                   : Blu-ray
  377. Audio #16
  378. ID                                       : 17
  379. ID in the original source medium         : 4363 (0x110B)
  380. Format                                   : AC-3
  381. Format/Info                              : Audio Coding 3
  382. Commercial name                          : Dolby Digital
  383. Format settings                          : Dolby Surround
  384. Codec ID                                 : A_AC3
  385. Duration                                 : 2 h 11 min
  386. Bit rate mode                            : Constant
  387. Bit rate                                 : 192 kb/s
  388. Channel(s)                               : 2 channels
  389. Channel layout                           : L R
  390. Sampling rate                            : 48.0 kHz
  391. Frame rate                               : 31.250 FPS (1536 SPF)
  392. Compression mode                         : Lossy
  393. Stream size                              : 181 MiB (0%)
  394. Title                                    : DD 2.0
  395. Language                                 : English
  396. Service kind                             : Complete Main
  397. Default                                  : No
  398. Forced                                   : No
  399. Original source medium                   : Blu-ray
  400. Text #1
  401. ID                                       : 18
  402. Format                                   : UTF-8
  403. Codec ID                                 : S_TEXT/UTF8
  404. Codec ID/Info                            : UTF-8 Plain Text
  405. Duration                                 : 2 h 10 min
  406. Bit rate                                 : 42 b/s
  407. Frame rate                               : 0.166 FPS
  408. Count of elements                        : 1302
  409. Stream size                              : 41.2 KiB (0%)
  410. Language                                 : English
  411. Default                                  : Yes
  412. Forced                                   : No
  413. Text #2
  414. ID                                       : 19
  415. Format                                   : UTF-8
  416. Codec ID                                 : S_TEXT/UTF8
  417. Codec ID/Info                            : UTF-8 Plain Text
  418. Duration                                 : 2 h 11 min
  419. Bit rate                                 : 51 b/s
  420. Frame rate                               : 0.210 FPS
  421. Count of elements                        : 1651
  422. Stream size                              : 49.9 KiB (0%)
  423. Title                                    : SDH
  424. Language                                 : English
  425. Default                                  : No
  426. Forced                                   : No
  427. Text #3
  428. ID                                       : 20
  429. ID in the original source medium         : 4768 (0x12A0)
  430. Format                                   : PGS
  431. Muxing mode                              : zlib
  432. Codec ID                                 : S_HDMV/PGS
  433. Codec ID/Info                            : Picture based subtitle format used on BDs/HD-DVDs
  434. Duration                                 : 2 h 11 min
  435. Bit rate                                 : 33.0 kb/s
  436. Frame rate                               : 0.422 FPS
  437. Count of elements                        : 3322
  438. Stream size                              : 31.0 MiB (0%)
  439. Language                                 : English
  440. Default                                  : No
  441. Forced                                   : No
  442. Original source medium                   : Blu-ray
  443. Text #4
  444. ID                                       : 21
  445. ID in the original source medium         : 4769 (0x12A1)
  446. Format                                   : PGS
  447. Muxing mode                              : zlib
  448. Codec ID                                 : S_HDMV/PGS
  449. Codec ID/Info                            : Picture based subtitle format used on BDs/HD-DVDs
  450. Duration                                 : 2 h 11 min
  451. Bit rate                                 : 33.4 kb/s
  452. Frame rate                               : 0.340 FPS
  453. Count of elements                        : 2682
  454. Stream size                              : 31.4 MiB (0%)
  455. Language                                 : German
  456. Default                                  : No
  457. Forced                                   : No
  458. Original source medium                   : Blu-ray
  459. Text #5
  460. ID                                       : 22
  461. ID in the original source medium         : 4770 (0x12A2)
  462. Format                                   : PGS
  463. Muxing mode                              : zlib
  464. Codec ID                                 : S_HDMV/PGS
  465. Codec ID/Info                            : Picture based subtitle format used on BDs/HD-DVDs
  466. Duration                                 : 2 h 11 min
  467. Bit rate                                 : 33.2 kb/s
  468. Frame rate                               : 0.438 FPS
  469. Count of elements                        : 3452
  470. Stream size                              : 31.2 MiB (0%)
  471. Language                                 : Italian
  472. Default                                  : No
  473. Forced                                   : No
  474. Original source medium                   : Blu-ray
  475. Text #6
  476. ID                                       : 23
  477. ID in the original source medium         : 4770 (0x12A2)
  478. Format                                   : PGS
  479. Muxing mode                              : zlib
  480. Codec ID                                 : S_HDMV/PGS
  481. Codec ID/Info                            : Picture based subtitle format used on BDs/HD-DVDs
  482. Duration                                 : 1 h 31 min
  483. Bit rate                                 : 320 b/s
  484. Frame rate                               : 0.004 FPS
  485. Count of elements                        : 20
  486. Stream size                              : 215 KiB (0%)
  487. Language                                 : Italian
  488. Default                                  : No
  489. Forced                                   : No
  490. Original source medium                   : Blu-ray
  491. Text #7
  492. ID                                       : 24
  493. ID in the original source medium         : 4771 (0x12A3)
  494. Format                                   : PGS
  495. Muxing mode                              : zlib
  496. Codec ID                                 : S_HDMV/PGS
  497. Codec ID/Info                            : Picture based subtitle format used on BDs/HD-DVDs
  498. Duration                                 : 2 h 10 min
  499. Bit rate                                 : 27.9 kb/s
  500. Frame rate                               : 0.346 FPS
  501. Count of elements                        : 2712
  502. Stream size                              : 26.1 MiB (0%)
  503. Language                                 : Spanish
  504. Default                                  : No
  505. Forced                                   : No
  506. Original source medium                   : Blu-ray
  507. Text #8
  508. ID                                       : 25
  509. ID in the original source medium         : 4771 (0x12A3)
  510. Format                                   : PGS
  511. Muxing mode                              : zlib
  512. Codec ID                                 : S_HDMV/PGS
  513. Codec ID/Info                            : Picture based subtitle format used on BDs/HD-DVDs
  514. Duration                                 : 2 h 0 min
  515. Bit rate                                 : 580 b/s
  516. Frame rate                               : 0.005 FPS
  517. Count of elements                        : 38
  518. Stream size                              : 514 KiB (0%)
  519. Language                                 : Spanish
  520. Default                                  : No
  521. Forced                                   : No
  522. Original source medium                   : Blu-ray
  523. Text #9
  524. ID                                       : 26
  525. ID in the original source medium         : 4772 (0x12A4)
  526. Format                                   : PGS
  527. Muxing mode                              : zlib
  528. Codec ID                                 : S_HDMV/PGS
  529. Codec ID/Info                            : Picture based subtitle format used on BDs/HD-DVDs
  530. Duration                                 : 2 h 10 min
  531. Bit rate                                 : 25.0 kb/s
  532. Frame rate                               : 0.257 FPS
  533. Count of elements                        : 2020
  534. Stream size                              : 23.4 MiB (0%)
  535. Language                                 : Danish
  536. Default                                  : No
  537. Forced                                   : No
  538. Original source medium                   : Blu-ray
  539. Text #10
  540. ID                                       : 27
  541. ID in the original source medium         : 4773 (0x12A5)
  542. Format                                   : PGS
  543. Muxing mode                              : zlib
  544. Codec ID                                 : S_HDMV/PGS
  545. Codec ID/Info                            : Picture based subtitle format used on BDs/HD-DVDs
  546. Duration                                 : 2 h 10 min
  547. Bit rate                                 : 30.2 kb/s
  548. Frame rate                               : 0.345 FPS
  549. Count of elements                        : 2706
  550. Stream size                              : 28.3 MiB (0%)
  551. Language                                 : Finnish
  552. Default                                  : No
  553. Forced                                   : No
  554. Original source medium                   : Blu-ray
  555. Text #11
  556. ID                                       : 28
  557. ID in the original source medium         : 4774 (0x12A6)
  558. Format                                   : PGS
  559. Muxing mode                              : zlib
  560. Codec ID                                 : S_HDMV/PGS
  561. Codec ID/Info                            : Picture based subtitle format used on BDs/HD-DVDs
  562. Duration                                 : 2 h 10 min
  563. Bit rate                                 : 23.9 kb/s
  564. Frame rate                               : 0.276 FPS
  565. Count of elements                        : 2168
  566. Stream size                              : 22.3 MiB (0%)
  567. Language                                 : Norwegian
  568. Default                                  : No
  569. Forced                                   : No
  570. Original source medium                   : Blu-ray
  571. Text #12
  572. ID                                       : 29
  573. ID in the original source medium         : 4775 (0x12A7)
  574. Format                                   : PGS
  575. Muxing mode                              : zlib
  576. Codec ID                                 : S_HDMV/PGS
  577. Codec ID/Info                            : Picture based subtitle format used on BDs/HD-DVDs
  578. Duration                                 : 2 h 10 min
  579. Bit rate                                 : 23.5 kb/s
  580. Frame rate                               : 0.337 FPS
  581. Count of elements                        : 2648
  582. Stream size                              : 22.0 MiB (0%)
  583. Language                                 : Polish
  584. Default                                  : No
  585. Forced                                   : No
  586. Original source medium                   : Blu-ray
  587. Text #13
  588. ID                                       : 30
  589. ID in the original source medium         : 4775 (0x12A7)
  590. Format                                   : PGS
  591. Muxing mode                              : zlib
  592. Codec ID                                 : S_HDMV/PGS
  593. Codec ID/Info                            : Picture based subtitle format used on BDs/HD-DVDs
  594. Duration                                 : 2 h 1 min
  595. Bit rate                                 : 170 b/s
  596. Frame rate                               : 0.002 FPS
  597. Count of elements                        : 18
  598. Stream size                              : 152 KiB (0%)
  599. Language                                 : Polish
  600. Default                                  : No
  601. Forced                                   : No
  602. Original source medium                   : Blu-ray
  603. Text #14
  604. ID                                       : 31
  605. ID in the original source medium         : 4776 (0x12A8)
  606. Format                                   : PGS
  607. Muxing mode                              : zlib
  608. Codec ID                                 : S_HDMV/PGS
  609. Codec ID/Info                            : Picture based subtitle format used on BDs/HD-DVDs
  610. Duration                                 : 2 h 10 min
  611. Bit rate                                 : 25.3 kb/s
  612. Frame rate                               : 0.347 FPS
  613. Count of elements                        : 2726
  614. Stream size                              : 23.7 MiB (0%)
  615. Language                                 : Swedish
  616. Default                                  : No
  617. Forced                                   : No
  618. Original source medium                   : Blu-ray
  619. Text #15
  620. ID                                       : 32
  621. ID in the original source medium         : 4777 (0x12A9)
  622. Format                                   : PGS
  623. Muxing mode                              : zlib
  624. Codec ID                                 : S_HDMV/PGS
  625. Codec ID/Info                            : Picture based subtitle format used on BDs/HD-DVDs
  626. Duration                                 : 1 h 29 min
  627. Bit rate                                 : 503 b/s
  628. Frame rate                               : 0.004 FPS
  629. Count of elements                        : 22
  630. Stream size                              : 330 KiB (0%)
  631. Language                                 : German
  632. Default                                  : No
  633. Forced                                   : No
  634. Original source medium                   : Blu-ray
  635. Menu
  636. 00:00:00.000                             : en:Chapter 01
  637. 00:10:53.694                             : en:Chapter 02
  638. 00:18:06.585                             : en:Chapter 03
  639. 00:30:27.325                             : en:Chapter 04
  640. 00:45:18.632                             : en:Chapter 05
  641. 00:54:10.830                             : en:Chapter 06
  642. 01:05:41.646                             : en:Chapter 07
  643. 01:09:31.292                             : en:Chapter 08
  644. 01:19:31.308                             : en:Chapter 09
  645. 01:30:06.067                             : en:Chapter 10
  646. 01:38:36.785                             : en:Chapter 11
  647. 01:49:58.508                             : en:Chapter 12
  648. 01:59:28.536                             : en:Chapter 13
复制代码




                                       
                                       

                                       
                                       
                                       




哥斯拉2:怪兽之王 Godzilla.King.of.the.Monsters.2019.PROPER.2160p.BluRay.REMUX.HEVC.DTS-HD.MA.TrueHD.7.1.Atmos-FGT 72.90GB

Godzilla.King.of.the.Monsters.2019.PROPER.2160p.BluRay.REMUX.HEVC.DTS-HD.MA.True.torrent

91.84 KB, 下载次数: 2, 下载积分: 蓝光币 -2

回复

使用道具 举报

您需要登录后才可以回帖 登录 | 立即注册

本版积分规则

QQ|Archiver|手机版|小黑屋|蓝光电影网

GMT+8, 2023-2-8 02:41 , Processed in 0.058482 second(s), 28 queries .

Powered by Discuz! X3.4

Copyright © 2001-2020, Tencent Cloud.

快速回复 返回顶部 返回列表