找回密码
 立即注册

QQ登录

只需一步,快速开始

查看: 120|回复: 0

[UHD.HEVC] 哥斯拉 Godzilla.2014.PROPER.2160p.BluRay.REMUX.HEVC.DTS-HD.MA.TrueHD.7.1.Atmos-FGT 79.09GB

[复制链接]

0

精华

0

好友

2

听众

新手上路

Rank: 2

蓝光币
5
发表于 2022-12-22 07:58:34 | 显示全部楼层 |阅读模式
[img][/img]

◎标  题 哥斯拉
◎译  名 哥吉拉(台) / ゴジラ
◎片  名 Godzilla
◎年  代 2014
◎产  地 美国 / 日本
◎类  别 动作 / 科幻 / 冒险 / 灾难
◎语  言 英语 / 日语
◎上映日期 2014-06-13(中国大陆) / 2014-05-08(洛杉矶首映) / 2014-05-16(美国)
◎IMDb评分 6.4/10 (401275人评价)
◎IMDb链接 https://www.imdb.com/title/tt0831387/
◎豆瓣评分 6.6/10 (191937人评价)
◎豆瓣链接 https://movie.douban.com/subject/2063914/
◎片  长 123分钟
◎导  演 加里斯·爱德华斯 Gareth Edwards
◎编  剧 麦克思·鲍伦斯坦 Max Borenstein
       戴夫·卡拉汉姆 Dave Callaham
       本多猪四郎  Ishirô Honda
       村田武雄 Takeo Murata
       香山滋 Shigeru Kayama
       弗兰克·德拉邦特 Frank Darabont
       大卫·S·高耶 David S. Goyer
       圆谷英二 Eiji Tsuburaya
◎演  员 亚伦·泰勒-约翰逊 Aaron Taylor-Johnson
       卡梅隆·CJ·亚当斯 Cameron 'CJ' Adams
       渡边谦 Ken Watanabe
       布莱恩·科兰斯顿 Bryan Cranston
       伊丽莎白·奥尔森 Elizabeth Olsen
       卡森·波尔德 Carson Bolde
       莎莉·霍金斯 Sally Hawkins
       朱丽叶·比诺什 Juliette Binoche
       大卫·斯特雷泽恩 David Strathairn
       理查德·琼斯 Richard T. Jones
       维克多·罗塞克 Victor Rasuk
       帕特里克·萨邦圭 Patrick Sabongui
       杰瑞德·基苏 Jared Keeso
       卢克·罗德里克 Luc Roderique
       詹姆斯·皮齐纳托 James Pizzinato
       埃里克·李塞德 Eric Keenleyside
       山村宪之介 Ken Yamamura
       加里·切克 Gary Chalk
       神奈川宏幸 Hiro Kanagawa
       特瑞·陈 Terry Chen
       詹姆斯·D·德弗 James D. Dever
       宝田明 Akira Takarada
       杰森·弗鲁卡瓦 Jason Furukawa
       布莱恩·马克金森 Brian Markinson
       泰·奥尔森 Ty Olsson
       阿尔·萨皮恩扎 Al Sapienza
       彼得·新田 Peter Shinkoda
       比尔·马钱特 Bill Marchant
       克里斯蒂安·特西尔 Christian Tessier
       泰勒·尼科斯 Taylor Nichols
       安东尼·科尼切尼 Anthony Konechny
       森田友希 Yuki Morita
       莱恩·爱德华兹 Lane Edwards
       基奥·伍尔福德 Keo Woolford
       托比·莱文斯 Toby Levins
       艾伦·坡尔 Aaron Pearl
       艾米·福克斯 Amy Fox
       迈克尔·丹尼斯 Michael Patrick Denis
       玛茜·T·豪斯 Marci T. House
       凯文·欧格雷迪 Kevin O'Grady
       埃里克·阿达尔 Erik Aadahl
       拉吉·K.波斯 Raj K. Bose
       佐野史郎 Shirô Sano
       史蒂文·韦格 Steven Wiig
       托马斯·图尔 Thomas Tull
       亚历山大·德斯普拉 Alexandre Desplat
       西穆斯·迈克加维 Seamus McGarvey
       鲍勃·达克萨 Bob Ducsay
       雪伦·戴维斯 Sharen Davis
       裘德·普瓦耶 Jude Poyer
       达里尔·索丘克 Daryl Sawchuk
       安德拉斯·伊克拉迪 Andras Ikladi
       戴维·温斯坦 David Weinstein
       保罗·弗拉纳根 Paul Flanagan
       Mengdi Wang Mengdi Wang
       拉法尔·迪博斯基 Rafal Dybowski
◎标  签 科幻 / 美国 / 灾难 / 怪兽 / 2014 / 动作 / 视觉 / 日本
◎简  介

  拥有幸福美满生活的大兵福德·布罗迪(亚伦·泰勒-约翰逊 Aaron Taylor-Johnson 饰),内心隐藏着一个挥之不去的阴影。15年前,他和父亲乔伊(布莱恩·科兰斯顿 Bryan Cranston 饰)、母亲桑德拉(朱丽叶·比诺什 Juliette Binoch e 饰)生活在日本。父母供职于一座大型核电站。就在福德的爸爸生日当天,一场突如其来的灾难摧毁了核电站,他的母亲在灾难中丧生,语焉不详的政府隐瞒真相,以防止核辐射的名义封锁了该地区。但是乔伊却从种种异状觉察到反常之处,十五年来他一直试图揭开当天的灾难之谜,终于发现这一切都是由一只如山一般巨大的怪兽所引起。                                    
                                怪兽哥斯拉从沉睡中苏醒,令人难以预测的灾难席卷而来……
  1. Video
  2. ID                                       : 1
  3. ID in the original source medium         : 4113 (0x1011)
  4. Format                                   : HEVC
  5. Format/Info                              : High Efficiency Video Coding
  6. Format profile                           : Main [email protected]@High
  7. HDR format                               : SMPTE ST 2086, HDR10 compatible
  8. Codec ID                                 : V_MPEGH/ISO/HEVC
  9. Duration                                 : 2 h 3 min
  10. Bit rate                                 : 71.6 Mb/s
  11. Width                                    : 3 840 pixels
  12. Height                                   : 2 160 pixels
  13. Display aspect ratio                     : 16:9
  14. Frame rate mode                          : Constant
  15. Frame rate                               : 23.976 (24000/1001/189150) FPS
  16. Color space                              : YUV
  17. Chroma subsampling                       : 4:2:0 (Type 2)
  18. Bit depth                                : 10 bits
  19. Bits/(Pixel*Frame)                       : 0.360
  20. Stream size                              : 61.6 GiB (78%)
  21. Language                                 : English
  22. Default                                  : No
  23. Forced                                   : No
  24. Color range                              : Limited
  25. Color primaries                          : BT.2020
  26. Transfer characteristics                 : PQ
  27. Matrix coefficients                      : BT.2020 non-constant
  28. Mastering display color primaries        : Display P3
  29. Mastering display luminance              : min: 0.0050 cd/m2, max: 4000 cd/m2
  30. Maximum Content Light Level              : 498 cd/m2
  31. Maximum Frame-Average Light Level        : 92 cd/m2
  32. Original source medium                   : Blu-ray
  33. Audio #1
  34. ID                                       : 2
  35. ID in the original source medium         : 4352 (0x1100)
  36. Format                                   : MLP FBA 16-ch
  37. Format/Info                              : Meridian Lossless Packing FBA with 16-channel presentation
  38. Commercial name                          : Dolby TrueHD with Dolby Atmos
  39. Codec ID                                 : A_TRUEHD
  40. Duration                                 : 2 h 3 min
  41. Bit rate mode                            : Variable
  42. Bit rate                                 : 3 247 kb/s
  43. Maximum bit rate                         : 5 118 kb/s
  44. Channel(s)                               : 8 channels
  45. Channel layout                           : L R C LFE Ls Rs Lb Rb
  46. Sampling rate                            : 48.0 kHz
  47. Frame rate                               : 1 200.000 FPS (40 SPF)
  48. Bit depth                                : 24 bits
  49. Compression mode                         : Lossless
  50. Stream size                              : 2.79 GiB (4%)
  51. Title                                    : TrueHD 7.1 Atmos
  52. Language                                 : English
  53. Default                                  : Yes
  54. Forced                                   : No
  55. Original source medium                   : Blu-ray
  56. Number of dynamic objects                : 11
  57. Bed channel count                        : 1 channel
  58. Bed channel configuration                : LFE
  59. Audio #2
  60. ID                                       : 3
  61. Format                                   : DTS XLL
  62. Format/Info                              : Digital Theater Systems
  63. Commercial name                          : DTS-HD Master Audio
  64. Codec ID                                 : A_DTS
  65. Duration                                 : 2 h 3 min
  66. Bit rate mode                            : Variable
  67. Bit rate                                 : 4 161 kb/s
  68. Channel(s)                               : 8 channels
  69. Channel layout                           : C L R LFE Lb Rb Lss Rss
  70. Sampling rate                            : 48.0 kHz
  71. Frame rate                               : 93.750 FPS (512 SPF)
  72. Bit depth                                : 24 bits
  73. Compression mode                         : Lossless
  74. Stream size                              : 3.58 GiB (5%)
  75. Title                                    : DTS-HD MA 7.1
  76. Language                                 : English
  77. Default                                  : No
  78. Forced                                   : No
  79. Audio #3
  80. ID                                       : 4
  81. ID in the original source medium         : 4352 (0x1100)
  82. Format                                   : AC-3
  83. Format/Info                              : Audio Coding 3
  84. Commercial name                          : Dolby Digital
  85. Format settings                          : Dolby Surround EX
  86. Codec ID                                 : A_AC3
  87. Duration                                 : 2 h 3 min
  88. Bit rate mode                            : Constant
  89. Bit rate                                 : 448 kb/s
  90. Channel(s)                               : 6 channels
  91. Channel layout                           : L R C LFE Ls Rs
  92. Sampling rate                            : 48.0 kHz
  93. Frame rate                               : 31.250 FPS (1536 SPF)
  94. Compression mode                         : Lossy
  95. Stream size                              : 394 MiB (0%)
  96. Title                                    : DD 5.1
  97. Language                                 : English
  98. Service kind                             : Complete Main
  99. Default                                  : No
  100. Forced                                   : No
  101. Original source medium                   : Blu-ray
  102. Audio #4
  103. ID                                       : 5
  104. ID in the original source medium         : 4353 (0x1101)
  105. Format                                   : AC-3
  106. Format/Info                              : Audio Coding 3
  107. Commercial name                          : Dolby Digital
  108. Codec ID                                 : A_AC3
  109. Duration                                 : 2 h 3 min
  110. Bit rate mode                            : Constant
  111. Bit rate                                 : 448 kb/s
  112. Channel(s)                               : 6 channels
  113. Channel layout                           : L R C LFE Ls Rs
  114. Sampling rate                            : 48.0 kHz
  115. Frame rate                               : 31.250 FPS (1536 SPF)
  116. Compression mode                         : Lossy
  117. Stream size                              : 394 MiB (0%)
  118. Title                                    : DD 5.1
  119. Language                                 : English
  120. Service kind                             : Complete Main
  121. Default                                  : No
  122. Forced                                   : No
  123. Original source medium                   : Blu-ray
  124. Audio #5
  125. ID                                       : 6
  126. ID in the original source medium         : 4354 (0x1102)
  127. Format                                   : AC-3
  128. Format/Info                              : Audio Coding 3
  129. Commercial name                          : Dolby Digital
  130. Codec ID                                 : A_AC3
  131. Duration                                 : 2 h 3 min
  132. Bit rate mode                            : Constant
  133. Bit rate                                 : 448 kb/s
  134. Channel(s)                               : 6 channels
  135. Channel layout                           : L R C LFE Ls Rs
  136. Sampling rate                            : 48.0 kHz
  137. Frame rate                               : 31.250 FPS (1536 SPF)
  138. Compression mode                         : Lossy
  139. Stream size                              : 394 MiB (0%)
  140. Title                                    : DD 5.1
  141. Language                                 : French
  142. Service kind                             : Complete Main
  143. Default                                  : No
  144. Forced                                   : No
  145. Original source medium                   : Blu-ray
  146. Audio #6
  147. ID                                       : 7
  148. ID in the original source medium         : 4355 (0x1103)
  149. Format                                   : DTS XLL
  150. Format/Info                              : Digital Theater Systems
  151. Commercial name                          : DTS-HD Master Audio
  152. Codec ID                                 : A_DTS
  153. Duration                                 : 2 h 3 min
  154. Bit rate mode                            : Variable
  155. Bit rate                                 : 2 918 kb/s
  156. Channel(s)                               : 8 channels
  157. Channel layout                           : C L R LFE Lb Rb Lss Rss
  158. Sampling rate                            : 48.0 kHz
  159. Frame rate                               : 93.750 FPS (512 SPF)
  160. Bit depth                                : 16 bits
  161. Compression mode                         : Lossless
  162. Stream size                              : 2.51 GiB (3%)
  163. Title                                    : DTS-HD MA 7.1
  164. Language                                 : French
  165. Default                                  : No
  166. Forced                                   : No
  167. Original source medium                   : Blu-ray
  168. Audio #7
  169. ID                                       : 8
  170. ID in the original source medium         : 4356 (0x1104)
  171. Format                                   : DTS XLL
  172. Format/Info                              : Digital Theater Systems
  173. Commercial name                          : DTS-HD Master Audio
  174. Codec ID                                 : A_DTS
  175. Duration                                 : 2 h 3 min
  176. Bit rate mode                            : Variable
  177. Bit rate                                 : 2 920 kb/s
  178. Channel(s)                               : 8 channels
  179. Channel layout                           : C L R LFE Lb Rb Lss Rss
  180. Sampling rate                            : 48.0 kHz
  181. Frame rate                               : 93.750 FPS (512 SPF)
  182. Bit depth                                : 16 bits
  183. Compression mode                         : Lossless
  184. Stream size                              : 2.51 GiB (3%)
  185. Title                                    : DTS-HD MA 7.1
  186. Language                                 : German
  187. Default                                  : No
  188. Forced                                   : No
  189. Original source medium                   : Blu-ray
  190. Audio #8
  191. ID                                       : 9
  192. ID in the original source medium         : 4357 (0x1105)
  193. Format                                   : DTS XLL
  194. Format/Info                              : Digital Theater Systems
  195. Commercial name                          : DTS-HD Master Audio
  196. Codec ID                                 : A_DTS
  197. Duration                                 : 2 h 3 min
  198. Bit rate mode                            : Variable
  199. Bit rate                                 : 2 869 kb/s
  200. Channel(s)                               : 8 channels
  201. Channel layout                           : C L R LFE Lb Rb Lss Rss
  202. Sampling rate                            : 48.0 kHz
  203. Frame rate                               : 93.750 FPS (512 SPF)
  204. Bit depth                                : 16 bits
  205. Compression mode                         : Lossless
  206. Stream size                              : 2.47 GiB (3%)
  207. Title                                    : DTS-HD MA 7.1
  208. Language                                 : Italian
  209. Default                                  : No
  210. Forced                                   : No
  211. Original source medium                   : Blu-ray
  212. Audio #9
  213. ID                                       : 10
  214. ID in the original source medium         : 4358 (0x1106)
  215. Format                                   : AC-3
  216. Format/Info                              : Audio Coding 3
  217. Commercial name                          : Dolby Digital
  218. Codec ID                                 : A_AC3
  219. Duration                                 : 2 h 3 min
  220. Bit rate mode                            : Constant
  221. Bit rate                                 : 448 kb/s
  222. Channel(s)                               : 6 channels
  223. Channel layout                           : L R C LFE Ls Rs
  224. Sampling rate                            : 48.0 kHz
  225. Frame rate                               : 31.250 FPS (1536 SPF)
  226. Compression mode                         : Lossy
  227. Stream size                              : 394 MiB (0%)
  228. Title                                    : DD 5.1
  229. Language                                 : Spanish
  230. Service kind                             : Complete Main
  231. Default                                  : No
  232. Forced                                   : No
  233. Original source medium                   : Blu-ray
  234. Audio #10
  235. ID                                       : 11
  236. ID in the original source medium         : 4359 (0x1107)
  237. Format                                   : AC-3
  238. Format/Info                              : Audio Coding 3
  239. Commercial name                          : Dolby Digital
  240. Codec ID                                 : A_AC3
  241. Duration                                 : 2 h 3 min
  242. Bit rate mode                            : Constant
  243. Bit rate                                 : 448 kb/s
  244. Channel(s)                               : 6 channels
  245. Channel layout                           : L R C LFE Ls Rs
  246. Sampling rate                            : 48.0 kHz
  247. Frame rate                               : 31.250 FPS (1536 SPF)
  248. Compression mode                         : Lossy
  249. Stream size                              : 394 MiB (0%)
  250. Title                                    : DD 5.1
  251. Language                                 : Spanish
  252. Service kind                             : Complete Main
  253. Default                                  : No
  254. Forced                                   : No
  255. Original source medium                   : Blu-ray
  256. Audio #11
  257. ID                                       : 12
  258. ID in the original source medium         : 4360 (0x1108)
  259. Format                                   : AC-3
  260. Format/Info                              : Audio Coding 3
  261. Commercial name                          : Dolby Digital
  262. Codec ID                                 : A_AC3
  263. Duration                                 : 2 h 3 min
  264. Bit rate mode                            : Constant
  265. Bit rate                                 : 448 kb/s
  266. Channel(s)                               : 6 channels
  267. Channel layout                           : L R C LFE Ls Rs
  268. Sampling rate                            : 48.0 kHz
  269. Frame rate                               : 31.250 FPS (1536 SPF)
  270. Compression mode                         : Lossy
  271. Stream size                              : 394 MiB (0%)
  272. Title                                    : DD 5.1
  273. Language                                 : Czech
  274. Service kind                             : Complete Main
  275. Default                                  : No
  276. Forced                                   : No
  277. Original source medium                   : Blu-ray
  278. Audio #12
  279. ID                                       : 13
  280. ID in the original source medium         : 4361 (0x1109)
  281. Format                                   : AC-3
  282. Format/Info                              : Audio Coding 3
  283. Commercial name                          : Dolby Digital
  284. Codec ID                                 : A_AC3
  285. Duration                                 : 2 h 3 min
  286. Bit rate mode                            : Constant
  287. Bit rate                                 : 448 kb/s
  288. Channel(s)                               : 6 channels
  289. Channel layout                           : L R C LFE Ls Rs
  290. Sampling rate                            : 48.0 kHz
  291. Frame rate                               : 31.250 FPS (1536 SPF)
  292. Compression mode                         : Lossy
  293. Stream size                              : 394 MiB (0%)
  294. Title                                    : DD 5.1
  295. Language                                 : Hungarian
  296. Service kind                             : Complete Main
  297. Default                                  : No
  298. Forced                                   : No
  299. Original source medium                   : Blu-ray
  300. Audio #13
  301. ID                                       : 14
  302. ID in the original source medium         : 4362 (0x110A)
  303. Format                                   : AC-3
  304. Format/Info                              : Audio Coding 3
  305. Commercial name                          : Dolby Digital
  306. Codec ID                                 : A_AC3
  307. Duration                                 : 2 h 3 min
  308. Bit rate mode                            : Constant
  309. Bit rate                                 : 448 kb/s
  310. Channel(s)                               : 6 channels
  311. Channel layout                           : L R C LFE Ls Rs
  312. Sampling rate                            : 48.0 kHz
  313. Frame rate                               : 31.250 FPS (1536 SPF)
  314. Compression mode                         : Lossy
  315. Stream size                              : 394 MiB (0%)
  316. Title                                    : DD 5.1
  317. Language                                 : Polish
  318. Service kind                             : Complete Main
  319. Default                                  : No
  320. Forced                                   : No
  321. Original source medium                   : Blu-ray
  322. Audio #14
  323. ID                                       : 15
  324. ID in the original source medium         : 4363 (0x110B)
  325. Format                                   : AC-3
  326. Format/Info                              : Audio Coding 3
  327. Commercial name                          : Dolby Digital
  328. Codec ID                                 : A_AC3
  329. Duration                                 : 2 h 3 min
  330. Bit rate mode                            : Constant
  331. Bit rate                                 : 448 kb/s
  332. Channel(s)                               : 6 channels
  333. Channel layout                           : L R C LFE Ls Rs
  334. Sampling rate                            : 48.0 kHz
  335. Frame rate                               : 31.250 FPS (1536 SPF)
  336. Compression mode                         : Lossy
  337. Stream size                              : 394 MiB (0%)
  338. Title                                    : DD 5.1
  339. Language                                 : Thai
  340. Service kind                             : Complete Main
  341. Default                                  : No
  342. Forced                                   : No
  343. Original source medium                   : Blu-ray
  344. Text #1
  345. ID                                       : 16
  346. Format                                   : UTF-8
  347. Codec ID                                 : S_TEXT/UTF8
  348. Codec ID/Info                            : UTF-8 Plain Text
  349. Duration                                 : 1 h 53 min
  350. Bit rate                                 : 40 b/s
  351. Frame rate                               : 0.160 FPS
  352. Count of elements                        : 1086
  353. Stream size                              : 33.2 KiB (0%)
  354. Language                                 : English
  355. Default                                  : Yes
  356. Forced                                   : No
  357. Text #2
  358. ID                                       : 17
  359. Format                                   : UTF-8
  360. Codec ID                                 : S_TEXT/UTF8
  361. Codec ID/Info                            : UTF-8 Plain Text
  362. Duration                                 : 1 h 55 min
  363. Bit rate                                 : 48 b/s
  364. Frame rate                               : 0.205 FPS
  365. Count of elements                        : 1422
  366. Stream size                              : 41.4 KiB (0%)
  367. Title                                    : SDH
  368. Language                                 : English
  369. Default                                  : No
  370. Forced                                   : No
  371. Text #3
  372. ID                                       : 18
  373. ID in the original source medium         : 4768 (0x12A0)
  374. Format                                   : PGS
  375. Muxing mode                              : zlib
  376. Codec ID                                 : S_HDMV/PGS
  377. Codec ID/Info                            : Picture based subtitle format used on BDs/HD-DVDs
  378. Duration                                 : 1 h 55 min
  379. Bit rate                                 : 29.4 kb/s
  380. Frame rate                               : 0.419 FPS
  381. Count of elements                        : 2912
  382. Stream size                              : 24.3 MiB (0%)
  383. Language                                 : English
  384. Default                                  : No
  385. Forced                                   : No
  386. Original source medium                   : Blu-ray
  387. Text #4
  388. ID                                       : 19
  389. ID in the original source medium         : 4769 (0x12A1)
  390. Format                                   : PGS
  391. Muxing mode                              : zlib
  392. Codec ID                                 : S_HDMV/PGS
  393. Codec ID/Info                            : Picture based subtitle format used on BDs/HD-DVDs
  394. Duration                                 : 2 h 2 min
  395. Bit rate                                 : 17.0 kb/s
  396. Frame rate                               : 0.274 FPS
  397. Count of elements                        : 2008
  398. Stream size                              : 14.9 MiB (0%)
  399. Language                                 : French
  400. Default                                  : No
  401. Forced                                   : No
  402. Original source medium                   : Blu-ray
  403. Text #5
  404. ID                                       : 20
  405. ID in the original source medium         : 4770 (0x12A2)
  406. Format                                   : PGS
  407. Muxing mode                              : zlib
  408. Codec ID                                 : S_HDMV/PGS
  409. Codec ID/Info                            : Picture based subtitle format used on BDs/HD-DVDs
  410. Duration                                 : 2 h 2 min
  411. Bit rate                                 : 31.5 kb/s
  412. Frame rate                               : 0.392 FPS
  413. Count of elements                        : 2880
  414. Stream size                              : 27.5 MiB (0%)
  415. Language                                 : German
  416. Default                                  : No
  417. Forced                                   : No
  418. Original source medium                   : Blu-ray
  419. Text #6
  420. ID                                       : 21
  421. ID in the original source medium         : 4771 (0x12A3)
  422. Format                                   : PGS
  423. Muxing mode                              : zlib
  424. Codec ID                                 : S_HDMV/PGS
  425. Codec ID/Info                            : Picture based subtitle format used on BDs/HD-DVDs
  426. Duration                                 : 2 h 2 min
  427. Bit rate                                 : 28.6 kb/s
  428. Frame rate                               : 0.398 FPS
  429. Count of elements                        : 2920
  430. Stream size                              : 25.0 MiB (0%)
  431. Language                                 : Italian
  432. Default                                  : No
  433. Forced                                   : No
  434. Original source medium                   : Blu-ray
  435. Text #7
  436. ID                                       : 22
  437. ID in the original source medium         : 4772 (0x12A4)
  438. Format                                   : PGS
  439. Muxing mode                              : zlib
  440. Codec ID                                 : S_HDMV/PGS
  441. Codec ID/Info                            : Picture based subtitle format used on BDs/HD-DVDs
  442. Duration                                 : 2 h 2 min
  443. Bit rate                                 : 23.1 kb/s
  444. Frame rate                               : 0.313 FPS
  445. Count of elements                        : 2296
  446. Stream size                              : 20.2 MiB (0%)
  447. Language                                 : Spanish
  448. Default                                  : No
  449. Forced                                   : No
  450. Original source medium                   : Blu-ray
  451. Text #8
  452. ID                                       : 23
  453. ID in the original source medium         : 4773 (0x12A5)
  454. Format                                   : PGS
  455. Muxing mode                              : zlib
  456. Codec ID                                 : S_HDMV/PGS
  457. Codec ID/Info                            : Picture based subtitle format used on BDs/HD-DVDs
  458. Duration                                 : 2 h 2 min
  459. Bit rate                                 : 18.0 kb/s
  460. Frame rate                               : 0.251 FPS
  461. Count of elements                        : 1844
  462. Stream size                              : 15.8 MiB (0%)
  463. Language                                 : Dutch
  464. Default                                  : No
  465. Forced                                   : No
  466. Original source medium                   : Blu-ray
  467. Text #9
  468. ID                                       : 24
  469. ID in the original source medium         : 4774 (0x12A6)
  470. Format                                   : PGS
  471. Muxing mode                              : zlib
  472. Codec ID                                 : S_HDMV/PGS
  473. Codec ID/Info                            : Picture based subtitle format used on BDs/HD-DVDs
  474. Duration                                 : 2 h 2 min
  475. Bit rate                                 : 19.9 kb/s
  476. Frame rate                               : 0.328 FPS
  477. Count of elements                        : 2404
  478. Stream size                              : 17.4 MiB (0%)
  479. Language                                 : Chinese
  480. Default                                  : No
  481. Forced                                   : No
  482. Original source medium                   : Blu-ray
  483. Text #10
  484. ID                                       : 25
  485. ID in the original source medium         : 4775 (0x12A7)
  486. Format                                   : PGS
  487. Muxing mode                              : zlib
  488. Codec ID                                 : S_HDMV/PGS
  489. Codec ID/Info                            : Picture based subtitle format used on BDs/HD-DVDs
  490. Duration                                 : 2 h 2 min
  491. Bit rate                                 : 16.6 kb/s
  492. Frame rate                               : 0.327 FPS
  493. Count of elements                        : 2400
  494. Stream size                              : 14.5 MiB (0%)
  495. Language                                 : Korean
  496. Default                                  : No
  497. Forced                                   : No
  498. Original source medium                   : Blu-ray
  499. Text #11
  500. ID                                       : 26
  501. ID in the original source medium         : 4776 (0x12A8)
  502. Format                                   : PGS
  503. Muxing mode                              : zlib
  504. Codec ID                                 : S_HDMV/PGS
  505. Codec ID/Info                            : Picture based subtitle format used on BDs/HD-DVDs
  506. Duration                                 : 2 h 2 min
  507. Bit rate                                 : 22.7 kb/s
  508. Frame rate                               : 0.318 FPS
  509. Count of elements                        : 2330
  510. Stream size                              : 19.9 MiB (0%)
  511. Language                                 : Spanish
  512. Default                                  : No
  513. Forced                                   : No
  514. Original source medium                   : Blu-ray
  515. Text #12
  516. ID                                       : 27
  517. ID in the original source medium         : 4777 (0x12A9)
  518. Format                                   : PGS
  519. Muxing mode                              : zlib
  520. Codec ID                                 : S_HDMV/PGS
  521. Codec ID/Info                            : Picture based subtitle format used on BDs/HD-DVDs
  522. Duration                                 : 2 h 2 min
  523. Bit rate                                 : 20.4 kb/s
  524. Frame rate                               : 0.315 FPS
  525. Count of elements                        : 2310
  526. Stream size                              : 17.8 MiB (0%)
  527. Language                                 : Czech
  528. Default                                  : No
  529. Forced                                   : No
  530. Original source medium                   : Blu-ray
  531. Text #13
  532. ID                                       : 28
  533. ID in the original source medium         : 4778 (0x12AA)
  534. Format                                   : PGS
  535. Muxing mode                              : zlib
  536. Codec ID                                 : S_HDMV/PGS
  537. Codec ID/Info                            : Picture based subtitle format used on BDs/HD-DVDs
  538. Duration                                 : 2 h 2 min
  539. Bit rate                                 : 18.6 kb/s
  540. Frame rate                               : 0.301 FPS
  541. Count of elements                        : 2210
  542. Stream size                              : 16.3 MiB (0%)
  543. Language                                 : Danish
  544. Default                                  : No
  545. Forced                                   : No
  546. Original source medium                   : Blu-ray
  547. Text #14
  548. ID                                       : 29
  549. ID in the original source medium         : 4779 (0x12AB)
  550. Format                                   : PGS
  551. Muxing mode                              : zlib
  552. Codec ID                                 : S_HDMV/PGS
  553. Codec ID/Info                            : Picture based subtitle format used on BDs/HD-DVDs
  554. Duration                                 : 2 h 1 min
  555. Bit rate                                 : 17.4 kb/s
  556. Frame rate                               : 0.274 FPS
  557. Count of elements                        : 1994
  558. Stream size                              : 15.0 MiB (0%)
  559. Language                                 : Finnish
  560. Default                                  : No
  561. Forced                                   : No
  562. Original source medium                   : Blu-ray
  563. Text #15
  564. ID                                       : 30
  565. ID in the original source medium         : 4780 (0x12AC)
  566. Format                                   : PGS
  567. Muxing mode                              : zlib
  568. Codec ID                                 : S_HDMV/PGS
  569. Codec ID/Info                            : Picture based subtitle format used on BDs/HD-DVDs
  570. Duration                                 : 2 h 2 min
  571. Bit rate                                 : 22.1 kb/s
  572. Frame rate                               : 0.309 FPS
  573. Count of elements                        : 2266
  574. Stream size                              : 19.4 MiB (0%)
  575. Language                                 : Hungarian
  576. Default                                  : No
  577. Forced                                   : No
  578. Original source medium                   : Blu-ray
  579. Text #16
  580. ID                                       : 31
  581. ID in the original source medium         : 4781 (0x12AD)
  582. Format                                   : PGS
  583. Muxing mode                              : zlib
  584. Codec ID                                 : S_HDMV/PGS
  585. Codec ID/Info                            : Picture based subtitle format used on BDs/HD-DVDs
  586. Duration                                 : 2 h 2 min
  587. Bit rate                                 : 18.4 kb/s
  588. Frame rate                               : 0.304 FPS
  589. Count of elements                        : 2232
  590. Stream size                              : 16.1 MiB (0%)
  591. Language                                 : Norwegian
  592. Default                                  : No
  593. Forced                                   : No
  594. Original source medium                   : Blu-ray
  595. Text #17
  596. ID                                       : 32
  597. ID in the original source medium         : 4782 (0x12AE)
  598. Format                                   : PGS
  599. Muxing mode                              : zlib
  600. Codec ID                                 : S_HDMV/PGS
  601. Codec ID/Info                            : Picture based subtitle format used on BDs/HD-DVDs
  602. Duration                                 : 2 h 2 min
  603. Bit rate                                 : 17.4 kb/s
  604. Frame rate                               : 0.300 FPS
  605. Count of elements                        : 2200
  606. Stream size                              : 15.2 MiB (0%)
  607. Language                                 : Polish
  608. Default                                  : No
  609. Forced                                   : No
  610. Original source medium                   : Blu-ray
  611. Text #18
  612. ID                                       : 33
  613. ID in the original source medium         : 4783 (0x12AF)
  614. Format                                   : PGS
  615. Muxing mode                              : zlib
  616. Codec ID                                 : S_HDMV/PGS
  617. Codec ID/Info                            : Picture based subtitle format used on BDs/HD-DVDs
  618. Duration                                 : 2 h 2 min
  619. Bit rate                                 : 20.3 kb/s
  620. Frame rate                               : 0.324 FPS
  621. Count of elements                        : 2374
  622. Stream size                              : 17.8 MiB (0%)
  623. Language                                 : Romanian
  624. Default                                  : No
  625. Forced                                   : No
  626. Original source medium                   : Blu-ray
  627. Text #19
  628. ID                                       : 34
  629. ID in the original source medium         : 4784 (0x12B0)
  630. Format                                   : PGS
  631. Muxing mode                              : zlib
  632. Codec ID                                 : S_HDMV/PGS
  633. Codec ID/Info                            : Picture based subtitle format used on BDs/HD-DVDs
  634. Duration                                 : 2 h 2 min
  635. Bit rate                                 : 19.6 kb/s
  636. Frame rate                               : 0.285 FPS
  637. Count of elements                        : 2092
  638. Stream size                              : 17.1 MiB (0%)
  639. Language                                 : Swedish
  640. Default                                  : No
  641. Forced                                   : No
  642. Original source medium                   : Blu-ray
  643. Text #20
  644. ID                                       : 35
  645. ID in the original source medium         : 4785 (0x12B1)
  646. Format                                   : PGS
  647. Muxing mode                              : zlib
  648. Codec ID                                 : S_HDMV/PGS
  649. Codec ID/Info                            : Picture based subtitle format used on BDs/HD-DVDs
  650. Duration                                 : 2 h 2 min
  651. Bit rate                                 : 21.9 kb/s
  652. Frame rate                               : 0.306 FPS
  653. Count of elements                        : 2242
  654. Stream size                              : 19.1 MiB (0%)
  655. Language                                 : Thai
  656. Default                                  : No
  657. Forced                                   : No
  658. Original source medium                   : Blu-ray
  659. Text #21
  660. ID                                       : 36
  661. ID in the original source medium         : 4786 (0x12B2)
  662. Format                                   : PGS
  663. Muxing mode                              : zlib
  664. Codec ID                                 : S_HDMV/PGS
  665. Codec ID/Info                            : Picture based subtitle format used on BDs/HD-DVDs
  666. Duration                                 : 1 h 54 min
  667. Bit rate                                 : 481 b/s
  668. Frame rate                               : 0.006 FPS
  669. Count of elements                        : 44
  670. Stream size                              : 403 KiB (0%)
  671. Language                                 : French
  672. Default                                  : No
  673. Forced                                   : No
  674. Original source medium                   : Blu-ray
  675. Text #22
  676. ID                                       : 37
  677. ID in the original source medium         : 4787 (0x12B3)
  678. Format                                   : PGS
  679. Muxing mode                              : zlib
  680. Codec ID                                 : S_HDMV/PGS
  681. Codec ID/Info                            : Picture based subtitle format used on BDs/HD-DVDs
  682. Duration                                 : 1 h 54 min
  683. Bit rate                                 : 475 b/s
  684. Frame rate                               : 0.006 FPS
  685. Count of elements                        : 40
  686. Stream size                              : 399 KiB (0%)
  687. Language                                 : German
  688. Default                                  : No
  689. Forced                                   : No
  690. Original source medium                   : Blu-ray
  691. Text #23
  692. ID                                       : 38
  693. ID in the original source medium         : 4788 (0x12B4)
  694. Format                                   : PGS
  695. Muxing mode                              : zlib
  696. Codec ID                                 : S_HDMV/PGS
  697. Codec ID/Info                            : Picture based subtitle format used on BDs/HD-DVDs
  698. Duration                                 : 2 h 2 min
  699. Bit rate                                 : 925 b/s
  700. Frame rate                               : 0.011 FPS
  701. Count of elements                        : 80
  702. Stream size                              : 829 KiB (0%)
  703. Language                                 : Italian
  704. Default                                  : No
  705. Forced                                   : No
  706. Original source medium                   : Blu-ray
  707. Text #24
  708. ID                                       : 39
  709. ID in the original source medium         : 4789 (0x12B5)
  710. Format                                   : PGS
  711. Muxing mode                              : zlib
  712. Codec ID                                 : S_HDMV/PGS
  713. Codec ID/Info                            : Picture based subtitle format used on BDs/HD-DVDs
  714. Duration                                 : 1 h 54 min
  715. Bit rate                                 : 1 088 b/s
  716. Frame rate                               : 0.013 FPS
  717. Count of elements                        : 88
  718. Stream size                              : 912 KiB (0%)
  719. Language                                 : Spanish
  720. Default                                  : No
  721. Forced                                   : No
  722. Original source medium                   : Blu-ray
  723. Text #25
  724. ID                                       : 40
  725. ID in the original source medium         : 4790 (0x12B6)
  726. Format                                   : PGS
  727. Muxing mode                              : zlib
  728. Codec ID                                 : S_HDMV/PGS
  729. Codec ID/Info                            : Picture based subtitle format used on BDs/HD-DVDs
  730. Duration                                 : 2 h 2 min
  731. Bit rate                                 : 772 b/s
  732. Frame rate                               : 0.009 FPS
  733. Count of elements                        : 64
  734. Stream size                              : 691 KiB (0%)
  735. Language                                 : Spanish
  736. Default                                  : No
  737. Forced                                   : No
  738. Original source medium                   : Blu-ray
  739. Text #26
  740. ID                                       : 41
  741. ID in the original source medium         : 4791 (0x12B7)
  742. Format                                   : PGS
  743. Muxing mode                              : zlib
  744. Codec ID                                 : S_HDMV/PGS
  745. Codec ID/Info                            : Picture based subtitle format used on BDs/HD-DVDs
  746. Duration                                 : 2 h 2 min
  747. Bit rate                                 : 726 b/s
  748. Frame rate                               : 0.010 FPS
  749. Count of elements                        : 76
  750. Stream size                              : 650 KiB (0%)
  751. Language                                 : Czech
  752. Default                                  : No
  753. Forced                                   : No
  754. Original source medium                   : Blu-ray
  755. Text #27
  756. ID                                       : 42
  757. ID in the original source medium         : 4792 (0x12B8)
  758. Format                                   : PGS
  759. Muxing mode                              : zlib
  760. Codec ID                                 : S_HDMV/PGS
  761. Codec ID/Info                            : Picture based subtitle format used on BDs/HD-DVDs
  762. Duration                                 : 2 h 2 min
  763. Bit rate                                 : 678 b/s
  764. Frame rate                               : 0.008 FPS
  765. Count of elements                        : 58
  766. Stream size                              : 607 KiB (0%)
  767. Language                                 : Hungarian
  768. Default                                  : No
  769. Forced                                   : No
  770. Original source medium                   : Blu-ray
  771. Menu
  772. 00:00:00.000                             : en:Chapter 01
  773. 00:09:21.185                             : en:Chapter 02
  774. 00:19:01.849                             : en:Chapter 03
  775. 00:30:24.489                             : en:Chapter 04
  776. 00:39:09.055                             : en:Chapter 05
  777. 00:49:42.396                             : en:Chapter 06
  778. 00:59:26.145                             : en:Chapter 07
  779. 01:09:49.059                             : en:Chapter 08
  780. 01:19:09.911                             : en:Chapter 09
  781. 01:29:55.973                             : en:Chapter 10
  782. 01:40:13.465                             : en:Chapter 11
  783. 01:52:14.269                             : en:Chapter 12
  784. 01:56:08.920                             : en:Chapter 13
复制代码




                                       
                                       

                                       
                                       
                                       




Godzilla.2014.PROPER.2160p.BluRay.REMUX.HEVC.DTS-HD.MA.TrueHD.7.1.Atmos-FGT.torrent (99.55 KB, 下载次数: 2)
回复

使用道具 举报

您需要登录后才可以回帖 登录 | 立即注册

本版积分规则

QQ|Archiver|手机版|小黑屋|蓝光电影网

GMT+8, 2023-2-8 02:13 , Processed in 0.063013 second(s), 28 queries .

Powered by Discuz! X3.4

Copyright © 2001-2020, Tencent Cloud.

快速回复 返回顶部 返回列表