找回密码
 立即注册

QQ登录

只需一步,快速开始

查看: 85|回复: 0

[其他] 战争游戏 WarGames.1983.2160p.BluRay.x264.8bit.SDR.DTS-HD.MA.5.1-SWTYBLZ 64.31GB

[复制链接]

0

精华

0

好友

2

听众

新手上路

Rank: 2

蓝光币
5
发表于 2022-12-21 07:57:28 | 显示全部楼层 |阅读模式
[img][/img]

◎标  题 战争游戏
◎译  名 真假战争 / WarGames
◎片  名 War Games
◎年  代 1983
◎产  地 美国
◎类  别 剧情 / 惊悚
◎语  言 英语
◎上映日期 1983-12-22
◎IMDb评分 7.1/10 (95892人评价)
◎IMDb链接 https://www.imdb.com/title/tt0086567/
◎豆瓣评分 7.3/10 (1597人评价)
◎豆瓣链接 https://movie.douban.com/subject/1293522/
◎片  长 114 分钟
◎导  演 约翰·班德汉姆 John Badham
◎编  剧 劳伦斯·拉斯科 Lawrence Lasker
◎演  员 马修·布罗德里克 Matthew Broderick
       艾丽·西蒂 Ally Sheedy
       约翰·伍德 John Wood
       艾伦·布卢门菲尔德 Alan Blumenfeld
       詹姆斯·J·默拉卡米 James J. Murakami
       安杰洛·P·格雷厄姆 Angelo P. Graham
       迈克尔·杰曼 Michael Germain
       琳达·古拉西希 Lynda Gurasich
       罗伯特·J·多尔蒂 Robert J. Doherty
       科林·坎特维尔 Colin Cantwell
       杰弗里·科克兰德 Geoffrey Kirkland
       Don Hansard Don Hansard
       Jack Cooperman Jack Cooperman
       迈克尔·L·芬克 Michael L. Fink
◎标  签 科幻 / 美国 / 黑客 / 战争 / 1983 / 美国电影 / 剧情 / 虚拟
◎简  介

  大卫•莱特曼(马修•布罗德里克饰)是一位天才少年,他将业余时间全都投在了电脑游戏上。一天,他通过搜索,搜到了一台网络电脑,简单破解后,他开始玩一个叫做“全球热核战争”的游戏,一个模拟世界大战的游戏。                                    
                                但大卫并不知道,隐藏在“全球热核战争”之后的,竟是美国军方的战争操作计划响应系统(WOPR)。这个机密系统控制着美国军方的武器,而大卫启动的“全球热核战争”游戏竟然导致系统自动准备发射核弹!                                    
                                第三次世界大战一触即发,各国军队严阵以待,而大卫不得不行动起来,他要用自己的黑客技术阻止电脑发射核弹,阻止这一切。
  1. Video
  2. ID                                       : 1
  3. Format                                   : AVC
  4. Format/Info                              : Advanced Video Codec
  5. Format profile                           : [email protected]
  6. Format settings                          : CABAC / 5 Ref Frames
  7. Format settings, CABAC                   : Yes
  8. Format settings, Reference frames        : 5 frames
  9. Codec ID                                 : V_MPEG4/ISO/AVC
  10. Duration                                 : 1 h 52 min
  11. Bit rate                                 : 76.7 Mb/s
  12. Width                                    : 3 840 pixels
  13. Height                                   : 2 076 pixels
  14. Display aspect ratio                     : 1.85:1
  15. Frame rate mode                          : Constant
  16. Frame rate                               : 24.000 FPS
  17. Color space                              : YUV
  18. Chroma subsampling                       : 4:2:0
  19. Bit depth                                : 8 bits
  20. Scan type                                : Progressive
  21. Bits/(Pixel*Frame)                       : 0.401
  22. Stream size                              : 60.4 GiB (94%)
  23. Writing library                          : x264 core 157 r2935 545de2f
  24. Encoding settings                        : cabac=1 / ref=5 / deblock=1:-1:-1 / analyse=0x3:0x113 / me=umh / subme=10 / psy=1 / psy_rd=1.00:0.15 / mixed_ref=1 / me_range=48 / chroma_me=1 / trellis=2 / 8x8dct=1 / cqm=0 / deadzone=21,11 / fast_pskip=1 / chroma_qp_offset=-3 / threads=48 / lookahead_threads=4 / sliced_threads=0 / nr=0 / decimate=0 / interlaced=0 / bluray_compat=0 / constrained_intra=0 / bframes=3 / b_pyramid=2 / b_adapt=2 / b_bias=0 / direct=3 / weightb=1 / open_gop=0 / weightp=2 / keyint=250 / keyint_min=24 / scenecut=40 / intra_refresh=0 / rc_lookahead=50 / rc=crf / mbtree=1 / crf=20.0 / qcomp=0.60 / qpmin=0 / qpmax=69 / qpstep=4 / ip_ratio=1.40 / aq=1:1.00
  25. Default                                  : Yes
  26. Forced                                   : No

  27. Audio #1
  28. ID                                       : 2
  29. ID in the original source medium         : 4352 (0x1100)
  30. Format                                   : DTS XLL
  31. Format/Info                              : Digital Theater Systems
  32. Commercial name                          : DTS-HD Master Audio
  33. Codec ID                                 : A_DTS
  34. Duration                                 : 1 h 52 min
  35. Bit rate mode                            : Variable
  36. Bit rate                                 : 3 948 kb/s
  37. Channel(s)                               : 6 channels
  38. Channel layout                           : C L R Ls Rs LFE
  39. Sampling rate                            : 48.0 kHz
  40. Frame rate                               : 93.750 FPS (512 SPF)
  41. Bit depth                                : 24 bits
  42. Compression mode                         : Lossless
  43. Stream size                              : 3.11 GiB (5%)
  44. Title                                    : DTS-HD MA 5.1
  45. Language                                 : English
  46. Default                                  : Yes
  47. Forced                                   : No
  48. Original source medium                   : Blu-ray

  49. Audio #2
  50. ID                                       : 3
  51. Format                                   : AC-3
  52. Format/Info                              : Audio Coding 3
  53. Commercial name                          : Dolby Digital
  54. Codec ID                                 : A_AC3
  55. Duration                                 : 1 h 52 min
  56. Bit rate mode                            : Constant
  57. Bit rate                                 : 640 kb/s
  58. Channel(s)                               : 6 channels
  59. Channel layout                           : L R C LFE Ls Rs
  60. Sampling rate                            : 48.0 kHz
  61. Frame rate                               : 31.250 FPS (1536 SPF)
  62. Compression mode                         : Lossy
  63. Stream size                              : 516 MiB (1%)
  64. Title                                    : DD 5.1
  65. Language                                 : English
  66. Service kind                             : Complete Main
  67. Default                                  : No
  68. Forced                                   : No

  69. Text #1
  70. ID                                       : 4
  71. Format                                   : UTF-8
  72. Codec ID                                 : S_TEXT/UTF8
  73. Codec ID/Info                            : UTF-8 Plain Text
  74. Duration                                 : 1 h 48 min
  75. Bit rate                                 : 64 b/s
  76. Frame rate                               : 0.249 FPS
  77. Count of elements                        : 1619
  78. Stream size                              : 51.3 KiB (0%)
  79. Language                                 : English
  80. Default                                  : Yes
  81. Forced                                   : No

  82. Text #2
  83. ID                                       : 5
  84. Format                                   : UTF-8
  85. Codec ID                                 : S_TEXT/UTF8
  86. Codec ID/Info                            : UTF-8 Plain Text
  87. Duration                                 : 1 h 52 min
  88. Bit rate                                 : 71 b/s
  89. Frame rate                               : 0.273 FPS
  90. Count of elements                        : 1840
  91. Stream size                              : 58.9 KiB (0%)
  92. Title                                    : SDH
  93. Language                                 : English
  94. Default                                  : No
  95. Forced                                   : No

  96. Text #3
  97. ID                                       : 6
  98. ID in the original source medium         : 4768 (0x12A0)
  99. Format                                   : PGS
  100. Muxing mode                              : zlib
  101. Codec ID                                 : S_HDMV/PGS
  102. Codec ID/Info                            : Picture based subtitle format used on BDs/HD-DVDs
  103. Duration                                 : 1 h 52 min
  104. Bit rate                                 : 41.2 kb/s
  105. Frame rate                               : 0.550 FPS
  106. Count of elements                        : 3708
  107. Stream size                              : 33.1 MiB (0%)
  108. Language                                 : English
  109. Default                                  : No
  110. Forced                                   : No
  111. Original source medium                   : Blu-ray

  112. Menu
  113. 00:00:00.000                             : en:Chapter 01
  114. 00:09:11.000                             : en:Chapter 02
  115. 00:18:34.708                             : en:Chapter 03
  116. 00:26:47.916                             : en:Chapter 04
  117. 00:35:40.750                             : en:Chapter 05
  118. 00:45:20.458                             : en:Chapter 06
  119. 00:54:12.916                             : en:Chapter 07
  120. 01:07:29.750                             : en:Chapter 08
  121. 01:16:35.208                             : en:Chapter 09
  122. 01:25:38.833                             : en:Chapter 10
  123. 01:32:38.041                             : en:Chapter 11
  124. 01:41:57.583                             : en:Chapter 12
复制代码




                                       
                                       

                                       
                                       
                                       




WarGames.1983.2160p.BluRay.x264.8bit.SDR.DTS-HD.MA.5.1-SWTYBLZ.torrent (81.09 KB, 下载次数: 0)
回复

使用道具 举报

您需要登录后才可以回帖 登录 | 立即注册

本版积分规则

QQ|Archiver|手机版|小黑屋|蓝光电影网

GMT+8, 2023-2-8 02:34 , Processed in 0.052459 second(s), 28 queries .

Powered by Discuz! X3.4

Copyright © 2001-2020, Tencent Cloud.

快速回复 返回顶部 返回列表