找回密码
 立即注册

QQ登录

只需一步,快速开始

查看: 81|回复: 0

[其他] 战争游戏 WarGames.1983.2160p.BluRay.x265.10bit.SDR.DTS-HD.MA.5.1-SWTYBLZ 54.55GB

[复制链接]

0

精华

0

好友

2

听众

新手上路

Rank: 2

蓝光币
5
发表于 2022-12-21 07:57:18 | 显示全部楼层 |阅读模式
[img][/img]

◎标  题 战争游戏
◎译  名 真假战争 / WarGames
◎片  名 War Games
◎年  代 1983
◎产  地 美国
◎类  别 剧情 / 惊悚
◎语  言 英语
◎上映日期 1983-12-22
◎IMDb评分 7.1/10 (95892人评价)
◎IMDb链接 https://www.imdb.com/title/tt0086567/
◎豆瓣评分 7.3/10 (1597人评价)
◎豆瓣链接 https://movie.douban.com/subject/1293522/
◎片  长 114 分钟
◎导  演 约翰·班德汉姆 John Badham
◎编  剧 劳伦斯·拉斯科 Lawrence Lasker
◎演  员 马修·布罗德里克 Matthew Broderick
       艾丽·西蒂 Ally Sheedy
       约翰·伍德 John Wood
       艾伦·布卢门菲尔德 Alan Blumenfeld
       詹姆斯·J·默拉卡米 James J. Murakami
       安杰洛·P·格雷厄姆 Angelo P. Graham
       迈克尔·杰曼 Michael Germain
       琳达·古拉西希 Lynda Gurasich
       罗伯特·J·多尔蒂 Robert J. Doherty
       科林·坎特维尔 Colin Cantwell
       杰弗里·科克兰德 Geoffrey Kirkland
       Don Hansard Don Hansard
       Jack Cooperman Jack Cooperman
       迈克尔·L·芬克 Michael L. Fink
◎标  签 科幻 / 美国 / 黑客 / 战争 / 1983 / 美国电影 / 剧情 / 虚拟
◎简  介

  大卫•莱特曼(马修•布罗德里克饰)是一位天才少年,他将业余时间全都投在了电脑游戏上。一天,他通过搜索,搜到了一台网络电脑,简单破解后,他开始玩一个叫做“全球热核战争”的游戏,一个模拟世界大战的游戏。                                    
                                但大卫并不知道,隐藏在“全球热核战争”之后的,竟是美国军方的战争操作计划响应系统(WOPR)。这个机密系统控制着美国军方的武器,而大卫启动的“全球热核战争”游戏竟然导致系统自动准备发射核弹!                                    
                                第三次世界大战一触即发,各国军队严阵以待,而大卫不得不行动起来,他要用自己的黑客技术阻止电脑发射核弹,阻止这一切。
  1. Video
  2. ID                                       : 1
  3. Format                                   : HEVC
  4. Format/Info                              : High Efficiency Video Coding
  5. Format profile                           : Main [email protected]@High
  6. Codec ID                                 : V_MPEGH/ISO/HEVC
  7. Duration                                 : 1 h 52 min
  8. Bit rate                                 : 64.4 Mb/s
  9. Width                                    : 3 840 pixels
  10. Height                                   : 2 076 pixels
  11. Display aspect ratio                     : 1.85:1
  12. Frame rate mode                          : Constant
  13. Frame rate                               : 24.000 FPS
  14. Color space                              : YUV
  15. Chroma subsampling                       : 4:2:0
  16. Bit depth                                : 10 bits
  17. Bits/(Pixel*Frame)                       : 0.337
  18. Stream size                              : 50.7 GiB (93%)
  19. Writing library                          : x265 3.0ed72af837053:[Windows][GCC 8.2.0][64 bit] 10bit
  20. Encoding settings                        : cpuid=1111039 / frame-threads=6 / numa-pools=40 / wpp / no-pmode / no-pme / no-psnr / no-ssim / log-level=2 / input-csp=1 / input-res=3840x2076 / interlace=0 / total-frames=162300 / level-idc=51 / high-tier=1 / uhd-bd=0 / ref=3 / no-allow-non-conformance / repeat-headers / annexb / aud / hrd / info / hash=0 / no-temporal-layers / no-open-gop / min-keyint=1 / keyint=24 / gop-lookahead=0 / bframes=4 / b-adapt=2 / b-pyramid / bframe-bias=0 / rc-lookahead=25 / lookahead-slices=4 / scenecut=40 / radl=0 / no-splice / no-intra-refresh / ctu=64 / min-cu-size=8 / no-rect / no-amp / max-tu-size=32 / tu-inter-depth=1 / tu-intra-depth=1 / limit-tu=0 / rdoq-level=0 / dynamic-rd=0.00 / no-ssim-rd / signhide / no-tskip / nr-intra=0 / nr-inter=0 / no-constrained-intra / strong-intra-smoothing / max-merge=2 / limit-refs=3 / no-limit-modes / me=1 / subme=2 / merange=57 / temporal-mvp / weightp / no-weightb / no-analyze-src-pics / deblock=0:0 / no-sao / no-sao-non-deblock / rd=3 / no-early-skip / rskip / no-fast-intra / no-tskip-fast / no-cu-lossless / no-b-intra / no-splitrd-skip / rdpenalty=0 / psy-rd=2.00 / psy-rdoq=0.00 / no-rd-refine / no-lossless / cbqpoffs=0 / crqpoffs=0 / rc=crf / crf=18.0 / qcomp=0.60 / qpstep=4 / stats-write=0 / stats-read=0 / vbv-maxrate=160000 / vbv-bufsize=160000 / vbv-init=0.9 / crf-max=0.0 / crf-min=0.0 / ipratio=1.40 / pbratio=1.30 / aq-mode=1 / aq-strength=1.00 / cutree / zone-count=0 / no-strict-cbr / qg-size=32 / no-rc-grain / qpmax=69 / qpmin=0 / no-const-vbv / sar=1 / overscan=0 / videoformat=5 / range=0 / colorprim=2 / transfer=2 / colormatrix=2 / chromaloc=0 / display-window=0 / max-cll=0,0 / min-luma=0 / max-luma=1023 / log2-max-poc-lsb=8 / vui-timing-info / vui-hrd-info / slices=1 / opt-qp-pps / opt-ref-list-length-pps / no-multi-pass-opt-rps / scenecut-bias=0.05 / no-opt-cu-delta-qp / no-aq-motion / no-hdr / no-hdr-opt / no-dhdr10-opt / no-idr-recovery-sei / analysis-reuse-level=5 / scale-factor=0 / refine-intra=0 / refine-inter=0 / refine-mv=0 / refine-ctu-distortion=0 / no-limit-sao / ctu-info=0 / no-lowpass-dct / refine-analysis-type=0 / copy-pic=1 / max-ausize-factor=1.0 / no-dynamic-refine / no-single-sei / no-hevc-aq / qp-adaptation-range=1.00
  21. Default                                  : Yes
  22. Forced                                   : No

  23. Audio #1
  24. ID                                       : 2
  25. ID in the original source medium         : 4352 (0x1100)
  26. Format                                   : DTS XLL
  27. Format/Info                              : Digital Theater Systems
  28. Commercial name                          : DTS-HD Master Audio
  29. Codec ID                                 : A_DTS
  30. Duration                                 : 1 h 52 min
  31. Bit rate mode                            : Variable
  32. Bit rate                                 : 3 948 kb/s
  33. Channel(s)                               : 6 channels
  34. Channel layout                           : C L R Ls Rs LFE
  35. Sampling rate                            : 48.0 kHz
  36. Frame rate                               : 93.750 FPS (512 SPF)
  37. Bit depth                                : 24 bits
  38. Compression mode                         : Lossless
  39. Stream size                              : 3.11 GiB (6%)
  40. Title                                    : DTS-HD MA 5.1
  41. Language                                 : English
  42. Default                                  : Yes
  43. Forced                                   : No
  44. Original source medium                   : Blu-ray

  45. Audio #2
  46. ID                                       : 3
  47. Format                                   : AC-3
  48. Format/Info                              : Audio Coding 3
  49. Commercial name                          : Dolby Digital
  50. Codec ID                                 : A_AC3
  51. Duration                                 : 1 h 52 min
  52. Bit rate mode                            : Constant
  53. Bit rate                                 : 640 kb/s
  54. Channel(s)                               : 6 channels
  55. Channel layout                           : L R C LFE Ls Rs
  56. Sampling rate                            : 48.0 kHz
  57. Frame rate                               : 31.250 FPS (1536 SPF)
  58. Compression mode                         : Lossy
  59. Stream size                              : 516 MiB (1%)
  60. Title                                    : DD 5.1
  61. Language                                 : English
  62. Service kind                             : Complete Main
  63. Default                                  : No
  64. Forced                                   : No

  65. Text #1
  66. ID                                       : 4
  67. Format                                   : UTF-8
  68. Codec ID                                 : S_TEXT/UTF8
  69. Codec ID/Info                            : UTF-8 Plain Text
  70. Duration                                 : 1 h 48 min
  71. Bit rate                                 : 64 b/s
  72. Frame rate                               : 0.249 FPS
  73. Count of elements                        : 1619
  74. Stream size                              : 51.3 KiB (0%)
  75. Language                                 : English
  76. Default                                  : Yes
  77. Forced                                   : No

  78. Text #2
  79. ID                                       : 5
  80. Format                                   : UTF-8
  81. Codec ID                                 : S_TEXT/UTF8
  82. Codec ID/Info                            : UTF-8 Plain Text
  83. Duration                                 : 1 h 52 min
  84. Bit rate                                 : 71 b/s
  85. Frame rate                               : 0.273 FPS
  86. Count of elements                        : 1840
  87. Stream size                              : 58.9 KiB (0%)
  88. Title                                    : SDH
  89. Language                                 : English
  90. Default                                  : No
  91. Forced                                   : No

  92. Text #3
  93. ID                                       : 6
  94. ID in the original source medium         : 4768 (0x12A0)
  95. Format                                   : PGS
  96. Muxing mode                              : zlib
  97. Codec ID                                 : S_HDMV/PGS
  98. Codec ID/Info                            : Picture based subtitle format used on BDs/HD-DVDs
  99. Duration                                 : 1 h 52 min
  100. Bit rate                                 : 41.2 kb/s
  101. Frame rate                               : 0.550 FPS
  102. Count of elements                        : 3708
  103. Stream size                              : 33.1 MiB (0%)
  104. Language                                 : English
  105. Default                                  : No
  106. Forced                                   : No
  107. Original source medium                   : Blu-ray

  108. Menu
  109. 00:00:00.000                             : en:Chapter 01
  110. 00:09:11.000                             : en:Chapter 02
  111. 00:18:34.708                             : en:Chapter 03
  112. 00:26:47.916                             : en:Chapter 04
  113. 00:35:40.750                             : en:Chapter 05
  114. 00:45:20.458                             : en:Chapter 06
  115. 00:54:12.916                             : en:Chapter 07
  116. 01:07:29.750                             : en:Chapter 08
  117. 01:16:35.208                             : en:Chapter 09
  118. 01:25:38.833                             : en:Chapter 10
  119. 01:32:38.041                             : en:Chapter 11
  120. 01:41:57.583                             : en:Chapter 12
复制代码




                                       
                                       

                                       
                                       
                                       




WarGames.1983.2160p.BluRay.x265.10bit.SDR.DTS-HD.MA.5.1-SWTYBLZ.torrent (68.88 KB, 下载次数: 0)
回复

使用道具 举报

您需要登录后才可以回帖 登录 | 立即注册

本版积分规则

QQ|Archiver|手机版|小黑屋|蓝光电影网

GMT+8, 2023-2-8 02:08 , Processed in 0.070819 second(s), 28 queries .

Powered by Discuz! X3.4

Copyright © 2001-2020, Tencent Cloud.

快速回复 返回顶部 返回列表