找回密码
 立即注册

QQ登录

只需一步,快速开始

查看: 92|回复: 0

[其他] 暴力之夜 Violent.Night.2022.2160p.WEB-DL.DDP5.1.Atmos.DV.MP4.x265-DVSUX 11.91GB

[复制链接]

0

精华

0

好友

2

听众

新手上路

Rank: 2

蓝光币
5
发表于 2022-12-21 07:57:13 | 显示全部楼层 |阅读模式
[img][/img]

◎标  题 暴力之夜
◎译  名 暴戾夜(台) / 杀神夜(港)
◎片  名 Violent Night
◎年  代 2022
◎产  地 美国
◎类  别 喜剧 / 动作 / 惊悚 / 恐怖 / 犯罪
◎语  言 英语
◎上映日期 2022-12-02(美国)
◎IMDb评分 7/10 (782人评价)
◎IMDb链接 https://www.imdb.com/title/tt12003946/
◎豆瓣链接 https://movie.douban.com/subject/35899025/
◎片  长 101分钟
◎导  演 托米·维尔科拉 Tommy Wirkola
◎编  剧 帕特里克·凯西 Patrick Casey
       乔什·米勒 Josh Miller
       Josh Miller Josh Miller
       Pat Casey Pat Casey
◎演  员 大卫·哈伯 David Harbour
       约翰·雷吉扎莫 John Leguizamo
       比佛莉·德安姬罗 Beverly D'Angelo
       凯姆·吉甘戴 Cam Gigandet
       布兰登·弗莱彻 Brendan Fletcher
       艾迪·帕特森 Edi Patterson
       阿历克斯·哈赛尔 Alex Hassell
       亚历克西斯·拉奥特 Alexis Louder
       麦克·多普德 Mike Dopud
       亚历山大·埃利奥特 Alexander Elliot
       斯蒂芬妮·西 Stephanie Sy
       安德烈·埃里克森 André Eriksen
       埃里克·阿塔瓦尔 Erik Athavale
       蜜特拉·苏里 Mitra Suri
◎简  介

  一支佣兵团队在圣诞夜突袭一栋富有人家的豪宅,并且挟持豪宅内的所有人为人质时,他们竟然遇到一个完全意想不到的强劲对手:圣诞老人(大卫·哈伯 饰),而且他会让他们知道圣诞老人并不是一个面容慈祥、心地善良的圣人。
  1. Video
  2. ID                                       : 1
  3. Format                                   : HEVC
  4. Format/Info                              : High Efficiency Video Coding
  5. Format profile                           : Main [email protected]@High
  6. HDR format                               : Dolby Vision, Version 1.0, dvhe.05.06, BL+RPU
  7. Codec ID                                 : dvhe
  8. Codec ID/Info                            : High Efficiency Video Coding with Dolby Vision
  9. Duration                                 : 1 h 51 min
  10. Bit rate                                 : 14.5 Mb/s
  11. Width                                    : 3 840 pixels
  12. Original width                           : 3 836 pixels
  13. Height                                   : 1 608 pixels
  14. Original height                          : 1 604 pixels
  15. Display aspect ratio                     : 2.40:1
  16. Original display aspect ratio            : 2.40:1
  17. Frame rate mode                          : Constant
  18. Frame rate                               : 23.976 (24000/1001/189150) FPS
  19. Color space                              : YUV
  20. Chroma subsampling                       : 4:2:0
  21. Bit depth                                : 10 bits
  22. Bits/(Pixel*Frame)                       : 0.098
  23. Stream size                              : 11.3 GiB (95%)
  24. Default                                  : Yes
  25. Alternate group                          : 1
  26. Encoded date                             : UTC 2022-12-20 11:11:37
  27. Tagged date                              : UTC 2022-12-20 11:13:18
  28. Codec configuration box                  : hvcC+dvcC
  29. Audio
  30. ID                                       : 2
  31. Format                                   : E-AC-3 JOC
  32. Format/Info                              : Enhanced AC-3 with Joint Object Coding
  33. Commercial name                          : Dolby Digital Plus with Dolby Atmos
  34. Codec ID                                 : ec-3
  35. Duration                                 : 1 h 51 min
  36. Bit rate mode                            : Constant
  37. Bit rate                                 : 768 kb/s
  38. Maximum bit rate                         : 811 kb/s
  39. Channel(s)                               : 6 channels
  40. Channel layout                           : L R C LFE Ls Rs
  41. Sampling rate                            : 48.0 kHz
  42. Frame rate                               : 31.250 FPS (1536 SPF)
  43. Compression mode                         : Lossy
  44. Stream size                              : 613 MiB (5%)
  45. Title                                    : English
  46. Language                                 : English
  47. Service kind                             : Complete Main
  48. Default                                  : Yes
  49. Alternate group                          : 1
  50. Tagged date                              : UTC 2022-12-20 11:13:18
  51. Complexity index                         : Not present / 16
  52. Number of dynamic objects                : 15
  53. Bed channel count                        : 1 channel
  54. Bed channel configuration                : LFE
  55. Text #1
  56. ID                                       : 3
  57. Format                                   : Timed Text
  58. Codec ID                                 : tx3g
  59. Duration                                 : 1 h 51 min
  60. Bit rate mode                            : Variable
  61. Bit rate                                 : 79 b/s
  62. Frame rate                               : 0.637 FPS
  63. Stream size                              : 64.8 KiB (0%)
  64. Title                                    : English
  65. Language                                 : English
  66. Forced                                   : No
  67. Encoded date                             : UTC 2022-12-20 11:13:18
  68. Tagged date                              : UTC 2022-12-20 11:13:18
  69. Text #2
  70. ID                                       : 4
  71. Format                                   : Timed Text
  72. Codec ID                                 : tx3g
  73. Duration                                 : 1 h 47 min
  74. Bit rate mode                            : Variable
  75. Bit rate                                 : 62 b/s
  76. Frame rate                               : 0.452 FPS
  77. Stream size                              : 48.4 KiB (0%)
  78. Title                                    : French-CA
  79. Language                                 : French
  80. Forced                                   : No
  81. Encoded date                             : UTC 2022-12-20 11:13:18
  82. Tagged date                              : UTC 2022-12-20 11:13:18
  83. Text #3
  84. ID                                       : 5
  85. Format                                   : Timed Text
  86. Codec ID                                 : tx3g
  87. Duration                                 : 1 h 47 min
  88. Bit rate mode                            : Variable
  89. Bit rate                                 : 58 b/s
  90. Frame rate                               : 0.411 FPS
  91. Stream size                              : 45.5 KiB (0%)
  92. Title                                    : Spanish
  93. Language                                 : Spanish
  94. Forced                                   : No
  95. Encoded date                             : UTC 2022-12-20 11:13:18
  96. Tagged date                              : UTC 2022-12-20 11:13:18
复制代码




                                       
                                       

                                       
                                       
                                       




Violent.Night.2022.2160p.WEB-DL.DDP5.1.Atmos.DV.MP4.x265-DVSUX.torrent (15.54 KB, 下载次数: 0)
回复

使用道具 举报

您需要登录后才可以回帖 登录 | 立即注册

本版积分规则

QQ|Archiver|手机版|小黑屋|蓝光电影网

GMT+8, 2023-2-8 01:33 , Processed in 0.059591 second(s), 28 queries .

Powered by Discuz! X3.4

Copyright © 2001-2020, Tencent Cloud.

快速回复 返回顶部 返回列表