找回密码
 立即注册

QQ登录

只需一步,快速开始

查看: 76|回复: 0

[其他] 暴力之夜 Violent.Night.2022.2160p.WEB-DL.DDP5.1.Atmos.DV.MKV.x265-SLOT 11.91GB

[复制链接]

0

精华

0

好友

2

听众

新手上路

Rank: 2

蓝光币
5
发表于 2022-12-21 07:57:03 | 显示全部楼层 |阅读模式
[img][/img]

◎标  题 暴力之夜
◎译  名 暴戾夜(台) / 杀神夜(港)
◎片  名 Violent Night
◎年  代 2022
◎产  地 美国
◎类  别 喜剧 / 动作 / 惊悚 / 恐怖 / 犯罪
◎语  言 英语
◎上映日期 2022-12-02(美国)
◎IMDb评分 7/10 (782人评价)
◎IMDb链接 https://www.imdb.com/title/tt12003946/
◎豆瓣链接 https://movie.douban.com/subject/35899025/
◎片  长 101分钟
◎导  演 托米·维尔科拉 Tommy Wirkola
◎编  剧 帕特里克·凯西 Patrick Casey
       乔什·米勒 Josh Miller
       Josh Miller Josh Miller
       Pat Casey Pat Casey
◎演  员 大卫·哈伯 David Harbour
       约翰·雷吉扎莫 John Leguizamo
       比佛莉·德安姬罗 Beverly D'Angelo
       凯姆·吉甘戴 Cam Gigandet
       布兰登·弗莱彻 Brendan Fletcher
       艾迪·帕特森 Edi Patterson
       阿历克斯·哈赛尔 Alex Hassell
       亚历克西斯·拉奥特 Alexis Louder
       麦克·多普德 Mike Dopud
       亚历山大·埃利奥特 Alexander Elliot
       斯蒂芬妮·西 Stephanie Sy
       安德烈·埃里克森 André Eriksen
       埃里克·阿塔瓦尔 Erik Athavale
       蜜特拉·苏里 Mitra Suri
◎简  介

  一支佣兵团队在圣诞夜突袭一栋富有人家的豪宅,并且挟持豪宅内的所有人为人质时,他们竟然遇到一个完全意想不到的强劲对手:圣诞老人(大卫·哈伯 饰),而且他会让他们知道圣诞老人并不是一个面容慈祥、心地善良的圣人。
  1. Video
  2. ID                                       : 1
  3. Format                                   : HEVC
  4. Format/Info                              : High Efficiency Video Coding
  5. Format profile                           : Main [email protected]@High
  6. HDR format                               : Dolby Vision, Version 1.0, dvhe.05.06, BL+RPU
  7. Codec ID                                 : V_MPEGH/ISO/HEVC
  8. Duration                                 : 1 h 51 min
  9. Bit rate                                 : 14.5 Mb/s
  10. Width                                    : 3 836 pixels
  11. Height                                   : 1 604 pixels
  12. Display aspect ratio                     : 2.40:1
  13. Frame rate mode                          : Constant
  14. Frame rate                               : 23.976 (24000/1001/189150) FPS
  15. Color space                              : YUV
  16. Chroma subsampling                       : 4:2:0
  17. Bit depth                                : 10 bits
  18. Bits/(Pixel*Frame)                       : 0.098
  19. Stream size                              : 11.3 GiB (95%)
  20. Default                                  : Yes
  21. Forced                                   : No
  22. Audio
  23. ID                                       : 2
  24. Format                                   : E-AC-3 JOC
  25. Format/Info                              : Enhanced AC-3 with Joint Object Coding
  26. Commercial name                          : Dolby Digital Plus with Dolby Atmos
  27. Codec ID                                 : A_EAC3
  28. Duration                                 : 1 h 51 min
  29. Bit rate mode                            : Constant
  30. Bit rate                                 : 768 kb/s
  31. Channel(s)                               : 6 channels
  32. Channel layout                           : L R C LFE Ls Rs
  33. Sampling rate                            : 48.0 kHz
  34. Frame rate                               : 31.250 FPS (1536 SPF)
  35. Compression mode                         : Lossy
  36. Stream size                              : 613 MiB (5%)
  37. Language                                 : English
  38. Service kind                             : Complete Main
  39. Default                                  : Yes
  40. Forced                                   : No
  41. Complexity index                         : 16
  42. Number of dynamic objects                : 15
  43. Bed channel count                        : 1 channel
  44. Bed channel configuration                : LFE
  45. Text #1
  46. ID                                       : 3
  47. Format                                   : UTF-8
  48. Codec ID                                 : S_TEXT/UTF8
  49. Codec ID/Info                            : UTF-8 Plain Text
  50. Duration                                 : 1 h 51 min
  51. Bit rate                                 : 69 b/s
  52. Frame rate                               : 0.319 FPS
  53. Count of elements                        : 2132
  54. Stream size                              : 56.5 KiB (0%)
  55. Title                                    : English CC
  56. Language                                 : English
  57. Default                                  : No
  58. Forced                                   : No
  59. Text #2
  60. ID                                       : 4
  61. Format                                   : UTF-8
  62. Codec ID                                 : S_TEXT/UTF8
  63. Codec ID/Info                            : UTF-8 Plain Text
  64. Duration                                 : 1 h 46 min
  65. Bit rate                                 : 50 b/s
  66. Frame rate                               : 0.207 FPS
  67. Count of elements                        : 1321
  68. Stream size                              : 39.1 KiB (0%)
  69. Title                                    : Spanish Latin American
  70. Language                                 : Spanish
  71. Default                                  : No
  72. Forced                                   : No
  73. Text #3
  74. ID                                       : 5
  75. Format                                   : UTF-8
  76. Codec ID                                 : S_TEXT/UTF8
  77. Codec ID/Info                            : UTF-8 Plain Text
  78. Duration                                 : 1 h 46 min
  79. Bit rate                                 : 53 b/s
  80. Frame rate                               : 0.228 FPS
  81. Count of elements                        : 1455
  82. Stream size                              : 41.6 KiB (0%)
  83. Title                                    : French Canadian
  84. Language                                 : French
  85. Default                                  : No
  86. Forced                                   : No
  87. Menu
  88. 00:00:00.000                             : en:Chapter 01
  89. 00:04:52.500                             : en:Chapter 02
  90. 00:07:55.725                             : en:Chapter 03
  91. 00:13:14.711                             : en:Chapter 04
  92. 00:17:56.284                             : en:Chapter 05
  93. 00:21:24.117                             : en:Chapter 06
  94. 00:29:56.296                             : en:Chapter 07
  95. 00:33:29.426                             : en:Chapter 08
  96. 00:38:42.072                             : en:Chapter 09
  97. 00:44:14.404                             : en:Chapter 10
  98. 00:52:58.136                             : en:Chapter 11
  99. 00:58:52.282                             : en:Chapter 12
  100. 01:09:29.502                             : en:Chapter 13
  101. 01:15:18.393                             : en:Chapter 14
  102. 01:20:01.051                             : en:Chapter 15
  103. 01:24:39.788                             : en:Chapter 16
  104. 01:28:12.792                             : en:Chapter 17
  105. 01:32:52.113                             : en:Chapter 18
  106. 01:37:49.744                             : en:Chapter 19
  107. 01:45:32.332                             : en:Chapter 20
复制代码




                                       
                                       

                                       
                                       
                                       




Violent.Night.2022.2160p.WEB-DL.DDP5.1.Atmos.DV.MKV.x265-SLOT.torrent (15.57 KB, 下载次数: 0)
回复

使用道具 举报

您需要登录后才可以回帖 登录 | 立即注册

本版积分规则

QQ|Archiver|手机版|小黑屋|蓝光电影网

GMT+8, 2023-2-8 02:40 , Processed in 0.075002 second(s), 28 queries .

Powered by Discuz! X3.4

Copyright © 2001-2020, Tencent Cloud.

快速回复 返回顶部 返回列表