找回密码
 立即注册

QQ登录

只需一步,快速开始

查看: 72|回复: 0

[其他] 看着不错 Good.on.Paper.2021.2160p.NF.WEB-DL.x265.10bit.SDR.DDP5.1-SKiZOiD 8.17GB

[复制链接]

0

精华

0

好友

2

听众

新手上路

Rank: 2

蓝光币
5
发表于 2022-12-21 07:56:50 | 显示全部楼层 |阅读模式
[img][/img]

◎标  题 看着不错
◎译  名 情场现形记 / 笋盘大骗局(港) / 一婊人才(台)
◎片  名 Good on Paper
◎年  代 2021
◎产  地 美国
◎类  别 喜剧 / 爱情
◎语  言 英语
◎上映日期 2021-06-23(美国)
◎IMDb评分 5.6/10 (11636人评价)
◎IMDb链接 https://www.imdb.com/title/tt8231668/
◎豆瓣评分 5.8/10 (639人评价)
◎豆瓣链接 https://movie.douban.com/subject/35414369/
◎片  长 92分钟
◎导  演 金米·盖特伍德 Kimmy Gatewood
◎编  剧 埃莱扎·施莱辛格 Iliza Shlesinger
◎演  员 埃莱扎·施莱辛格 Iliza Shlesinger
       瑞贝卡·瑞滕豪斯 Rebecca Rittenhouse
       贝丝·杜瓦 Beth Dover
       马特·麦高瑞 Matt McGorry
       赵牡丹 Margaret Cho
       泰勒·希尔 Taylor Hill
       布兰妮·扬 Britney Young
       季米亚·贝珀妮雅 Kimia Behpoornia
       瑞贝卡·约翰逊 Rebekka Johnson
       丽贝卡·德尔加多·史密斯 Rebecca Delgado Smith
       瑞恩·汉森 Ryan Hansen
◎简  介

  安德莉亚·辛格总是把她的喜剧事业放在首位,虽然桃花运还挺旺,但爱情并不是她优先考虑的······直到她遇到丹尼斯,这位特立独行的高材生意外令她心动并放下戒备。她的好朋友玛戈特总觉得不放心,因此敦促安德莉亚略施小计以摸清丹尼斯的底细。《情场现形记》根据真实故事改编,由风趣幽默的伊丽 莎·施莱辛格担任编剧和主演。其他演职人员还包括瑞恩·汉森、赵牡丹和瑞贝卡·瑞滕豪斯。
  1. Video
  2. ID                                       : 1
  3. Format                                   : HEVC
  4. Format/Info                              : High Efficiency Video Coding
  5. Format profile                           : Main [email protected]@Main
  6. Codec ID                                 : V_MPEGH/ISO/HEVC
  7. Duration                                 : 1 h 34 min
  8. Bit rate                                 : 11.8 Mb/s
  9. Width                                    : 3 840 pixels
  10. Height                                   : 2 160 pixels
  11. Display aspect ratio                     : 16:9
  12. Frame rate mode                          : Constant
  13. Frame rate                               : 23.976 (24000/1001/189150) FPS
  14. Color space                              : YUV
  15. Chroma subsampling                       : 4:2:0
  16. Bit depth                                : 10 bits
  17. Bits/(Pixel*Frame)                       : 0.059
  18. Stream size                              : 7.75 GiB (95%)
  19. Default                                  : Yes
  20. Forced                                   : No
  21. Color range                              : Limited
  22. Color primaries                          : BT.709
  23. Transfer characteristics                 : BT.709
  24. Matrix coefficients                      : BT.709
  25. Audio
  26. ID                                       : 2
  27. Format                                   : E-AC-3
  28. Format/Info                              : Enhanced AC-3
  29. Commercial name                          : Dolby Digital Plus
  30. Codec ID                                 : A_EAC3
  31. Duration                                 : 1 h 34 min
  32. Bit rate mode                            : Constant
  33. Bit rate                                 : 640 kb/s
  34. Channel(s)                               : 6 channels
  35. Channel layout                           : L R C LFE Ls Rs
  36. Sampling rate                            : 48.0 kHz
  37. Frame rate                               : 31.250 FPS (1536 SPF)
  38. Compression mode                         : Lossy
  39. Stream size                              : 431 MiB (5%)
  40. Title                                    : English
  41. Language                                 : English
  42. Service kind                             : Complete Main
  43. Default                                  : Yes
  44. Forced                                   : No
  45. Text #1
  46. ID                                       : 3
  47. Format                                   : UTF-8
  48. Codec ID                                 : S_TEXT/UTF8
  49. Codec ID/Info                            : UTF-8 Plain Text
  50. Duration                                 : 1 h 31 min
  51. Bit rate                                 : 143 b/s
  52. Frame rate                               : 0.366 FPS
  53. Count of elements                        : 2017
  54. Stream size                              : 96.8 KiB (0%)
  55. Title                                    : English
  56. Language                                 : English
  57. Default                                  : Yes
  58. Forced                                   : No
  59. Text #2
  60. ID                                       : 4
  61. Format                                   : UTF-8
  62. Codec ID                                 : S_TEXT/UTF8
  63. Codec ID/Info                            : UTF-8 Plain Text
  64. Duration                                 : 1 h 31 min
  65. Bit rate                                 : 151 b/s
  66. Frame rate                               : 0.303 FPS
  67. Count of elements                        : 1667
  68. Stream size                              : 102 KiB (0%)
  69. Title                                    : Arabic
  70. Language                                 : Arabic
  71. Default                                  : No
  72. Forced                                   : No
  73. Text #3
  74. ID                                       : 5
  75. Format                                   : UTF-8
  76. Codec ID                                 : S_TEXT/UTF8
  77. Codec ID/Info                            : UTF-8 Plain Text
  78. Duration                                 : 1 h 31 min
  79. Bit rate                                 : 101 b/s
  80. Frame rate                               : 0.303 FPS
  81. Count of elements                        : 1669
  82. Stream size                              : 68.2 KiB (0%)
  83. Title                                    : Chinese Simplified
  84. Language                                 : Chinese
  85. Default                                  : No
  86. Forced                                   : No
  87. Text #4
  88. ID                                       : 6
  89. Format                                   : UTF-8
  90. Codec ID                                 : S_TEXT/UTF8
  91. Codec ID/Info                            : UTF-8 Plain Text
  92. Duration                                 : 1 h 31 min
  93. Bit rate                                 : 97 b/s
  94. Frame rate                               : 0.304 FPS
  95. Count of elements                        : 1675
  96. Stream size                              : 65.7 KiB (0%)
  97. Title                                    : Chinese Traditional
  98. Language                                 : Chinese
  99. Default                                  : No
  100. Forced                                   : No
  101. Text #5
  102. ID                                       : 7
  103. Format                                   : UTF-8
  104. Codec ID                                 : S_TEXT/UTF8
  105. Codec ID/Info                            : UTF-8 Plain Text
  106. Duration                                 : 1 h 31 min
  107. Bit rate                                 : 79 b/s
  108. Frame rate                               : 0.277 FPS
  109. Count of elements                        : 1530
  110. Stream size                              : 53.5 KiB (0%)
  111. Title                                    : Croatian
  112. Language                                 : Croatian
  113. Default                                  : No
  114. Forced                                   : No
  115. Text #6
  116. ID                                       : 8
  117. Format                                   : UTF-8
  118. Codec ID                                 : S_TEXT/UTF8
  119. Codec ID/Info                            : UTF-8 Plain Text
  120. Duration                                 : 1 h 31 min
  121. Bit rate                                 : 84 b/s
  122. Frame rate                               : 0.288 FPS
  123. Count of elements                        : 1587
  124. Stream size                              : 56.7 KiB (0%)
  125. Title                                    : Czech
  126. Language                                 : Czech
  127. Default                                  : No
  128. Forced                                   : No
  129. Text #7
  130. ID                                       : 9
  131. Format                                   : UTF-8
  132. Codec ID                                 : S_TEXT/UTF8
  133. Codec ID/Info                            : UTF-8 Plain Text
  134. Duration                                 : 1 h 31 min
  135. Bit rate                                 : 82 b/s
  136. Frame rate                               : 0.281 FPS
  137. Count of elements                        : 1549
  138. Stream size                              : 55.5 KiB (0%)
  139. Title                                    : Danish
  140. Language                                 : Danish
  141. Default                                  : No
  142. Forced                                   : No
  143. Text #8
  144. ID                                       : 10
  145. Format                                   : UTF-8
  146. Codec ID                                 : S_TEXT/UTF8
  147. Codec ID/Info                            : UTF-8 Plain Text
  148. Duration                                 : 1 h 31 min
  149. Bit rate                                 : 77 b/s
  150. Frame rate                               : 0.271 FPS
  151. Count of elements                        : 1491
  152. Stream size                              : 52.3 KiB (0%)
  153. Title                                    : Dutch
  154. Language                                 : Dutch
  155. Default                                  : No
  156. Forced                                   : No
  157. Text #9
  158. ID                                       : 11
  159. Format                                   : UTF-8
  160. Codec ID                                 : S_TEXT/UTF8
  161. Codec ID/Info                            : UTF-8 Plain Text
  162. Duration                                 : 1 h 31 min
  163. Bit rate                                 : 84 b/s
  164. Frame rate                               : 0.248 FPS
  165. Count of elements                        : 1368
  166. Stream size                              : 57.0 KiB (0%)
  167. Title                                    : Finnish
  168. Language                                 : Finnish
  169. Default                                  : No
  170. Forced                                   : No
  171. Text #10
  172. ID                                       : 12
  173. Format                                   : UTF-8
  174. Codec ID                                 : S_TEXT/UTF8
  175. Codec ID/Info                            : UTF-8 Plain Text
  176. Duration                                 : 1 h 31 min
  177. Bit rate                                 : 78 b/s
  178. Frame rate                               : 0.301 FPS
  179. Count of elements                        : 1660
  180. Stream size                              : 53.0 KiB (0%)
  181. Title                                    : French
  182. Language                                 : French
  183. Default                                  : No
  184. Forced                                   : No
  185. Text #11
  186. ID                                       : 13
  187. Format                                   : UTF-8
  188. Codec ID                                 : S_TEXT/UTF8
  189. Codec ID/Info                            : UTF-8 Plain Text
  190. Duration                                 : 1 h 31 min
  191. Bit rate                                 : 89 b/s
  192. Frame rate                               : 0.283 FPS
  193. Count of elements                        : 1562
  194. Stream size                              : 60.4 KiB (0%)
  195. Title                                    : German
  196. Language                                 : German
  197. Default                                  : No
  198. Forced                                   : No
  199. Text #12
  200. ID                                       : 14
  201. Format                                   : UTF-8
  202. Codec ID                                 : S_TEXT/UTF8
  203. Codec ID/Info                            : UTF-8 Plain Text
  204. Duration                                 : 1 h 31 min
  205. Bit rate                                 : 144 b/s
  206. Frame rate                               : 0.294 FPS
  207. Count of elements                        : 1618
  208. Stream size                              : 97.3 KiB (0%)
  209. Title                                    : Greek
  210. Language                                 : Greek
  211. Default                                  : No
  212. Forced                                   : No
  213. Text #13
  214. ID                                       : 15
  215. Format                                   : UTF-8
  216. Codec ID                                 : S_TEXT/UTF8
  217. Codec ID/Info                            : UTF-8 Plain Text
  218. Duration                                 : 1 h 31 min
  219. Bit rate                                 : 138 b/s
  220. Frame rate                               : 0.295 FPS
  221. Count of elements                        : 1630
  222. Stream size                              : 93.4 KiB (0%)
  223. Title                                    : Hebrew
  224. Language                                 : Hebrew
  225. Default                                  : No
  226. Forced                                   : No
  227. Text #14
  228. ID                                       : 16
  229. Format                                   : UTF-8
  230. Codec ID                                 : S_TEXT/UTF8
  231. Codec ID/Info                            : UTF-8 Plain Text
  232. Duration                                 : 1 h 28 min
  233. Bit rate                                 : 89 b/s
  234. Frame rate                               : 0.309 FPS
  235. Count of elements                        : 1651
  236. Stream size                              : 58.5 KiB (0%)
  237. Title                                    : Hungarian
  238. Language                                 : Hungarian
  239. Default                                  : No
  240. Forced                                   : No
  241. Text #15
  242. ID                                       : 17
  243. Format                                   : UTF-8
  244. Codec ID                                 : S_TEXT/UTF8
  245. Codec ID/Info                            : UTF-8 Plain Text
  246. Duration                                 : 1 h 31 min
  247. Bit rate                                 : 89 b/s
  248. Frame rate                               : 0.291 FPS
  249. Count of elements                        : 1602
  250. Stream size                              : 60.0 KiB (0%)
  251. Title                                    : Indonesian
  252. Language                                 : Indonesian
  253. Default                                  : No
  254. Forced                                   : No
  255. Text #16
  256. ID                                       : 18
  257. Format                                   : UTF-8
  258. Codec ID                                 : S_TEXT/UTF8
  259. Codec ID/Info                            : UTF-8 Plain Text
  260. Duration                                 : 1 h 31 min
  261. Bit rate                                 : 84 b/s
  262. Frame rate                               : 0.284 FPS
  263. Count of elements                        : 1568
  264. Stream size                              : 57.0 KiB (0%)
  265. Title                                    : Italian
  266. Language                                 : Italian
  267. Default                                  : No
  268. Forced                                   : No
  269. Text #17
  270. ID                                       : 19
  271. Format                                   : UTF-8
  272. Codec ID                                 : S_TEXT/UTF8
  273. Codec ID/Info                            : UTF-8 Plain Text
  274. Duration                                 : 1 h 31 min
  275. Bit rate                                 : 79 b/s
  276. Frame rate                               : 0.293 FPS
  277. Count of elements                        : 1616
  278. Stream size                              : 53.5 KiB (0%)
  279. Title                                    : Japanese
  280. Language                                 : Japanese
  281. Default                                  : No
  282. Forced                                   : No
  283. Text #18
  284. ID                                       : 20
  285. Format                                   : UTF-8
  286. Codec ID                                 : S_TEXT/UTF8
  287. Codec ID/Info                            : UTF-8 Plain Text
  288. Duration                                 : 1 h 31 min
  289. Bit rate                                 : 115 b/s
  290. Frame rate                               : 0.311 FPS
  291. Count of elements                        : 1715
  292. Stream size                              : 78.0 KiB (0%)
  293. Title                                    : Korean
  294. Language                                 : Korean
  295. Default                                  : No
  296. Forced                                   : No
  297. Text #19
  298. ID                                       : 21
  299. Format                                   : UTF-8
  300. Codec ID                                 : S_TEXT/UTF8
  301. Codec ID/Info                            : UTF-8 Plain Text
  302. Duration                                 : 1 h 31 min
  303. Bit rate                                 : 82 b/s
  304. Frame rate                               : 0.296 FPS
  305. Count of elements                        : 1630
  306. Stream size                              : 55.5 KiB (0%)
  307. Title                                    : Malay
  308. Language                                 : Malay
  309. Default                                  : No
  310. Forced                                   : No
  311. Text #20
  312. ID                                       : 22
  313. Format                                   : UTF-8
  314. Codec ID                                 : S_TEXT/UTF8
  315. Codec ID/Info                            : UTF-8 Plain Text
  316. Duration                                 : 1 h 31 min
  317. Bit rate                                 : 80 b/s
  318. Frame rate                               : 0.273 FPS
  319. Count of elements                        : 1503
  320. Stream size                              : 54.1 KiB (0%)
  321. Title                                    : Norwegian Bokmal
  322. Language                                 : Norwegian Bokmal
  323. Default                                  : No
  324. Forced                                   : No
  325. Text #21
  326. ID                                       : 23
  327. Format                                   : UTF-8
  328. Codec ID                                 : S_TEXT/UTF8
  329. Codec ID/Info                            : UTF-8 Plain Text
  330. Duration                                 : 1 h 31 min
  331. Bit rate                                 : 79 b/s
  332. Frame rate                               : 0.292 FPS
  333. Count of elements                        : 1607
  334. Stream size                              : 53.8 KiB (0%)
  335. Title                                    : Polish
  336. Language                                 : Polish
  337. Default                                  : No
  338. Forced                                   : No
  339. Text #22
  340. ID                                       : 24
  341. Format                                   : UTF-8
  342. Codec ID                                 : S_TEXT/UTF8
  343. Codec ID/Info                            : UTF-8 Plain Text
  344. Duration                                 : 1 h 31 min
  345. Bit rate                                 : 93 b/s
  346. Frame rate                               : 0.304 FPS
  347. Count of elements                        : 1676
  348. Stream size                              : 62.6 KiB (0%)
  349. Title                                    : Portuguese
  350. Language                                 : Portuguese
  351. Default                                  : No
  352. Forced                                   : No
  353. Text #23
  354. ID                                       : 25
  355. Format                                   : UTF-8
  356. Codec ID                                 : S_TEXT/UTF8
  357. Codec ID/Info                            : UTF-8 Plain Text
  358. Duration                                 : 1 h 31 min
  359. Bit rate                                 : 88 b/s
  360. Frame rate                               : 0.296 FPS
  361. Count of elements                        : 1629
  362. Stream size                              : 59.4 KiB (0%)
  363. Title                                    : Brazilian Portuguese
  364. Language                                 : Portuguese
  365. Default                                  : No
  366. Forced                                   : No
  367. Text #24
  368. ID                                       : 26
  369. Format                                   : UTF-8
  370. Codec ID                                 : S_TEXT/UTF8
  371. Codec ID/Info                            : UTF-8 Plain Text
  372. Duration                                 : 1 h 31 min
  373. Bit rate                                 : 94 b/s
  374. Frame rate                               : 0.301 FPS
  375. Count of elements                        : 1658
  376. Stream size                              : 63.7 KiB (0%)
  377. Title                                    : Romanian
  378. Language                                 : Romanian
  379. Default                                  : No
  380. Forced                                   : No
  381. Text #25
  382. ID                                       : 27
  383. Format                                   : UTF-8
  384. Codec ID                                 : S_TEXT/UTF8
  385. Codec ID/Info                            : UTF-8 Plain Text
  386. Duration                                 : 1 h 31 min
  387. Bit rate                                 : 139 b/s
  388. Frame rate                               : 0.295 FPS
  389. Count of elements                        : 1626
  390. Stream size                              : 93.7 KiB (0%)
  391. Title                                    : Russian
  392. Language                                 : Russian
  393. Default                                  : No
  394. Forced                                   : No
  395. Text #26
  396. ID                                       : 28
  397. Format                                   : UTF-8
  398. Codec ID                                 : S_TEXT/UTF8
  399. Codec ID/Info                            : UTF-8 Plain Text
  400. Duration                                 : 1 h 31 min
  401. Bit rate                                 : 83 b/s
  402. Frame rate                               : 0.300 FPS
  403. Count of elements                        : 1652
  404. Stream size                              : 56.5 KiB (0%)
  405. Title                                    : Spanish
  406. Language                                 : Spanish
  407. Default                                  : No
  408. Forced                                   : No
  409. Text #27
  410. ID                                       : 29
  411. Format                                   : UTF-8
  412. Codec ID                                 : S_TEXT/UTF8
  413. Codec ID/Info                            : UTF-8 Plain Text
  414. Duration                                 : 1 h 31 min
  415. Bit rate                                 : 83 b/s
  416. Frame rate                               : 0.291 FPS
  417. Count of elements                        : 1603
  418. Stream size                              : 56.3 KiB (0%)
  419. Title                                    : European Spanish
  420. Language                                 : Spanish
  421. Default                                  : No
  422. Forced                                   : No
  423. Text #28
  424. ID                                       : 30
  425. Format                                   : UTF-8
  426. Codec ID                                 : S_TEXT/UTF8
  427. Codec ID/Info                            : UTF-8 Plain Text
  428. Duration                                 : 1 h 31 min
  429. Bit rate                                 : 90 b/s
  430. Frame rate                               : 0.294 FPS
  431. Count of elements                        : 1622
  432. Stream size                              : 61.0 KiB (0%)
  433. Title                                    : Swedish
  434. Language                                 : Swedish
  435. Default                                  : No
  436. Forced                                   : No
  437. Text #29
  438. ID                                       : 31
  439. Format                                   : UTF-8
  440. Codec ID                                 : S_TEXT/UTF8
  441. Codec ID/Info                            : UTF-8 Plain Text
  442. Duration                                 : 1 h 31 min
  443. Bit rate                                 : 225 b/s
  444. Frame rate                               : 0.303 FPS
  445. Count of elements                        : 1672
  446. Stream size                              : 152 KiB (0%)
  447. Title                                    : Thai
  448. Language                                 : Thai
  449. Default                                  : No
  450. Forced                                   : No
  451. Text #30
  452. ID                                       : 32
  453. Format                                   : UTF-8
  454. Codec ID                                 : S_TEXT/UTF8
  455. Codec ID/Info                            : UTF-8 Plain Text
  456. Duration                                 : 1 h 31 min
  457. Bit rate                                 : 93 b/s
  458. Frame rate                               : 0.279 FPS
  459. Count of elements                        : 1539
  460. Stream size                              : 62.9 KiB (0%)
  461. Title                                    : Turkish
  462. Language                                 : Turkish
  463. Default                                  : No
  464. Forced                                   : No
  465. Text #31
  466. ID                                       : 33
  467. Format                                   : UTF-8
  468. Codec ID                                 : S_TEXT/UTF8
  469. Codec ID/Info                            : UTF-8 Plain Text
  470. Duration                                 : 1 h 31 min
  471. Bit rate                                 : 126 b/s
  472. Frame rate                               : 0.303 FPS
  473. Count of elements                        : 1670
  474. Stream size                              : 85.3 KiB (0%)
  475. Title                                    : Ukrainian
  476. Language                                 : Ukrainian
  477. Default                                  : No
  478. Forced                                   : No
  479. Text #32
  480. ID                                       : 34
  481. Format                                   : UTF-8
  482. Codec ID                                 : S_TEXT/UTF8
  483. Codec ID/Info                            : UTF-8 Plain Text
  484. Duration                                 : 1 h 31 min
  485. Bit rate                                 : 117 b/s
  486. Frame rate                               : 0.280 FPS
  487. Count of elements                        : 1541
  488. Stream size                              : 79.1 KiB (0%)
  489. Title                                    : Vietnamese
  490. Language                                 : Vietnamese
  491. Default                                  : No
  492. Forced                                   : No
复制代码




                                       
                                       

                                       
                                       
                                       




Good.on.Paper.2021.2160p.NF.WEB-DL.x265.10bit.SDR.DDP5.1-SKiZOiD.torrent (21.08 KB, 下载次数: 0)
回复

使用道具 举报

您需要登录后才可以回帖 登录 | 立即注册

本版积分规则

QQ|Archiver|手机版|小黑屋|蓝光电影网

GMT+8, 2023-2-8 01:24 , Processed in 0.059212 second(s), 28 queries .

Powered by Discuz! X3.4

Copyright © 2001-2020, Tencent Cloud.

快速回复 返回顶部 返回列表