找回密码
 立即注册

QQ登录

只需一步,快速开始

查看: 222|回复: 2

[恐怖片] 断魂小丑2 Terrifier.2.2022.1080p.BluRay.x264-SCARE 20.17GB

[复制链接]

0

精华

0

好友

2

听众

新手上路

Rank: 2

蓝光币
5
发表于 2022-12-21 07:10:29 | 显示全部楼层 |阅读模式
[img][/img]

◎标  题 断魂小丑2
◎译  名 刽乐小丑2
◎片  名 Terrifier 2
◎年  代 2022
◎产  地 美国
◎类  别 恐怖
◎语  言 英语
◎上映日期 2022-08-29(英国) / 2022-10-06(美国)
◎IMDb评分 7.4/10 (1988人评价)
◎IMDb链接 https://www.imdb.com/title/tt10403420/
◎豆瓣链接 https://movie.douban.com/subject/34816877/
◎片  长 138分钟
◎导  演 达米安·利昂 Damien Leone
◎编  剧 达米安·利昂 Damien Leone
◎演  员 珍娜·凯内尔 Jenna Kanell
       劳伦·拉维拉 Lauren LaVera
       戴维·霍华德·桑顿 David Howard Thornton
       凯瑟琳·科科兰 Catherine Corcoran
       格里芬·桑托彼得罗 Griffin Santopietro
       费莉莎·罗斯 Felissa Rose
       萨曼莎·斯卡菲迪 Samantha Scaffidi
       塔玛拉·格林 Tamara Glynn
       凯莉·海曼 Kailey Hyman
       凯蒂·马奎尔 Katie Maguire
       埃利奥特·富勒姆 Elliott Fullam
       凯西·哈特内特 Casey Hartnett
       克里斯·杰里科 Chris Jericho
       乔治亚·麦克菲尔 Georgia MacPhail
       莎拉·格蕾丝·桑德斯 Sarah Grace Sanders
       艾米·露斯 Amy Russ
       欧文·迈尔 Owen Myre
◎简  介

  一股邪恶的力量唤醒杀人小丑亚特。在万圣夜,杀人小丑亚特回到迈尔斯镇,他的目的是抓拿一名少女和她的弟弟,并在万圣夜当晚将他们两人杀害。小丑亚特杀人不眨眼,受害人数不断增加,姊弟两人为生存而奋战的同时也努力探查杀人小丑亚特背后的动机。
  1. Video
  2. ID                                       : 1
  3. Format                                   : AVC
  4. Format/Info                              : Advanced Video Codec
  5. Format profile                           : [email protected]
  6. Format settings                          : CABAC / 4 Ref Frames
  7. Format settings, CABAC                   : Yes
  8. Format settings, Reference frames        : 4 frames
  9. Codec ID                                 : V_MPEG4/ISO/AVC
  10. Duration                                 : 2 h 18 min
  11. Bit rate                                 : 18.9 Mb/s
  12. Width                                    : 1 920 pixels
  13. Height                                   : 1 080 pixels
  14. Display aspect ratio                     : 16:9
  15. Frame rate mode                          : Constant
  16. Frame rate                               : 23.976 (24000/1001/189150) FPS
  17. Color space                              : YUV
  18. Chroma subsampling                       : 4:2:0
  19. Bit depth                                : 8 bits
  20. Scan type                                : Progressive
  21. Bits/(Pixel*Frame)                       : 0.380
  22. Stream size                              : 18.3 GiB (91%)
  23. Writing library                          : x264 core 164 r3102 416e3eb
  24. Encoding settings                        : cabac=1 / ref=4 / deblock=1:-3:-3 / analyse=0x3:0x133 / me=umh / subme=10 / psy=1 / psy_rd=1.20:0.00 / mixed_ref=1 / me_range=24 / chroma_me=1 / trellis=2 / 8x8dct=1 / cqm=0 / deadzone=21,11 / fast_pskip=0 / chroma_qp_offset=-2 / threads=24 / lookahead_threads=4 / sliced_threads=0 / nr=0 / decimate=0 / interlaced=0 / bluray_compat=0 / constrained_intra=0 / bframes=8 / b_pyramid=2 / b_adapt=2 / b_bias=0 / direct=3 / weightb=1 / open_gop=0 / weightp=2 / keyint=250 / keyint_min=23 / scenecut=40 / intra_refresh=0 / rc_lookahead=60 / rc=crf / mbtree=1 / crf=19.0 / qcomp=0.60 / qpmin=0 / qpmax=69 / qpstep=4 / ip_ratio=1.40 / aq=3:0.90
  25. Default                                  : Yes
  26. Forced                                   : No
  27. Color range                              : Limited
  28. Matrix coefficients                      : BT.709

  29. Audio
  30. ID                                       : 2
  31. Format                                   : DTS XLL
  32. Format/Info                              : Digital Theater Systems
  33. Commercial name                          : DTS-HD Master Audio
  34. Codec ID                                 : A_DTS
  35. Duration                                 : 2 h 18 min
  36. Bit rate mode                            : Variable
  37. Bit rate                                 : 1 972 kb/s
  38. Channel(s)                               : 6 channels
  39. Channel layout                           : C L R Ls Rs LFE
  40. Sampling rate                            : 48.0 kHz
  41. Frame rate                               : 93.750 FPS (512 SPF)
  42. Bit depth                                : 16 bits
  43. Compression mode                         : Lossless
  44. Stream size                              : 1.91 GiB (9%)
  45. Language                                 : English
  46. Default                                  : Yes
  47. Forced                                   : No

  48. Menu
  49. 00:00:00.000                             : Chapter 01
  50. 00:27:19.513                             : Chapter 02
  51. 01:09:10.521                             : Chapter 03
  52. 01:28:37.687                             : Chapter 04
  53. 01:48:02.810                             : Chapter 05
  54. 02:10:46.005                             : Chapter 06
复制代码




                                       
                                       

                                       
                                       
                                       




Terrifier.2.2022.1080p.BluRay.x264-SCARE.torrent (26 KB, 下载次数: 0)
回复

使用道具 举报

0

精华

0

好友

2

听众

新手上路

Rank: 1

蓝光币
0
发表于 2023-1-16 09:41:09 | 显示全部楼层

usually occurs within

text carrier and protective
回复

使用道具 举报

0

精华

0

好友

2

听众

新手上路

Rank: 1

蓝光币
0
发表于 2023-1-23 08:30:19 | 显示全部楼层

Subjective inherent in a specific

reproduced by hand, in contrast
回复

使用道具 举报

您需要登录后才可以回帖 登录 | 立即注册

本版积分规则

QQ|Archiver|手机版|小黑屋|蓝光电影网

GMT+8, 2023-2-8 03:06 , Processed in 0.055251 second(s), 28 queries .

Powered by Discuz! X3.4

Copyright © 2001-2020, Tencent Cloud.

快速回复 返回顶部 返回列表