找回密码
 立即注册

QQ登录

只需一步,快速开始

查看: 294|回复: 4

[剧情片] 风吹麦浪 The.Wind.That.Shakes.the.Barley.2006.1080p.BluRay.x264.DD5.1-HANDJOB 10.75GB

[复制链接]

0

精华

0

好友

2

听众

新手上路

Rank: 2

蓝光币
5
发表于 2022-12-21 07:09:08 | 显示全部楼层 |阅读模式
[img][/img]

◎标  题 风吹麦浪
◎译  名 吹动大麦的风(台) / 风吹稻浪
◎片  名 The Wind That Shakes the Barley
◎年  代 2006
◎产  地 爱尔兰 / 英国 / 德国 / 意大利 / 西班牙 / 法国 / 比利时 / 瑞典
◎类  别 剧情 / 历史 / 战争
◎语  言 英语 / 爱尔兰语 / 拉丁语
◎上映日期 2006-06-23
◎IMDb评分 7.5/10 (49117人评价)
◎IMDb链接 https://www.imdb.com/title/tt0460989/
◎豆瓣评分 8.1/10 (17666人评价)
◎豆瓣链接 https://movie.douban.com/subject/1780122/
◎片  长 127 分钟
◎导  演 肯·洛奇 Ken Loach
◎编  剧 保罗·拉弗蒂 Paul Laverty
◎演  员 基里安·墨菲 Cillian Murphy
       帕德莱克·德兰尼 Padraic Delaney
       利亚姆·坎宁安 Liam Cunningham
       威廉·鲁尼 William Ruane
       希沃恩·麦克斯维尼 Siobhan McSweeney
       奥拉·菲茨杰拉德 Orla Fitzgerald
       罗杰·阿拉姆 Roger Allam
       辛·麦金利 Sean McGinley
       威廉·阿姆斯壮 William Armstrong
       Niall McCarthy Niall McCarthy
       马克·瓦克林 Mark Wakeling
       杰米洛玛斯 Jamie Lomas
       丹尼斯·康威 Denis Conway
       雷德芒德·莫瑞斯 Redmond Morris
       乌里希·费尔斯伯格 Ulrich Felsberg
       安德鲁·洛 Andrew Lowe
       丽贝卡·奥布莱恩 Rebecca O'Brien
       乔治·芬顿 George Fenton
       巴里·埃克劳德 Barry Ackroyd
       Mark Lowry Mark Lowry
       弗格斯·克莱格 Fergus Clegg
       埃默·尼·毛尔多姆奈 Eimer Ni Mhaoldomhnaigh
       林恩·约翰逊 Lynn Johnson
       Gary J. Brown Gary J. Brown
◎标  签 爱尔兰 / 战争 / 英国 / 历史 / 英国电影 / 剧情 / 2006 / 肯·洛奇
◎简  介

  20世纪二十年代,英国和爱尔兰之间的矛盾不断加深,最终爆发爱尔兰独立战争。原本拥有光明前途的医科大学生达米安(Cillian Murphy 饰)得知战争爆发,毅然投笔从戎。他回到家乡,与弟弟泰迪(Padraic Delaney 饰)、好友丹(Liam Cunningham 饰)一起加入了爱尔兰共和军。这群青年凭借满腔热血以及出色的战术,一次次挫败受雇于英国政府的“黑与棕”民兵部队。他们的反抗迫使英军同意签订条约,然而,这也成为昔日战友分道扬镳的岔路口……                                    
                                本片荣获2006年戛纳电影节金棕榈奖、2006年欧洲电影节最佳摄影奖、2007年爱尔兰电视电影奖观众奖最佳爱尔兰影片和IFTA最佳男配角(Liam Cunningham)及最佳影片奖。
  1. Video
  2. ID                                       : 1
  3. Format                                   : AVC
  4. Format/Info                              : Advanced Video Codec
  5. Format profile                           : [email protected]
  6. Format settings                          : CABAC / 4 Ref Frames
  7. Format settings, CABAC                   : Yes
  8. Format settings, Reference frames        : 4 frames
  9. Codec ID                                 : V_MPEG4/ISO/AVC
  10. Duration                                 : 2 h 6 min
  11. Bit rate                                 : 11.4 Mb/s
  12. Width                                    : 1 920 pixels
  13. Height                                   : 1 036 pixels
  14. Display aspect ratio                     : 1.85:1
  15. Frame rate mode                          : Constant
  16. Frame rate                               : 24.000 FPS
  17. Color space                              : YUV
  18. Chroma subsampling                       : 4:2:0
  19. Bit depth                                : 8 bits
  20. Scan type                                : Progressive
  21. Bits/(Pixel*Frame)                       : 0.240
  22. Stream size                              : 10.1 GiB (94%)
  23. Writing library                          : x264 core 163 r3060 5db6aa6
  24. Encoding settings                        : cabac=1 / ref=4 / deblock=1:-3:-3 / analyse=0x3:0x133 / me=umh / subme=10 / psy=1 / psy_rd=1.00:0.00 / mixed_ref=1 / me_range=32 / chroma_me=1 / trellis=2 / 8x8dct=1 / cqm=0 / deadzone=21,11 / fast_pskip=0 / chroma_qp_offset=-2 / threads=32 / lookahead_threads=8 / sliced_threads=0 / nr=0 / decimate=0 / interlaced=0 / bluray_compat=0 / constrained_intra=0 / bframes=16 / b_pyramid=2 / b_adapt=2 / b_bias=0 / direct=3 / weightb=1 / open_gop=0 / weightp=1 / keyint=240 / keyint_min=24 / scenecut=40 / intra_refresh=0 / rc_lookahead=60 / rc=crf / mbtree=0 / crf=18.8 / qcomp=0.60 / qpmin=0 / qpmax=69 / qpstep=4 / vbv_maxrate=62500 / vbv_bufsize=78125 / crf_max=0.0 / nal_hrd=none / filler=0 / ip_ratio=1.40 / pb_ratio=1.30 / aq=1:0.70
  25. Default                                  : Yes
  26. Forced                                   : No
  27. Color range                              : Limited
  28. Color primaries                          : BT.709
  29. Transfer characteristics                 : BT.709
  30. Matrix coefficients                      : BT.709
  31. Audio #1
  32. ID                                       : 2
  33. Format                                   : AC-3
  34. Format/Info                              : Audio Coding 3
  35. Commercial name                          : Dolby Digital
  36. Codec ID                                 : A_AC3
  37. Duration                                 : 2 h 6 min
  38. Bit rate mode                            : Constant
  39. Bit rate                                 : 640 kb/s
  40. Channel(s)                               : 6 channels
  41. Channel layout                           : L R C LFE Ls Rs
  42. Sampling rate                            : 48.0 kHz
  43. Frame rate                               : 31.250 FPS (1536 SPF)
  44. Compression mode                         : Lossy
  45. Stream size                              : 579 MiB (5%)
  46. Language                                 : English
  47. Service kind                             : Complete Main
  48. Default                                  : Yes
  49. Forced                                   : No
  50. Audio #2
  51. ID                                       : 3
  52. Format                                   : AAC LC
  53. Format/Info                              : Advanced Audio Codec Low Complexity
  54. Codec ID                                 : A_AAC-2
  55. Duration                                 : 2 h 6 min
  56. Bit rate                                 : 92.5 kb/s
  57. Channel(s)                               : 2 channels
  58. Channel layout                           : L R
  59. Sampling rate                            : 48.0 kHz
  60. Frame rate                               : 46.875 FPS (1024 SPF)
  61. Compression mode                         : Lossy
  62. Stream size                              : 83.7 MiB (1%)
  63. Title                                    : Commentary with Director Ken Loach and Historical Advisor Professor Donal O\'Driscoll
  64. Language                                 : English
  65. Default                                  : No
  66. Forced                                   : No
  67. Text #1
  68. ID                                       : 4
  69. Format                                   : UTF-8
  70. Codec ID                                 : S_TEXT/UTF8
  71. Codec ID/Info                            : UTF-8 Plain Text
  72. Duration                                 : 2 h 2 min
  73. Bit rate                                 : 57 b/s
  74. Frame rate                               : 0.182 FPS
  75. Count of elements                        : 1345
  76. Stream size                              : 52.2 KiB (0%)
  77. Language                                 : English
  78. Default                                  : No
  79. Forced                                   : No
  80. Text #2
  81. ID                                       : 5
  82. Format                                   : UTF-8
  83. Codec ID                                 : S_TEXT/UTF8
  84. Codec ID/Info                            : UTF-8 Plain Text
  85. Duration                                 : 2 h 2 min
  86. Bit rate                                 : 47 b/s
  87. Frame rate                               : 0.183 FPS
  88. Count of elements                        : 1349
  89. Stream size                              : 43.0 KiB (0%)
  90. Title                                    : Simplified
  91. Language                                 : Chinese
  92. Default                                  : No
  93. Forced                                   : No
  94. Text #3
  95. ID                                       : 6
  96. Format                                   : UTF-8
  97. Codec ID                                 : S_TEXT/UTF8
  98. Codec ID/Info                            : UTF-8 Plain Text
  99. Duration                                 : 2 h 2 min
  100. Bit rate                                 : 47 b/s
  101. Frame rate                               : 0.183 FPS
  102. Count of elements                        : 1349
  103. Stream size                              : 43.0 KiB (0%)
  104. Title                                    : Traditional
  105. Language                                 : Chinese
  106. Default                                  : No
  107. Forced                                   : No
  108. Text #4
  109. ID                                       : 7
  110. Format                                   : UTF-8
  111. Codec ID                                 : S_TEXT/UTF8
  112. Codec ID/Info                            : UTF-8 Plain Text
  113. Duration                                 : 2 h 2 min
  114. Bit rate                                 : 49 b/s
  115. Frame rate                               : 0.197 FPS
  116. Count of elements                        : 1454
  117. Stream size                              : 44.7 KiB (0%)
  118. Language                                 : Spanish
  119. Default                                  : No
  120. Forced                                   : No
  121. Menu
  122. 00:00:00.000                             : :Opening Credits
  123. 00:08:14.708                             : :Funeral
  124. 00:11:15.000                             : :The Oath
  125. 00:14:49.792                             : :Field Training
  126. 00:19:50.083                             : :Final Warning
  127. 00:24:53.208                             : :Manhunt
  128. 00:29:14.375                             : :Captured
  129. 00:35:08.083                             : :Singing Support
  130. 00:42:38.083                             : :Escape
  131. 00:50:08.833                             : :Death March
  132. 00:56:34.000                             : :Republican Court
  133. 01:04:37.167                             : :Ambush
  134. 01:15:31.125                             : :Home Invasion
  135. 01:22:11.958                             : :Celebration
  136. 01:33:38.708                             : :Exit Parade
  137. 01:38:49.292                             : :Telegram From Dublin
  138. 01:48:14.542                             : :Weapons Depot
  139. 01:52:06.167                             : :Final Visitor
  140. 02:01:21.292                             : :Last Letter
  141. 02:03:57.583                             : :End Credits
复制代码




                                       
                                       

                                       
                                       
                                       




The.Wind.That.Shakes.the.Barley.2006.1080p.BluRay.x264.DD5.1-HANDJOB.torrent (14.1 KB, 下载次数: 0)
回复

使用道具 举报

0

精华

0

好友

2

听众

新手上路

Rank: 1

蓝光币
0
发表于 2023-1-7 09:48:21 | 显示全部楼层

research is not universally recognized in

book about the chess of love ", created by
回复

使用道具 举报

0

精华

0

好友

3

听众

新手上路

Rank: 1

蓝光币
0
发表于 2023-1-14 06:07:11 | 显示全部楼层

best online casino games

Our main objective is to take you to an online casino that you will enjoy without worrying about your safety. All casino brands listed here are authorized by the respective US state gaming divisions. All winnings are paid out, 100% guaranteed! However, winning is not guaranteed, but the Return to Player (RTP) of all online casino games is audited by gaming regulators to ensure players are given a fair chance.
回复

使用道具 举报

0

精华

0

好友

2

听众

新手上路

Rank: 1

蓝光币
0
发表于 2023-1-25 17:21:54 | 显示全部楼层

personality of the writer, and objective ones depend

AlbertZiple ??? 2023-1-14 06:07
Our main objective is to take you to an online casino that you will enjoy without worrying about you ...

European glory, and even after
回复

使用道具 举报

0

精华

0

好友

2

听众

新手上路

Rank: 1

蓝光币
0
发表于 2023-1-30 04:31:21 | 显示全部楼层

and print on printers).

collection of poems composed
回复

使用道具 举报

您需要登录后才可以回帖 登录 | 立即注册

本版积分规则

QQ|Archiver|手机版|小黑屋|蓝光电影网

GMT+8, 2023-2-8 02:36 , Processed in 0.058944 second(s), 28 queries .

Powered by Discuz! X3.4

Copyright © 2001-2020, Tencent Cloud.

快速回复 返回顶部 返回列表