找回密码
 立即注册

QQ登录

只需一步,快速开始

查看: 250|回复: 2

[剧情片] 塔尔 Tar.2022.1080p.BluRay.x264.DTS-FGT 14.35GB

[复制链接]

0

精华

0

好友

2

听众

新手上路

Rank: 2

蓝光币
5
发表于 2022-12-21 07:07:55 | 显示全部楼层 |阅读模式
[img][/img]

◎标  题 塔尔
◎片  名 Tár
◎年  代 2022
◎产  地 美国
◎类  别 剧情 / 音乐
◎语  言 德语 / 菲律宾语 / 法语 / 英语
◎上映日期 2022-09-01(威尼斯电影节) / 2022-10-07(美国)
◎IMDb评分 8.2/10 (4151人评价)
◎IMDb链接 https://www.imdb.com/title/tt14444726/
◎豆瓣评分 7.6/10 (669人评价)
◎豆瓣链接 https://movie.douban.com/subject/35430833/
◎片  长 158分钟
◎导  演 托德·菲尔德 Todd Field
◎编  剧 托德·菲尔德 Todd Field
◎演  员 凯特·布兰切特 Cate Blanchett
       诺米·梅兰特 Noémie Merlant
       尼娜·霍斯 Nina Hoss
       马克·斯特朗 Mark Strong
       苏菲·考尔 Sophie Kauer
       朱利安·格洛弗 Julian Glover
       阿兰·柯德勒 Allan Corduner
       亚历克·鲍德温 Alec Baldwin
       西尔维娅·弗洛特 Sylvia Flote
       西德妮·莱蒙 Sydney Lemmon
       亚特乔姆·吉尔茨 Artjom Gilz
       玛丽·卢·塞勒姆 Marie-Lou Sellem
       André Röhner André Röhner
       Frank Röth Frank Röth
       约翰·冯·比罗 Johann von Bülow
       仙妮娅·阿森察 Xenia Assenza
       山姆·道格拉斯 Sam Douglas
       穆拉利·佩鲁马尔 Murali Perumal
       文森特·里奥特 Vincent Riotta
       Vivian Full Vivian Full
       埃德·怀特 Ed White
       露西·波尔 Lucie Pohl
       迪安娜·比伦特 Diana Birenyte
       佩纳·戴格勒 Bina Daigeler
◎简  介

  影片讲述了世界著名音乐家莉迪亚·塔尔Lydia Tár(凯特·布兰切特 饰)的故事。距离录制交响乐仅有几天时间,这将使她达到她职业生涯的顶峰。Lydia Tár的六岁养女Petra非常聪明和迷人,在这里发挥了关键作用。当各种因素似乎对Lydia不利时,女儿成为挣扎中的母亲的重要精神支持。
  1. Video
  2. ID                                       : 1
  3. Format                                   : AVC
  4. Format/Info                              : Advanced Video Codec
  5. Format profile                           : [email protected]
  6. Format settings                          : CABAC / 4 Ref Frames
  7. Format settings, CABAC                   : Yes
  8. Format settings, Reference frames        : 4 frames
  9. Codec ID                                 : V_MPEG4/ISO/AVC
  10. Duration                                 : 2 h 37 min
  11. Bit rate                                 : 11.5 Mb/s
  12. Width                                    : 1 920 pixels
  13. Height                                   : 804 pixels
  14. Display aspect ratio                     : 2.40:1
  15. Frame rate mode                          : Constant
  16. Frame rate                               : 23.976 (24000/1001/189150) FPS
  17. Color space                              : YUV
  18. Chroma subsampling                       : 4:2:0
  19. Bit depth                                : 8 bits
  20. Scan type                                : Progressive
  21. Bits/(Pixel*Frame)                       : 0.311
  22. Stream size                              : 12.7 GiB (88%)
  23. Writing library                          : x264 core 148 r2748 97eaef2
  24. Encoding settings                        : cabac=1 / ref=4 / deblock=1:-2:-2 / analyse=0x3:0x113 / me=umh / subme=9 / psy=1 / psy_rd=1.00:0.15 / mixed_ref=1 / me_range=16 / chroma_me=1 / trellis=2 / 8x8dct=1 / cqm=0 / deadzone=21,11 / fast_pskip=1 / chroma_qp_offset=-3 / threads=72 / lookahead_threads=3 / sliced_threads=0 / nr=0 / decimate=1 / interlaced=0 / bluray_compat=0 / constrained_intra=0 / bframes=3 / b_pyramid=2 / b_adapt=1 / b_bias=0 / direct=3 / weightb=1 / open_gop=0 / weightp=2 / keyint=250 / keyint_min=25 / scenecut=40 / intra_refresh=0 / rc_lookahead=50 / rc=2pass / mbtree=1 / bitrate=11500 / ratetol=1.0 / qcomp=0.60 / qpmin=0 / qpmax=69 / qpstep=4 / cplxblur=20.0 / qblur=0.5 / vbv_maxrate=31250 / vbv_bufsize=31250 / nal_hrd=none / filler=0 / ip_ratio=1.40 / aq=1:1.00
  25. Language                                 : English
  26. Default                                  : Yes
  27. Forced                                   : No
  28. Audio
  29. ID                                       : 2
  30. Format                                   : DTS
  31. Format/Info                              : Digital Theater Systems
  32. Codec ID                                 : A_DTS
  33. Duration                                 : 2 h 37 min
  34. Bit rate mode                            : Constant
  35. Bit rate                                 : 1 509 kb/s
  36. Channel(s)                               : 6 channels
  37. Channel layout                           : C L R Ls Rs LFE
  38. Sampling rate                            : 48.0 kHz
  39. Frame rate                               : 93.750 FPS (512 SPF)
  40. Bit depth                                : 24 bits
  41. Compression mode                         : Lossy
  42. Stream size                              : 1.67 GiB (12%)
  43. Title                                    : DTS 5.1
  44. Language                                 : English
  45. Default                                  : No
  46. Forced                                   : No
  47. Text #1
  48. ID                                       : 3
  49. Format                                   : UTF-8
  50. Codec ID                                 : S_TEXT/UTF8
  51. Codec ID/Info                            : UTF-8 Plain Text
  52. Duration                                 : 2 h 33 min
  53. Bit rate                                 : 53 b/s
  54. Frame rate                               : 0.187 FPS
  55. Count of elements                        : 1723
  56. Stream size                              : 60.7 KiB (0%)
  57. Language                                 : English
  58. Default                                  : Yes
  59. Forced                                   : No
  60. Text #2
  61. ID                                       : 4
  62. Format                                   : UTF-8
  63. Codec ID                                 : S_TEXT/UTF8
  64. Codec ID/Info                            : UTF-8 Plain Text
  65. Duration                                 : 2 h 33 min
  66. Bit rate                                 : 61 b/s
  67. Frame rate                               : 0.224 FPS
  68. Count of elements                        : 2064
  69. Stream size                              : 68.8 KiB (0%)
  70. Title                                    : SDH
  71. Language                                 : English
  72. Default                                  : No
  73. Forced                                   : No
  74. Menu
  75. 00:00:00.000                             : en:Chapter 01
  76. 00:07:29.782                             : en:Chapter 02
  77. 00:17:07.151                             : en:Chapter 03
  78. 00:25:12.302                             : en:Chapter 04
  79. 00:35:37.677                             : en:Chapter 05
  80. 00:42:15.407                             : en:Chapter 06
  81. 00:49:55.867                             : en:Chapter 07
  82. 00:58:05.440                             : en:Chapter 08
  83. 01:06:35.074                             : en:Chapter 09
  84. 01:14:31.800                             : en:Chapter 10
  85. 01:22:07.714                             : en:Chapter 11
  86. 01:32:25.581                             : en:Chapter 12
  87. 01:39:26.085                             : en:Chapter 13
  88. 01:48:11.067                             : en:Chapter 14
  89. 01:56:48.334                             : en:Chapter 15
  90. 02:05:49.124                             : en:Chapter 16
  91. 02:11:24.334                             : en:Chapter 17
  92. 02:19:23.772                             : en:Chapter 18
  93. 02:27:28.130                             : en:Chapter 19
  94. 02:34:42.356                             : en:Chapter 20
复制代码




                                       
                                       

                                       
                                       
                                       




Tar.2022.1080p.BluRay.x264.DTS-FGT.torrent (18.54 KB, 下载次数: 0)
回复

使用道具 举报

0

精华

0

好友

2

听众

新手上路

Rank: 1

蓝光币
0
发表于 2022-12-24 05:55:12 | 显示全部楼层

Handwriting - recorded in the manuscript,

At the same time, many antique
回复

使用道具 举报

0

精华

0

好友

2

听众

新手上路

Rank: 1

蓝光币
0
发表于 2023-1-6 14:37:10 | 显示全部楼层

and an objective plan.

, text and illustrations to which
回复

使用道具 举报

您需要登录后才可以回帖 登录 | 立即注册

本版积分规则

QQ|Archiver|手机版|小黑屋|蓝光电影网

GMT+8, 2023-2-8 01:35 , Processed in 0.056254 second(s), 28 queries .

Powered by Discuz! X3.4

Copyright © 2001-2020, Tencent Cloud.

快速回复 返回顶部 返回列表