找回密码
 立即注册

QQ登录

只需一步,快速开始

查看: 81|回复: 0

[UHD.HEVC] 神奇女侠1984 Wonder.Woman.1984.2020.PROPER.IMAX.2160p.BluRay.REMUX.HEVC.DTS-HD.MA.TrueHD.7.1.Atmos-FGT 76.92GB

[复制链接]

0

精华

0

好友

2

听众

新手上路

Rank: 2

蓝光币
5
发表于 2022-12-20 07:56:05 | 显示全部楼层 |阅读模式
[img][/img]

◎标  题 神奇女侠1984
◎译  名 神力女超人1984(台) / 神奇女侠2 / Wonder Woman 2 / WW84
◎片  名 Wonder Woman 1984
◎年  代 2020
◎产  地 美国 / 英国 / 西班牙
◎类  别 动作 / 奇幻 / 冒险
◎语  言 英语
◎上映日期 2020-12-18(中国大陆) / 2020-12-25(美国)
◎IMDb评分 5.4/10 (240725人评价)
◎IMDb链接 https://www.imdb.com/title/tt7126948/
◎豆瓣评分 6.1/10 (229844人评价)
◎豆瓣链接 https://movie.douban.com/subject/27073752/
◎片  长 151分钟
◎导  演 派蒂·杰金斯 Patty Jenkins
◎编  剧 派蒂·杰金斯 Patty Jenkins
       乔夫·琼斯 Geoff Johns
       戴夫·卡拉汉姆 Dave Callaham
       威廉·马斯顿 William M. Marston
◎演  员 盖尔·加朵 Gal Gadot
       克里斯·派恩 Chris Pine
       克里斯汀·韦格 Kristen Wiig
       佩德罗·帕斯卡 Pedro Pascal
       康妮·尼尔森 Connie Nielsen
       罗宾·怀特 Robin Wright
       莉莉·阿斯佩尔 Lilly Aspell
       加布瑞拉·王尔德 Gabriella Wilde
       杜晨·科洛斯 Doutzen Kroes
       琳达·卡特 Lynda Carter
       克里斯托弗·普拉哈 Kristoffer Polaha
       里昂·贝克维思 Lyon Beckwith
       拉维·帕特尔 Ravi Patel
       娜塔莎·罗斯韦尔 Natasha Rothwell
       泰莎·波纳姆·琼斯 Tessa Bonham Jones
       艾拉·沃克 Ella Walker
       游朝敏 Kelvin Yu
       谢恩·阿特沃尔 Shane Attwooll
       艾德·伯奇 Ed Birch
       帕特里克·利斯特 Patrick Lyster
       奥克莉·布尔 Oakley Bull
       科莎·恩格勒 Kosha Engler
       小田部阿基 Akie Kotabe
       康斯坦丁·格雷戈里 Constantine Gregory
       文森·德·保罗 Vincent De Paul
       朱利安·费罗 Julian Ferro
       罗莎娜·沃尔斯 Rosanna Walls
       丹尼·摩根 Danny Morgan
       克里斯·西尔科克 Chris Silcox
       伯纳多·桑托斯 Bernardo Santos
       菲利普·菲尔玛 Philip Philmar
       尼克·欧文福特 Nick Owenford
       乔尔·莫里斯 Joel Morris
       贾格·帕特尔 Jag Patel
       温迪·阿尔比斯顿 Wendy Albiston
       马诺伊·阿南德 Manoj Anand
       约翰·盖蒂尔 John Gettier
       佩内洛普·卡普迪雅 Penelope Kapudija
       莎拉·卢娜 Sarah Luna
       萨曼莎·罗素 Samantha Russell
       卢锡安·佩雷兹 Lucian Perez
       Pedro Leandro Pedro Leandro
       扎克·施奈德 Zack Snyder
       派蒂·杰金斯 Patty Jenkins
       韦斯利·柯勒 Wesley Coller
       汉斯·季默 Hans Zimmer
       马修·詹森 Matthew Jensen
        ASC
       林迪·海明 Lindy Hemming
       詹森·拉尼尔·布朗 Jason Lanier Brown
       Ben Collins Ben Collins
◎标  签 DC / 超级英雄 / 美国 / 科幻 / 动作 / 正义联盟 / 漫画改编 / 奇幻
◎简  介

  故事背景设定在五光十色、充满诱惑的80年代,神奇女侠戴安娜在华盛顿的自然历史博物馆过着与普通人无异的生活,然而在阻止了一场看似平常的劫案后,身边的一切都发生了变化。在强大的神力诱惑下,两位全新劲敌悄然出现——与神奇女侠“相爱相杀”的顶级掠食者豹女, 以及掌控着能改变世界力量的麦克斯·洛德,一场惊天大战在所难免。另外一边,旧爱史蒂夫突然“死而复生”,与戴安娜再续前缘,然而浪漫感动之余,史蒂夫的回归也疑窦丛生。                                    
                                新时代大幕开启,面对两位强大的邪恶反派和神秘归来的史蒂夫,神奇女侠要如何才能再次拯救世界?
  1. Video
  2. ID                                       : 1
  3. ID in the original source medium         : 4113 (0x1011)
  4. Format                                   : HEVC
  5. Format/Info                              : High Efficiency Video Coding
  6. Format profile                           : Main [email protected]@High
  7. HDR format                               : Dolby Vision, Version 1.0, dvhe.07.06, BL+EL+RPU, Blu-ray compatible / SMPTE ST 2094 App 4, Version 1, HDR10+ Profile B compatible
  8. Codec ID                                 : V_MPEGH/ISO/HEVC
  9. Duration                                 : 2 h 31 min
  10. Bit rate                                 : 56.6 Mb/s
  11. Width                                    : 3 840 pixels
  12. Height                                   : 2 160 pixels
  13. Display aspect ratio                     : 16:9
  14. Frame rate mode                          : Constant
  15. Frame rate                               : 23.976 (24000/1001/189150) FPS
  16. Color space                              : YUV
  17. Chroma subsampling                       : 4:2:0 (Type 2)
  18. Bit depth                                : 10 bits
  19. Bits/(Pixel*Frame)                       : 0.284
  20. Stream size                              : 59.7 GiB (78%)
  21. Language                                 : English
  22. Default                                  : No
  23. Forced                                   : No
  24. Color range                              : Limited
  25. Color primaries                          : BT.2020
  26. Transfer characteristics                 : PQ
  27. Matrix coefficients                      : BT.2020 non-constant
  28. Mastering display color primaries        : Display P3
  29. Mastering display luminance              : min: 0.0001 cd/m2, max: 1000 cd/m2
  30. Maximum Content Light Level              : 596 cd/m2
  31. Maximum Frame-Average Light Level        : 200 cd/m2
  32. Original source medium                   : Blu-ray
  33. Audio #1
  34. ID                                       : 2
  35. ID in the original source medium         : 4352 (0x1100)
  36. Format                                   : MLP FBA 16-ch
  37. Format/Info                              : Meridian Lossless Packing FBA with 16-channel presentation
  38. Commercial name                          : Dolby TrueHD with Dolby Atmos
  39. Codec ID                                 : A_TRUEHD
  40. Duration                                 : 2 h 31 min
  41. Bit rate mode                            : Variable
  42. Bit rate                                 : 2 860 kb/s
  43. Maximum bit rate                         : 4 392 kb/s
  44. Channel(s)                               : 8 channels
  45. Channel layout                           : L R C LFE Ls Rs Lb Rb
  46. Sampling rate                            : 48.0 kHz
  47. Frame rate                               : 1 200.000 FPS (40 SPF)
  48. Bit depth                                : 24 bits
  49. Compression mode                         : Lossless
  50. Stream size                              : 3.02 GiB (4%)
  51. Title                                    : TrueHD 7.1 Atmos
  52. Language                                 : English
  53. Default                                  : Yes
  54. Forced                                   : No
  55. Original source medium                   : Blu-ray
  56. Number of dynamic objects                : 11
  57. Bed channel count                        : 1 channel
  58. Bed channel configuration                : LFE
  59. Audio #2
  60. ID                                       : 3
  61. Format                                   : DTS XLL
  62. Format/Info                              : Digital Theater Systems
  63. Commercial name                          : DTS-HD Master Audio
  64. Codec ID                                 : A_DTS
  65. Duration                                 : 2 h 31 min
  66. Bit rate mode                            : Variable
  67. Bit rate                                 : 4 293 kb/s
  68. Channel(s)                               : 8 channels
  69. Channel layout                           : C L R LFE Lb Rb Lss Rss
  70. Sampling rate                            : 48.0 kHz
  71. Frame rate                               : 93.750 FPS (512 SPF)
  72. Bit depth                                : 24 bits
  73. Compression mode                         : Lossless
  74. Stream size                              : 4.53 GiB (6%)
  75. Title                                    : DTS-HD MA 7.1
  76. Language                                 : English
  77. Default                                  : No
  78. Forced                                   : No
  79. Audio #3
  80. ID                                       : 4
  81. ID in the original source medium         : 4352 (0x1100)
  82. Format                                   : AC-3
  83. Format/Info                              : Audio Coding 3
  84. Commercial name                          : Dolby Digital
  85. Format settings                          : Dolby Surround EX
  86. Codec ID                                 : A_AC3
  87. Duration                                 : 2 h 31 min
  88. Bit rate mode                            : Constant
  89. Bit rate                                 : 448 kb/s
  90. Channel(s)                               : 6 channels
  91. Channel layout                           : L R C LFE Ls Rs
  92. Sampling rate                            : 48.0 kHz
  93. Frame rate                               : 31.250 FPS (1536 SPF)
  94. Compression mode                         : Lossy
  95. Stream size                              : 484 MiB (1%)
  96. Title                                    : DD 5.1
  97. Language                                 : English
  98. Service kind                             : Complete Main
  99. Default                                  : No
  100. Forced                                   : No
  101. Original source medium                   : Blu-ray
  102. Audio #4
  103. ID                                       : 5
  104. ID in the original source medium         : 4353 (0x1101)
  105. Format                                   : AC-3
  106. Format/Info                              : Audio Coding 3
  107. Commercial name                          : Dolby Digital
  108. Codec ID                                 : A_AC3
  109. Duration                                 : 2 h 31 min
  110. Bit rate mode                            : Constant
  111. Bit rate                                 : 448 kb/s
  112. Channel(s)                               : 6 channels
  113. Channel layout                           : L R C LFE Ls Rs
  114. Sampling rate                            : 48.0 kHz
  115. Frame rate                               : 31.250 FPS (1536 SPF)
  116. Compression mode                         : Lossy
  117. Stream size                              : 484 MiB (1%)
  118. Title                                    : DD 5.1
  119. Language                                 : English
  120. Service kind                             : Complete Main
  121. Default                                  : No
  122. Forced                                   : No
  123. Original source medium                   : Blu-ray
  124. Audio #5
  125. ID                                       : 6
  126. ID in the original source medium         : 4354 (0x1102)
  127. Format                                   : AC-3
  128. Format/Info                              : Audio Coding 3
  129. Commercial name                          : Dolby Digital
  130. Codec ID                                 : A_AC3
  131. Duration                                 : 2 h 31 min
  132. Bit rate mode                            : Constant
  133. Bit rate                                 : 448 kb/s
  134. Channel(s)                               : 6 channels
  135. Channel layout                           : L R C LFE Ls Rs
  136. Sampling rate                            : 48.0 kHz
  137. Frame rate                               : 31.250 FPS (1536 SPF)
  138. Compression mode                         : Lossy
  139. Stream size                              : 484 MiB (1%)
  140. Title                                    : DD 5.1
  141. Language                                 : English
  142. Service kind                             : Complete Main
  143. Default                                  : No
  144. Forced                                   : No
  145. Original source medium                   : Blu-ray
  146. Audio #6
  147. ID                                       : 7
  148. ID in the original source medium         : 4355 (0x1103)
  149. Format                                   : MLP FBA 16-ch
  150. Format/Info                              : Meridian Lossless Packing FBA with 16-channel presentation
  151. Commercial name                          : Dolby TrueHD with Dolby Atmos
  152. Codec ID                                 : A_TRUEHD
  153. Duration                                 : 2 h 31 min
  154. Bit rate mode                            : Variable
  155. Bit rate                                 : 3 008 kb/s
  156. Maximum bit rate                         : 4 689 kb/s
  157. Channel(s)                               : 8 channels
  158. Channel layout                           : L R C LFE Ls Rs Lb Rb
  159. Sampling rate                            : 48.0 kHz
  160. Frame rate                               : 1 200.000 FPS (40 SPF)
  161. Bit depth                                : 24 bits
  162. Compression mode                         : Lossless
  163. Stream size                              : 3.18 GiB (4%)
  164. Title                                    : TrueHD 7.1 Atmos
  165. Language                                 : French
  166. Default                                  : No
  167. Forced                                   : No
  168. Original source medium                   : Blu-ray
  169. Number of dynamic objects                : 11
  170. Bed channel count                        : 1 channel
  171. Bed channel configuration                : LFE
  172. Audio #7
  173. ID                                       : 8
  174. ID in the original source medium         : 4355 (0x1103)
  175. Format                                   : AC-3
  176. Format/Info                              : Audio Coding 3
  177. Commercial name                          : Dolby Digital
  178. Format settings                          : Dolby Surround EX
  179. Codec ID                                 : A_AC3
  180. Duration                                 : 2 h 31 min
  181. Bit rate mode                            : Constant
  182. Bit rate                                 : 448 kb/s
  183. Channel(s)                               : 6 channels
  184. Channel layout                           : L R C LFE Ls Rs
  185. Sampling rate                            : 48.0 kHz
  186. Frame rate                               : 31.250 FPS (1536 SPF)
  187. Compression mode                         : Lossy
  188. Stream size                              : 484 MiB (1%)
  189. Title                                    : DD 5.1
  190. Language                                 : French
  191. Service kind                             : Complete Main
  192. Default                                  : No
  193. Forced                                   : No
  194. Original source medium                   : Blu-ray
  195. Audio #8
  196. ID                                       : 9
  197. ID in the original source medium         : 4356 (0x1104)
  198. Format                                   : AC-3
  199. Format/Info                              : Audio Coding 3
  200. Commercial name                          : Dolby Digital
  201. Codec ID                                 : A_AC3
  202. Duration                                 : 2 h 31 min
  203. Bit rate mode                            : Constant
  204. Bit rate                                 : 448 kb/s
  205. Channel(s)                               : 6 channels
  206. Channel layout                           : L R C LFE Ls Rs
  207. Sampling rate                            : 48.0 kHz
  208. Frame rate                               : 31.250 FPS (1536 SPF)
  209. Compression mode                         : Lossy
  210. Stream size                              : 484 MiB (1%)
  211. Title                                    : DD 5.1
  212. Language                                 : French
  213. Service kind                             : Complete Main
  214. Default                                  : No
  215. Forced                                   : No
  216. Original source medium                   : Blu-ray
  217. Audio #9
  218. ID                                       : 10
  219. ID in the original source medium         : 4357 (0x1105)
  220. Format                                   : AC-3
  221. Format/Info                              : Audio Coding 3
  222. Commercial name                          : Dolby Digital
  223. Codec ID                                 : A_AC3
  224. Duration                                 : 2 h 31 min
  225. Bit rate mode                            : Constant
  226. Bit rate                                 : 448 kb/s
  227. Channel(s)                               : 6 channels
  228. Channel layout                           : L R C LFE Ls Rs
  229. Sampling rate                            : 48.0 kHz
  230. Frame rate                               : 31.250 FPS (1536 SPF)
  231. Compression mode                         : Lossy
  232. Stream size                              : 484 MiB (1%)
  233. Title                                    : DD 5.1
  234. Language                                 : Spanish
  235. Service kind                             : Complete Main
  236. Default                                  : No
  237. Forced                                   : No
  238. Original source medium                   : Blu-ray
  239. Audio #10
  240. ID                                       : 11
  241. ID in the original source medium         : 4358 (0x1106)
  242. Format                                   : AC-3
  243. Format/Info                              : Audio Coding 3
  244. Commercial name                          : Dolby Digital
  245. Codec ID                                 : A_AC3
  246. Duration                                 : 2 h 31 min
  247. Bit rate mode                            : Constant
  248. Bit rate                                 : 448 kb/s
  249. Channel(s)                               : 6 channels
  250. Channel layout                           : L R C LFE Ls Rs
  251. Sampling rate                            : 48.0 kHz
  252. Frame rate                               : 31.250 FPS (1536 SPF)
  253. Compression mode                         : Lossy
  254. Stream size                              : 484 MiB (1%)
  255. Title                                    : DD 5.1
  256. Language                                 : Czech
  257. Service kind                             : Complete Main
  258. Default                                  : No
  259. Forced                                   : No
  260. Original source medium                   : Blu-ray
  261. Audio #11
  262. ID                                       : 12
  263. ID in the original source medium         : 4359 (0x1107)
  264. Format                                   : AC-3
  265. Format/Info                              : Audio Coding 3
  266. Commercial name                          : Dolby Digital
  267. Codec ID                                 : A_AC3
  268. Duration                                 : 2 h 31 min
  269. Bit rate mode                            : Constant
  270. Bit rate                                 : 448 kb/s
  271. Channel(s)                               : 6 channels
  272. Channel layout                           : L R C LFE Ls Rs
  273. Sampling rate                            : 48.0 kHz
  274. Frame rate                               : 31.250 FPS (1536 SPF)
  275. Compression mode                         : Lossy
  276. Stream size                              : 484 MiB (1%)
  277. Title                                    : DD 5.1
  278. Language                                 : Hindi
  279. Service kind                             : Complete Main
  280. Default                                  : No
  281. Forced                                   : No
  282. Original source medium                   : Blu-ray
  283. Audio #12
  284. ID                                       : 13
  285. ID in the original source medium         : 4360 (0x1108)
  286. Format                                   : AC-3
  287. Format/Info                              : Audio Coding 3
  288. Commercial name                          : Dolby Digital
  289. Codec ID                                 : A_AC3
  290. Duration                                 : 2 h 31 min
  291. Bit rate mode                            : Constant
  292. Bit rate                                 : 448 kb/s
  293. Channel(s)                               : 6 channels
  294. Channel layout                           : L R C LFE Ls Rs
  295. Sampling rate                            : 48.0 kHz
  296. Frame rate                               : 31.250 FPS (1536 SPF)
  297. Compression mode                         : Lossy
  298. Stream size                              : 484 MiB (1%)
  299. Title                                    : DD 5.1
  300. Language                                 : Hungarian
  301. Service kind                             : Complete Main
  302. Default                                  : No
  303. Forced                                   : No
  304. Original source medium                   : Blu-ray
  305. Audio #13
  306. ID                                       : 14
  307. ID in the original source medium         : 4361 (0x1109)
  308. Format                                   : AC-3
  309. Format/Info                              : Audio Coding 3
  310. Commercial name                          : Dolby Digital
  311. Codec ID                                 : A_AC3
  312. Duration                                 : 2 h 31 min
  313. Bit rate mode                            : Constant
  314. Bit rate                                 : 448 kb/s
  315. Channel(s)                               : 6 channels
  316. Channel layout                           : L R C LFE Ls Rs
  317. Sampling rate                            : 48.0 kHz
  318. Frame rate                               : 31.250 FPS (1536 SPF)
  319. Compression mode                         : Lossy
  320. Stream size                              : 484 MiB (1%)
  321. Title                                    : DD 5.1
  322. Language                                 : Polish
  323. Service kind                             : Complete Main
  324. Default                                  : No
  325. Forced                                   : No
  326. Original source medium                   : Blu-ray
  327. Audio #14
  328. ID                                       : 15
  329. ID in the original source medium         : 4362 (0x110A)
  330. Format                                   : AC-3
  331. Format/Info                              : Audio Coding 3
  332. Commercial name                          : Dolby Digital
  333. Codec ID                                 : A_AC3
  334. Duration                                 : 2 h 31 min
  335. Bit rate mode                            : Constant
  336. Bit rate                                 : 448 kb/s
  337. Channel(s)                               : 6 channels
  338. Channel layout                           : L R C LFE Ls Rs
  339. Sampling rate                            : 48.0 kHz
  340. Frame rate                               : 31.250 FPS (1536 SPF)
  341. Compression mode                         : Lossy
  342. Stream size                              : 484 MiB (1%)
  343. Title                                    : DD 5.1
  344. Language                                 : Tamil
  345. Service kind                             : Complete Main
  346. Default                                  : No
  347. Forced                                   : No
  348. Original source medium                   : Blu-ray
  349. Audio #15
  350. ID                                       : 16
  351. ID in the original source medium         : 4363 (0x110B)
  352. Format                                   : AC-3
  353. Format/Info                              : Audio Coding 3
  354. Commercial name                          : Dolby Digital
  355. Codec ID                                 : A_AC3
  356. Duration                                 : 2 h 31 min
  357. Bit rate mode                            : Constant
  358. Bit rate                                 : 448 kb/s
  359. Channel(s)                               : 6 channels
  360. Channel layout                           : L R C LFE Ls Rs
  361. Sampling rate                            : 48.0 kHz
  362. Frame rate                               : 31.250 FPS (1536 SPF)
  363. Compression mode                         : Lossy
  364. Stream size                              : 484 MiB (1%)
  365. Title                                    : DD 5.1
  366. Language                                 : Telugu
  367. Service kind                             : Complete Main
  368. Default                                  : No
  369. Forced                                   : No
  370. Original source medium                   : Blu-ray
  371. Audio #16
  372. ID                                       : 17
  373. ID in the original source medium         : 4364 (0x110C)
  374. Format                                   : AC-3
  375. Format/Info                              : Audio Coding 3
  376. Commercial name                          : Dolby Digital
  377. Codec ID                                 : A_AC3
  378. Duration                                 : 2 h 31 min
  379. Bit rate mode                            : Constant
  380. Bit rate                                 : 448 kb/s
  381. Channel(s)                               : 6 channels
  382. Channel layout                           : L R C LFE Ls Rs
  383. Sampling rate                            : 48.0 kHz
  384. Frame rate                               : 31.250 FPS (1536 SPF)
  385. Compression mode                         : Lossy
  386. Stream size                              : 484 MiB (1%)
  387. Title                                    : DD 5.1
  388. Language                                 : Thai
  389. Service kind                             : Complete Main
  390. Default                                  : No
  391. Forced                                   : No
  392. Original source medium                   : Blu-ray
  393. Text #1
  394. ID                                       : 18
  395. Format                                   : UTF-8
  396. Codec ID                                 : S_TEXT/UTF8
  397. Codec ID/Info                            : UTF-8 Plain Text
  398. Duration                                 : 2 h 26 min
  399. Bit rate                                 : 45 b/s
  400. Frame rate                               : 0.209 FPS
  401. Count of elements                        : 1839
  402. Stream size                              : 48.9 KiB (0%)
  403. Language                                 : English
  404. Default                                  : Yes
  405. Forced                                   : No
  406. Text #2
  407. ID                                       : 19
  408. Format                                   : UTF-8
  409. Codec ID                                 : S_TEXT/UTF8
  410. Codec ID/Info                            : UTF-8 Plain Text
  411. Duration                                 : 2 h 26 min
  412. Bit rate                                 : 54 b/s
  413. Frame rate                               : 0.244 FPS
  414. Count of elements                        : 2152
  415. Stream size                              : 58.3 KiB (0%)
  416. Title                                    : SDH
  417. Language                                 : English
  418. Default                                  : No
  419. Forced                                   : No
  420. Text #3
  421. ID                                       : 20
  422. ID in the original source medium         : 4768 (0x12A0)
  423. Format                                   : PGS
  424. Muxing mode                              : zlib
  425. Codec ID                                 : S_HDMV/PGS
  426. Codec ID/Info                            : Picture based subtitle format used on BDs/HD-DVDs
  427. Duration                                 : 2 h 26 min
  428. Bit rate                                 : 33.4 kb/s
  429. Frame rate                               : 0.494 FPS
  430. Count of elements                        : 4360
  431. Stream size                              : 35.1 MiB (0%)
  432. Language                                 : English
  433. Default                                  : No
  434. Forced                                   : No
  435. Original source medium                   : Blu-ray
  436. Text #4
  437. ID                                       : 21
  438. ID in the original source medium         : 4769 (0x12A1)
  439. Format                                   : PGS
  440. Muxing mode                              : zlib
  441. Codec ID                                 : S_HDMV/PGS
  442. Codec ID/Info                            : Picture based subtitle format used on BDs/HD-DVDs
  443. Duration                                 : 2 h 30 min
  444. Bit rate                                 : 22.6 kb/s
  445. Frame rate                               : 0.374 FPS
  446. Count of elements                        : 3380
  447. Stream size                              : 24.3 MiB (0%)
  448. Language                                 : French
  449. Default                                  : No
  450. Forced                                   : No
  451. Original source medium                   : Blu-ray
  452. Text #5
  453. ID                                       : 22
  454. ID in the original source medium         : 4770 (0x12A2)
  455. Format                                   : PGS
  456. Muxing mode                              : zlib
  457. Codec ID                                 : S_HDMV/PGS
  458. Codec ID/Info                            : Picture based subtitle format used on BDs/HD-DVDs
  459. Duration                                 : 2 h 30 min
  460. Bit rate                                 : 26.2 kb/s
  461. Frame rate                               : 0.408 FPS
  462. Count of elements                        : 3682
  463. Stream size                              : 28.2 MiB (0%)
  464. Language                                 : Spanish
  465. Default                                  : No
  466. Forced                                   : No
  467. Original source medium                   : Blu-ray
  468. Text #6
  469. ID                                       : 23
  470. ID in the original source medium         : 4771 (0x12A3)
  471. Format                                   : PGS
  472. Muxing mode                              : zlib
  473. Codec ID                                 : S_HDMV/PGS
  474. Codec ID/Info                            : Picture based subtitle format used on BDs/HD-DVDs
  475. Duration                                 : 2 h 30 min
  476. Bit rate                                 : 22.4 kb/s
  477. Frame rate                               : 0.279 FPS
  478. Count of elements                        : 2520
  479. Stream size                              : 24.1 MiB (0%)
  480. Language                                 : Dutch
  481. Default                                  : No
  482. Forced                                   : No
  483. Original source medium                   : Blu-ray
  484. Text #7
  485. ID                                       : 24
  486. ID in the original source medium         : 4772 (0x12A4)
  487. Format                                   : PGS
  488. Muxing mode                              : zlib
  489. Codec ID                                 : S_HDMV/PGS
  490. Codec ID/Info                            : Picture based subtitle format used on BDs/HD-DVDs
  491. Duration                                 : 2 h 26 min
  492. Bit rate                                 : 26.4 kb/s
  493. Frame rate                               : 0.369 FPS
  494. Count of elements                        : 3252
  495. Stream size                              : 27.7 MiB (0%)
  496. Language                                 : Chinese
  497. Default                                  : No
  498. Forced                                   : No
  499. Original source medium                   : Blu-ray
  500. Text #8
  501. ID                                       : 25
  502. ID in the original source medium         : 4773 (0x12A5)
  503. Format                                   : PGS
  504. Muxing mode                              : zlib
  505. Codec ID                                 : S_HDMV/PGS
  506. Codec ID/Info                            : Picture based subtitle format used on BDs/HD-DVDs
  507. Duration                                 : 2 h 30 min
  508. Bit rate                                 : 28.8 kb/s
  509. Frame rate                               : 0.406 FPS
  510. Count of elements                        : 3666
  511. Stream size                              : 31.0 MiB (0%)
  512. Language                                 : Chinese
  513. Default                                  : No
  514. Forced                                   : No
  515. Original source medium                   : Blu-ray
  516. Text #9
  517. ID                                       : 26
  518. ID in the original source medium         : 4774 (0x12A6)
  519. Format                                   : PGS
  520. Muxing mode                              : zlib
  521. Codec ID                                 : S_HDMV/PGS
  522. Codec ID/Info                            : Picture based subtitle format used on BDs/HD-DVDs
  523. Duration                                 : 2 h 30 min
  524. Bit rate                                 : 24.7 kb/s
  525. Frame rate                               : 0.411 FPS
  526. Count of elements                        : 3714
  527. Stream size                              : 26.6 MiB (0%)
  528. Language                                 : Chinese
  529. Default                                  : No
  530. Forced                                   : No
  531. Original source medium                   : Blu-ray
  532. Text #10
  533. ID                                       : 27
  534. ID in the original source medium         : 4775 (0x12A7)
  535. Format                                   : PGS
  536. Muxing mode                              : zlib
  537. Codec ID                                 : S_HDMV/PGS
  538. Codec ID/Info                            : Picture based subtitle format used on BDs/HD-DVDs
  539. Duration                                 : 2 h 30 min
  540. Bit rate                                 : 16.6 kb/s
  541. Frame rate                               : 0.404 FPS
  542. Count of elements                        : 3648
  543. Stream size                              : 17.8 MiB (0%)
  544. Language                                 : Korean
  545. Default                                  : No
  546. Forced                                   : No
  547. Original source medium                   : Blu-ray
  548. Text #11
  549. ID                                       : 28
  550. ID in the original source medium         : 4776 (0x12A8)
  551. Format                                   : PGS
  552. Muxing mode                              : zlib
  553. Codec ID                                 : S_HDMV/PGS
  554. Codec ID/Info                            : Picture based subtitle format used on BDs/HD-DVDs
  555. Duration                                 : 2 h 30 min
  556. Bit rate                                 : 24.2 kb/s
  557. Frame rate                               : 0.405 FPS
  558. Count of elements                        : 3656
  559. Stream size                              : 26.1 MiB (0%)
  560. Language                                 : Czech
  561. Default                                  : No
  562. Forced                                   : No
  563. Original source medium                   : Blu-ray
  564. Text #12
  565. ID                                       : 29
  566. ID in the original source medium         : 4777 (0x12A9)
  567. Format                                   : PGS
  568. Muxing mode                              : zlib
  569. Codec ID                                 : S_HDMV/PGS
  570. Codec ID/Info                            : Picture based subtitle format used on BDs/HD-DVDs
  571. Duration                                 : 2 h 30 min
  572. Bit rate                                 : 22.4 kb/s
  573. Frame rate                               : 0.272 FPS
  574. Count of elements                        : 2452
  575. Stream size                              : 24.1 MiB (0%)
  576. Language                                 : Danish
  577. Default                                  : No
  578. Forced                                   : No
  579. Original source medium                   : Blu-ray
  580. Text #13
  581. ID                                       : 30
  582. ID in the original source medium         : 4778 (0x12AA)
  583. Format                                   : PGS
  584. Muxing mode                              : zlib
  585. Codec ID                                 : S_HDMV/PGS
  586. Codec ID/Info                            : Picture based subtitle format used on BDs/HD-DVDs
  587. Duration                                 : 2 h 30 min
  588. Bit rate                                 : 25.6 kb/s
  589. Frame rate                               : 0.408 FPS
  590. Count of elements                        : 3684
  591. Stream size                              : 27.6 MiB (0%)
  592. Language                                 : Finnish
  593. Default                                  : No
  594. Forced                                   : No
  595. Original source medium                   : Blu-ray
  596. Text #14
  597. ID                                       : 31
  598. ID in the original source medium         : 4779 (0x12AB)
  599. Format                                   : PGS
  600. Muxing mode                              : zlib
  601. Codec ID                                 : S_HDMV/PGS
  602. Codec ID/Info                            : Picture based subtitle format used on BDs/HD-DVDs
  603. Duration                                 : 2 h 30 min
  604. Bit rate                                 : 26.5 kb/s
  605. Frame rate                               : 0.408 FPS
  606. Count of elements                        : 3688
  607. Stream size                              : 28.6 MiB (0%)
  608. Language                                 : Hungarian
  609. Default                                  : No
  610. Forced                                   : No
  611. Original source medium                   : Blu-ray
  612. Text #15
  613. ID                                       : 32
  614. ID in the original source medium         : 4780 (0x12AC)
  615. Format                                   : PGS
  616. Muxing mode                              : zlib
  617. Codec ID                                 : S_HDMV/PGS
  618. Codec ID/Info                            : Picture based subtitle format used on BDs/HD-DVDs
  619. Duration                                 : 2 h 30 min
  620. Bit rate                                 : 24.0 kb/s
  621. Frame rate                               : 0.322 FPS
  622. Count of elements                        : 2906
  623. Stream size                              : 25.9 MiB (0%)
  624. Language                                 : Norwegian
  625. Default                                  : No
  626. Forced                                   : No
  627. Original source medium                   : Blu-ray
  628. Text #16
  629. ID                                       : 33
  630. ID in the original source medium         : 4781 (0x12AD)
  631. Format                                   : PGS
  632. Muxing mode                              : zlib
  633. Codec ID                                 : S_HDMV/PGS
  634. Codec ID/Info                            : Picture based subtitle format used on BDs/HD-DVDs
  635. Duration                                 : 2 h 30 min
  636. Bit rate                                 : 23.5 kb/s
  637. Frame rate                               : 0.406 FPS
  638. Count of elements                        : 3670
  639. Stream size                              : 25.3 MiB (0%)
  640. Language                                 : Polish
  641. Default                                  : No
  642. Forced                                   : No
  643. Original source medium                   : Blu-ray
  644. Text #17
  645. ID                                       : 34
  646. ID in the original source medium         : 4782 (0x12AE)
  647. Format                                   : PGS
  648. Muxing mode                              : zlib
  649. Codec ID                                 : S_HDMV/PGS
  650. Codec ID/Info                            : Picture based subtitle format used on BDs/HD-DVDs
  651. Duration                                 : 2 h 30 min
  652. Bit rate                                 : 26.1 kb/s
  653. Frame rate                               : 0.404 FPS
  654. Count of elements                        : 3650
  655. Stream size                              : 28.1 MiB (0%)
  656. Language                                 : Portuguese
  657. Default                                  : No
  658. Forced                                   : No
  659. Original source medium                   : Blu-ray
  660. Text #18
  661. ID                                       : 35
  662. ID in the original source medium         : 4783 (0x12AF)
  663. Format                                   : PGS
  664. Muxing mode                              : zlib
  665. Codec ID                                 : S_HDMV/PGS
  666. Codec ID/Info                            : Picture based subtitle format used on BDs/HD-DVDs
  667. Duration                                 : 2 h 30 min
  668. Bit rate                                 : 25.0 kb/s
  669. Frame rate                               : 0.402 FPS
  670. Count of elements                        : 3634
  671. Stream size                              : 26.9 MiB (0%)
  672. Language                                 : Romanian
  673. Default                                  : No
  674. Forced                                   : No
  675. Original source medium                   : Blu-ray
  676. Text #19
  677. ID                                       : 36
  678. ID in the original source medium         : 4784 (0x12B0)
  679. Format                                   : PGS
  680. Muxing mode                              : zlib
  681. Codec ID                                 : S_HDMV/PGS
  682. Codec ID/Info                            : Picture based subtitle format used on BDs/HD-DVDs
  683. Duration                                 : 2 h 30 min
  684. Bit rate                                 : 23.7 kb/s
  685. Frame rate                               : 0.317 FPS
  686. Count of elements                        : 2860
  687. Stream size                              : 25.5 MiB (0%)
  688. Language                                 : Swedish
  689. Default                                  : No
  690. Forced                                   : No
  691. Original source medium                   : Blu-ray
  692. Text #20
  693. ID                                       : 37
  694. ID in the original source medium         : 4785 (0x12B1)
  695. Format                                   : PGS
  696. Muxing mode                              : zlib
  697. Codec ID                                 : S_HDMV/PGS
  698. Codec ID/Info                            : Picture based subtitle format used on BDs/HD-DVDs
  699. Duration                                 : 2 h 30 min
  700. Bit rate                                 : 26.1 kb/s
  701. Frame rate                               : 0.411 FPS
  702. Count of elements                        : 3716
  703. Stream size                              : 28.1 MiB (0%)
  704. Language                                 : Thai
  705. Default                                  : No
  706. Forced                                   : No
  707. Original source medium                   : Blu-ray
  708. Text #21
  709. ID                                       : 38
  710. ID in the original source medium         : 4786 (0x12B2)
  711. Format                                   : PGS
  712. Muxing mode                              : zlib
  713. Codec ID                                 : S_HDMV/PGS
  714. Codec ID/Info                            : Picture based subtitle format used on BDs/HD-DVDs
  715. Duration                                 : 1 h 59 min
  716. Bit rate                                 : 268 b/s
  717. Frame rate                               : 0.004 FPS
  718. Count of elements                        : 32
  719. Stream size                              : 236 KiB (0%)
  720. Language                                 : French
  721. Default                                  : No
  722. Forced                                   : No
  723. Original source medium                   : Blu-ray
  724. Text #22
  725. ID                                       : 39
  726. ID in the original source medium         : 4787 (0x12B3)
  727. Format                                   : PGS
  728. Muxing mode                              : zlib
  729. Codec ID                                 : S_HDMV/PGS
  730. Codec ID/Info                            : Picture based subtitle format used on BDs/HD-DVDs
  731. Duration                                 : 2 h 14 min
  732. Bit rate                                 : 516 b/s
  733. Frame rate                               : 0.006 FPS
  734. Count of elements                        : 50
  735. Stream size                              : 508 KiB (0%)
  736. Language                                 : Spanish
  737. Default                                  : No
  738. Forced                                   : No
  739. Original source medium                   : Blu-ray
  740. Text #23
  741. ID                                       : 40
  742. ID in the original source medium         : 4788 (0x12B4)
  743. Format                                   : PGS
  744. Muxing mode                              : zlib
  745. Codec ID                                 : S_HDMV/PGS
  746. Codec ID/Info                            : Picture based subtitle format used on BDs/HD-DVDs
  747. Duration                                 : 2 h 15 min
  748. Bit rate                                 : 378 b/s
  749. Frame rate                               : 0.008 FPS
  750. Count of elements                        : 64
  751. Stream size                              : 376 KiB (0%)
  752. Language                                 : Hindi
  753. Default                                  : No
  754. Forced                                   : No
  755. Original source medium                   : Blu-ray
  756. Text #24
  757. ID                                       : 41
  758. ID in the original source medium         : 4789 (0x12B5)
  759. Format                                   : PGS
  760. Muxing mode                              : zlib
  761. Codec ID                                 : S_HDMV/PGS
  762. Codec ID/Info                            : Picture based subtitle format used on BDs/HD-DVDs
  763. Duration                                 : 2 h 15 min
  764. Bit rate                                 : 459 b/s
  765. Frame rate                               : 0.007 FPS
  766. Count of elements                        : 56
  767. Stream size                              : 457 KiB (0%)
  768. Language                                 : Polish
  769. Default                                  : No
  770. Forced                                   : No
  771. Original source medium                   : Blu-ray
  772. Text #25
  773. ID                                       : 42
  774. ID in the original source medium         : 4790 (0x12B6)
  775. Format                                   : PGS
  776. Muxing mode                              : zlib
  777. Codec ID                                 : S_HDMV/PGS
  778. Codec ID/Info                            : Picture based subtitle format used on BDs/HD-DVDs
  779. Duration                                 : 1 h 59 min
  780. Bit rate                                 : 504 b/s
  781. Frame rate                               : 0.006 FPS
  782. Count of elements                        : 44
  783. Stream size                              : 443 KiB (0%)
  784. Language                                 : Tamil
  785. Default                                  : No
  786. Forced                                   : No
  787. Original source medium                   : Blu-ray
  788. Text #26
  789. ID                                       : 43
  790. ID in the original source medium         : 4791 (0x12B7)
  791. Format                                   : PGS
  792. Muxing mode                              : zlib
  793. Codec ID                                 : S_HDMV/PGS
  794. Codec ID/Info                            : Picture based subtitle format used on BDs/HD-DVDs
  795. Duration                                 : 1 h 59 min
  796. Bit rate                                 : 378 b/s
  797. Frame rate                               : 0.006 FPS
  798. Count of elements                        : 44
  799. Stream size                              : 333 KiB (0%)
  800. Language                                 : Telugu
  801. Default                                  : No
  802. Forced                                   : No
  803. Original source medium                   : Blu-ray
  804. Text #27
  805. ID                                       : 44
  806. ID in the original source medium         : 4792 (0x12B8)
  807. Format                                   : PGS
  808. Muxing mode                              : zlib
  809. Codec ID                                 : S_HDMV/PGS
  810. Codec ID/Info                            : Picture based subtitle format used on BDs/HD-DVDs
  811. Duration                                 : 2 h 15 min
  812. Bit rate                                 : 445 b/s
  813. Frame rate                               : 0.007 FPS
  814. Count of elements                        : 54
  815. Stream size                              : 443 KiB (0%)
  816. Language                                 : Thai
  817. Default                                  : No
  818. Forced                                   : No
  819. Original source medium                   : Blu-ray
  820. Text #28
  821. ID                                       : 45
  822. ID in the original source medium         : 4795 (0x12BB)
  823. Format                                   : PGS
  824. Muxing mode                              : zlib
  825. Codec ID                                 : S_HDMV/PGS
  826. Codec ID/Info                            : Picture based subtitle format used on BDs/HD-DVDs
  827. Duration                                 : 2 h 5 min
  828. Bit rate                                 : 447 b/s
  829. Frame rate                               : 0.007 FPS
  830. Count of elements                        : 52
  831. Stream size                              : 413 KiB (0%)
  832. Language                                 : Czech
  833. Default                                  : No
  834. Forced                                   : No
  835. Original source medium                   : Blu-ray
  836. Text #29
  837. ID                                       : 46
  838. ID in the original source medium         : 4796 (0x12BC)
  839. Format                                   : PGS
  840. Muxing mode                              : zlib
  841. Codec ID                                 : S_HDMV/PGS
  842. Codec ID/Info                            : Picture based subtitle format used on BDs/HD-DVDs
  843. Duration                                 : 2 h 15 min
  844. Bit rate                                 : 402 b/s
  845. Frame rate                               : 0.006 FPS
  846. Count of elements                        : 48
  847. Stream size                              : 400 KiB (0%)
  848. Language                                 : Hungarian
  849. Default                                  : No
  850. Forced                                   : No
  851. Original source medium                   : Blu-ray
  852. Menu
  853. 00:00:00.000                             : en:Chapter 01
  854. 00:03:16.988                             : en:Chapter 02
  855. 00:11:18.302                             : en:Chapter 03
  856. 00:19:52.733                             : en:Chapter 04
  857. 00:29:10.707                             : en:Chapter 05
  858. 00:35:24.455                             : en:Chapter 06
  859. 00:41:06.714                             : en:Chapter 07
  860. 00:50:23.937                             : en:Chapter 08
  861. 00:57:08.133                             : en:Chapter 09
  862. 01:06:54.010                             : en:Chapter 10
  863. 01:16:48.812                             : en:Chapter 11
  864. 01:20:00.962                             : en:Chapter 12
  865. 01:28:58.207                             : en:Chapter 13
  866. 01:37:30.970                             : en:Chapter 14
  867. 01:46:59.955                             : en:Chapter 15
  868. 01:54:54.429                             : en:Chapter 16
  869. 02:00:30.848                             : en:Chapter 17
  870. 02:05:28.687                             : en:Chapter 18
  871. 02:11:21.498                             : en:Chapter 19
  872. 02:20:21.454                             : en:Chapter 20
  873. 02:25:35.184                             : en:Chapter 21
复制代码




                                       
                                       

                                       
                                       
                                       




神奇女侠1984 Wonder.Woman.1984.2020.PROPER.IMAX.2160p.BluRay.REMUX.HEVC.DTS-HD.MA.TrueHD.7.1.Atmos-FGT 76.92GB

Wonder.Woman.1984.2020.PROPER.IMAX.2160p.BluRay.REMUX.HEVC.DTS-HD.MA.TrueHD.7.1..torrent

96.84 KB, 下载次数: 1, 下载积分: 蓝光币 -2

回复

使用道具 举报

您需要登录后才可以回帖 登录 | 立即注册

本版积分规则

QQ|Archiver|手机版|小黑屋|蓝光电影网

GMT+8, 2023-2-8 02:35 , Processed in 0.060065 second(s), 28 queries .

Powered by Discuz! X3.4

Copyright © 2001-2020, Tencent Cloud.

快速回复 返回顶部 返回列表