找回密码
 立即注册

QQ登录

只需一步,快速开始

查看: 102|回复: 0

[UHD.HEVC] X特遣队:全员集结 The.Suicide.Squad.2021.PROPER.2160p.BluRay.REMUX.HEVC.DTS-HD.MA.TrueHD.7.1.Atmos-FGT 76.94GB

[复制链接]

0

精华

0

好友

2

听众

新手上路

Rank: 2

蓝光币
5
发表于 2022-12-20 07:56:02 | 显示全部楼层 |阅读模式
[img][/img]

◎标  题 X特遣队:全员集结
◎译  名 新自杀小队 / 自杀特攻(港) / 自杀突击队集结(台) / 自杀小队2 / X特遣队2 / 自杀突击队2 / Suicide Squad 2
◎片  名 The Suicide Squad
◎年  代 2021
◎产  地 美国 / 加拿大 / 英国
◎类  别 喜剧 / 动作 / 科幻 / 冒险
◎语  言 英语 / 西班牙语
◎上映日期 2021-07-28(法国) / 2021-08-06(美国)
◎IMDb评分 7.3/10 (260169人评价)
◎IMDb链接 https://www.imdb.com/title/tt6334354/
◎豆瓣评分 8.0/10 (180411人评价)
◎豆瓣链接 https://movie.douban.com/subject/26741632/
◎片  长 132分钟
◎导  演 詹姆斯·古恩 James Gunn
◎编  剧 詹姆斯·古恩 James Gunn
◎演  员 玛格特·罗比 Margot Robbie
       伊德里斯·艾尔巴 Idris Elba
       约翰·塞纳 John Cena
       乔尔·金纳曼 Joel Kinnaman
       西尔维斯特·史泰龙 Sylvester Stallone
       维奥拉·戴维斯 Viola Davis
       大卫·达斯马齐连 David Dastmalchian
       迈克尔·鲁克 Michael Rooker
       杰·科特尼 Jai Courtney
       彼得·卡帕尔迪 Peter Capaldi
       艾莉丝·布拉加 Alice Braga
       皮特·戴维森 Pete Davidson
       华金·科西奥 Joaquín Cosio
       胡安·迭戈·博托 Juan Diego Botto
       斯托姆·瑞德 Storm Reid
       内森·菲利安 Nathan Fillion
       塔伊加·维迪提 Taika Waititi
       史蒂夫·阿吉 Steve Agee
       肖恩·古恩 Sean Gunn
       弗卢拉·博格 Flula Borg
       约翰·奥斯特兰德 John Ostrander
       黄美玲 Mayling Ng
       丹妮拉·曼希沃 Daniela Melchior
       史蒂芬·布莱克哈特 Stephen Blackehart
       詹尼佛·霍兰德 Jennifer Holland
       迪·布拉雷·贝克尔 Dee Bradley Baker
       雷·埃尔南德斯 Rey Hernandez
       雷纳尔多·法伯勒 Reinaldo Faberlle
       乔希·文图拉 Josh Ventura
       Gerardo Davila Gerardo Davila
       米凯拉·霍沃 Mikaela Hoover
       林恩·阿什 Lynne Ashe
       安德里娅·安德拉德 Andrea Andrade
       兰德尔·P·海文斯 Randall P. Havens
       迈克尔·艾伦·米利甘 Michael Aaron Milligan
       特伦斯·罗斯摩尔 Terence Rosemore
       娜塔莉·萨福兰 Natalia Safran
       詹姆斯·威廉·巴拉德 James William Ballard
       蒂莫西·卡尔 Timothy Carr
       玛丽索尔·科雷亚 Marisol Correa
       约翰·盖蒂尔 John Gettier
       麦克斯威尔·海史密斯 Maxwell Highsmith
       洛伊德·考夫曼 Lloyd Kaufman
       迪索·拉莫斯 Diezel Ramos
       弗雷迪·史卓玛 Freddie Stroma
       维多利亚·佩吉·沃特金斯 Victoria Paige Watkins
       扎克·施奈德 Zack Snyder
       黛博拉·施奈德 Deborah Snyder
       迈克·德·鲁卡 Michael De Luca
       彼得·萨夫兰 Peter Safran
       约翰·墨菲 John Murphy
       贝丝·米克尔 Beth Mickle
◎标  签 DC / 科幻 / 美国 / 漫画改编 / 动作 / 犯罪 / 喜剧 / 2021
◎简  介

  关押在美梦监狱的X特遣队成员获得一项可以减轻刑罚的新任务,前往南美洲的科托马耳他岛国,摧毁纳粹时期遗留的约顿海姆监狱和实验室,它当前用于关押该国的政治犯并施行人体实验。执行任务期间,X特遣队遭遇巨型外星生物海星斯塔罗,并与它发生冲突。
  1. Video
  2. ID                                       : 1
  3. ID in the original source medium         : 4113 (0x1011)
  4. Format                                   : HEVC
  5. Format/Info                              : High Efficiency Video Coding
  6. Format profile                           : Main [email protected]@High
  7. HDR format                               : Dolby Vision, Version 1.0, dvhe.07.06, BL+EL+RPU, Blu-ray compatible / SMPTE ST 2094 App 4, Version 1, HDR10+ Profile B compatible
  8. Codec ID                                 : V_MPEGH/ISO/HEVC
  9. Duration                                 : 2 h 12 min
  10. Bit rate                                 : 65.2 Mb/s
  11. Width                                    : 3 840 pixels
  12. Height                                   : 2 160 pixels
  13. Display aspect ratio                     : 16:9
  14. Frame rate mode                          : Constant
  15. Frame rate                               : 23.976 (24000/1001/189150) FPS
  16. Color space                              : YUV
  17. Chroma subsampling                       : 4:2:0 (Type 2)
  18. Bit depth                                : 10 bits
  19. Bits/(Pixel*Frame)                       : 0.328
  20. Stream size                              : 60.2 GiB (78%)
  21. Language                                 : English
  22. Default                                  : No
  23. Forced                                   : No
  24. Color range                              : Limited
  25. Color primaries                          : BT.2020
  26. Transfer characteristics                 : PQ
  27. Matrix coefficients                      : BT.2020 non-constant
  28. Mastering display color primaries        : Display P3
  29. Mastering display luminance              : min: 0.0001 cd/m2, max: 1000 cd/m2
  30. Maximum Content Light Level              : 571 cd/m2
  31. Maximum Frame-Average Light Level        : 257 cd/m2
  32. Original source medium                   : Blu-ray
  33. Audio #1
  34. ID                                       : 2
  35. ID in the original source medium         : 4352 (0x1100)
  36. Format                                   : MLP FBA 16-ch
  37. Format/Info                              : Meridian Lossless Packing FBA with 16-channel presentation
  38. Commercial name                          : Dolby TrueHD with Dolby Atmos
  39. Codec ID                                 : A_TRUEHD
  40. Duration                                 : 2 h 12 min
  41. Bit rate mode                            : Variable
  42. Bit rate                                 : 3 455 kb/s
  43. Maximum bit rate                         : 5 478 kb/s
  44. Channel(s)                               : 8 channels
  45. Channel layout                           : L R C LFE Ls Rs Lb Rb
  46. Sampling rate                            : 48.0 kHz
  47. Frame rate                               : 1 200.000 FPS (40 SPF)
  48. Bit depth                                : 24 bits
  49. Compression mode                         : Lossless
  50. Stream size                              : 3.19 GiB (4%)
  51. Title                                    : TrueHD 7.1 Atmos
  52. Language                                 : English
  53. Default                                  : Yes
  54. Forced                                   : No
  55. Original source medium                   : Blu-ray
  56. Number of dynamic objects                : 11
  57. Bed channel count                        : 1 channel
  58. Bed channel configuration                : LFE
  59. Audio #2
  60. ID                                       : 3
  61. Format                                   : DTS XLL
  62. Format/Info                              : Digital Theater Systems
  63. Commercial name                          : DTS-HD Master Audio
  64. Codec ID                                 : A_DTS
  65. Duration                                 : 2 h 12 min
  66. Bit rate mode                            : Variable
  67. Bit rate                                 : 4 481 kb/s
  68. Channel(s)                               : 8 channels
  69. Channel layout                           : C L R LFE Lb Rb Lss Rss
  70. Sampling rate                            : 48.0 kHz
  71. Frame rate                               : 93.750 FPS (512 SPF)
  72. Bit depth                                : 24 bits
  73. Compression mode                         : Lossless
  74. Stream size                              : 4.14 GiB (5%)
  75. Title                                    : DTS-HD MA 7.1
  76. Language                                 : English
  77. Default                                  : No
  78. Forced                                   : No
  79. Audio #3
  80. ID                                       : 4
  81. ID in the original source medium         : 4352 (0x1100)
  82. Format                                   : AC-3
  83. Format/Info                              : Audio Coding 3
  84. Commercial name                          : Dolby Digital
  85. Format settings                          : Dolby Surround EX
  86. Codec ID                                 : A_AC3
  87. Duration                                 : 2 h 12 min
  88. Bit rate mode                            : Constant
  89. Bit rate                                 : 448 kb/s
  90. Channel(s)                               : 6 channels
  91. Channel layout                           : L R C LFE Ls Rs
  92. Sampling rate                            : 48.0 kHz
  93. Frame rate                               : 31.250 FPS (1536 SPF)
  94. Compression mode                         : Lossy
  95. Stream size                              : 423 MiB (0%)
  96. Title                                    : DD 5.1
  97. Language                                 : English
  98. Service kind                             : Complete Main
  99. Default                                  : No
  100. Forced                                   : No
  101. Original source medium                   : Blu-ray
  102. Audio #4
  103. ID                                       : 5
  104. ID in the original source medium         : 4353 (0x1101)
  105. Format                                   : AC-3
  106. Format/Info                              : Audio Coding 3
  107. Commercial name                          : Dolby Digital
  108. Codec ID                                 : A_AC3
  109. Duration                                 : 2 h 12 min
  110. Bit rate mode                            : Constant
  111. Bit rate                                 : 448 kb/s
  112. Channel(s)                               : 6 channels
  113. Channel layout                           : L R C LFE Ls Rs
  114. Sampling rate                            : 48.0 kHz
  115. Frame rate                               : 31.250 FPS (1536 SPF)
  116. Compression mode                         : Lossy
  117. Stream size                              : 423 MiB (0%)
  118. Title                                    : DD 5.1
  119. Language                                 : English
  120. Service kind                             : Complete Main
  121. Default                                  : No
  122. Forced                                   : No
  123. Original source medium                   : Blu-ray
  124. Audio #5
  125. ID                                       : 6
  126. ID in the original source medium         : 4354 (0x1102)
  127. Format                                   : AC-3
  128. Format/Info                              : Audio Coding 3
  129. Commercial name                          : Dolby Digital
  130. Codec ID                                 : A_AC3
  131. Duration                                 : 2 h 12 min
  132. Bit rate mode                            : Constant
  133. Bit rate                                 : 448 kb/s
  134. Channel(s)                               : 6 channels
  135. Channel layout                           : L R C LFE Ls Rs
  136. Sampling rate                            : 48.0 kHz
  137. Frame rate                               : 31.250 FPS (1536 SPF)
  138. Compression mode                         : Lossy
  139. Stream size                              : 423 MiB (0%)
  140. Title                                    : DD 5.1
  141. Language                                 : English
  142. Service kind                             : Complete Main
  143. Default                                  : No
  144. Forced                                   : No
  145. Original source medium                   : Blu-ray
  146. Audio #6
  147. ID                                       : 7
  148. ID in the original source medium         : 4355 (0x1103)
  149. Format                                   : AC-3
  150. Format/Info                              : Audio Coding 3
  151. Commercial name                          : Dolby Digital
  152. Codec ID                                 : A_AC3
  153. Duration                                 : 2 h 12 min
  154. Bit rate mode                            : Constant
  155. Bit rate                                 : 448 kb/s
  156. Channel(s)                               : 6 channels
  157. Channel layout                           : L R C LFE Ls Rs
  158. Sampling rate                            : 48.0 kHz
  159. Frame rate                               : 31.250 FPS (1536 SPF)
  160. Compression mode                         : Lossy
  161. Stream size                              : 423 MiB (0%)
  162. Title                                    : DD 5.1
  163. Language                                 : English
  164. Service kind                             : Complete Main
  165. Default                                  : No
  166. Forced                                   : No
  167. Original source medium                   : Blu-ray
  168. Audio #7
  169. ID                                       : 8
  170. ID in the original source medium         : 4356 (0x1104)
  171. Format                                   : AC-3
  172. Format/Info                              : Audio Coding 3
  173. Commercial name                          : Dolby Digital
  174. Codec ID                                 : A_AC3
  175. Duration                                 : 2 h 12 min
  176. Bit rate mode                            : Constant
  177. Bit rate                                 : 448 kb/s
  178. Channel(s)                               : 6 channels
  179. Channel layout                           : L R C LFE Ls Rs
  180. Sampling rate                            : 48.0 kHz
  181. Frame rate                               : 31.250 FPS (1536 SPF)
  182. Compression mode                         : Lossy
  183. Stream size                              : 423 MiB (0%)
  184. Title                                    : DD 5.1
  185. Language                                 : French
  186. Service kind                             : Complete Main
  187. Default                                  : No
  188. Forced                                   : No
  189. Original source medium                   : Blu-ray
  190. Audio #8
  191. ID                                       : 9
  192. ID in the original source medium         : 4357 (0x1105)
  193. Format                                   : MLP FBA 16-ch
  194. Format/Info                              : Meridian Lossless Packing FBA with 16-channel presentation
  195. Commercial name                          : Dolby TrueHD with Dolby Atmos
  196. Codec ID                                 : A_TRUEHD
  197. Duration                                 : 2 h 12 min
  198. Bit rate mode                            : Variable
  199. Bit rate                                 : 3 529 kb/s
  200. Maximum bit rate                         : 5 598 kb/s
  201. Channel(s)                               : 8 channels
  202. Channel layout                           : L R C LFE Ls Rs Lb Rb
  203. Sampling rate                            : 48.0 kHz
  204. Frame rate                               : 1 200.000 FPS (40 SPF)
  205. Bit depth                                : 24 bits
  206. Compression mode                         : Lossless
  207. Stream size                              : 3.26 GiB (4%)
  208. Title                                    : TrueHD 7.1 Atmos
  209. Language                                 : Italian
  210. Default                                  : No
  211. Forced                                   : No
  212. Original source medium                   : Blu-ray
  213. Number of dynamic objects                : 11
  214. Bed channel count                        : 1 channel
  215. Bed channel configuration                : LFE
  216. Audio #9
  217. ID                                       : 10
  218. ID in the original source medium         : 4357 (0x1105)
  219. Format                                   : AC-3
  220. Format/Info                              : Audio Coding 3
  221. Commercial name                          : Dolby Digital
  222. Format settings                          : Dolby Surround EX
  223. Codec ID                                 : A_AC3
  224. Duration                                 : 2 h 12 min
  225. Bit rate mode                            : Constant
  226. Bit rate                                 : 448 kb/s
  227. Channel(s)                               : 6 channels
  228. Channel layout                           : L R C LFE Ls Rs
  229. Sampling rate                            : 48.0 kHz
  230. Frame rate                               : 31.250 FPS (1536 SPF)
  231. Compression mode                         : Lossy
  232. Stream size                              : 423 MiB (0%)
  233. Title                                    : DD 5.1
  234. Language                                 : Italian
  235. Service kind                             : Complete Main
  236. Default                                  : No
  237. Forced                                   : No
  238. Original source medium                   : Blu-ray
  239. Audio #10
  240. ID                                       : 11
  241. ID in the original source medium         : 4358 (0x1106)
  242. Format                                   : AC-3
  243. Format/Info                              : Audio Coding 3
  244. Commercial name                          : Dolby Digital
  245. Codec ID                                 : A_AC3
  246. Duration                                 : 2 h 12 min
  247. Bit rate mode                            : Constant
  248. Bit rate                                 : 448 kb/s
  249. Channel(s)                               : 6 channels
  250. Channel layout                           : L R C LFE Ls Rs
  251. Sampling rate                            : 48.0 kHz
  252. Frame rate                               : 31.250 FPS (1536 SPF)
  253. Compression mode                         : Lossy
  254. Stream size                              : 423 MiB (0%)
  255. Title                                    : DD 5.1
  256. Language                                 : Italian
  257. Service kind                             : Complete Main
  258. Default                                  : No
  259. Forced                                   : No
  260. Original source medium                   : Blu-ray
  261. Audio #11
  262. ID                                       : 12
  263. ID in the original source medium         : 4359 (0x1107)
  264. Format                                   : AC-3
  265. Format/Info                              : Audio Coding 3
  266. Commercial name                          : Dolby Digital
  267. Codec ID                                 : A_AC3
  268. Duration                                 : 2 h 12 min
  269. Bit rate mode                            : Constant
  270. Bit rate                                 : 448 kb/s
  271. Channel(s)                               : 6 channels
  272. Channel layout                           : L R C LFE Ls Rs
  273. Sampling rate                            : 48.0 kHz
  274. Frame rate                               : 31.250 FPS (1536 SPF)
  275. Compression mode                         : Lossy
  276. Stream size                              : 423 MiB (0%)
  277. Title                                    : DD 5.1
  278. Language                                 : Spanish
  279. Service kind                             : Complete Main
  280. Default                                  : No
  281. Forced                                   : No
  282. Original source medium                   : Blu-ray
  283. Audio #12
  284. ID                                       : 13
  285. ID in the original source medium         : 4360 (0x1108)
  286. Format                                   : AC-3
  287. Format/Info                              : Audio Coding 3
  288. Commercial name                          : Dolby Digital
  289. Codec ID                                 : A_AC3
  290. Duration                                 : 2 h 12 min
  291. Bit rate mode                            : Constant
  292. Bit rate                                 : 448 kb/s
  293. Channel(s)                               : 6 channels
  294. Channel layout                           : L R C LFE Ls Rs
  295. Sampling rate                            : 48.0 kHz
  296. Frame rate                               : 31.250 FPS (1536 SPF)
  297. Compression mode                         : Lossy
  298. Stream size                              : 423 MiB (0%)
  299. Title                                    : DD 5.1
  300. Language                                 : Spanish
  301. Service kind                             : Complete Main
  302. Default                                  : No
  303. Forced                                   : No
  304. Original source medium                   : Blu-ray
  305. Audio #13
  306. ID                                       : 14
  307. ID in the original source medium         : 4361 (0x1109)
  308. Format                                   : AC-3
  309. Format/Info                              : Audio Coding 3
  310. Commercial name                          : Dolby Digital
  311. Codec ID                                 : A_AC3
  312. Duration                                 : 2 h 12 min
  313. Bit rate mode                            : Constant
  314. Bit rate                                 : 448 kb/s
  315. Channel(s)                               : 6 channels
  316. Channel layout                           : L R C LFE Ls Rs
  317. Sampling rate                            : 48.0 kHz
  318. Frame rate                               : 31.250 FPS (1536 SPF)
  319. Compression mode                         : Lossy
  320. Stream size                              : 423 MiB (0%)
  321. Title                                    : DD 5.1
  322. Language                                 : Hindi
  323. Service kind                             : Complete Main
  324. Default                                  : No
  325. Forced                                   : No
  326. Original source medium                   : Blu-ray
  327. Audio #14
  328. ID                                       : 15
  329. ID in the original source medium         : 4362 (0x110A)
  330. Format                                   : AC-3
  331. Format/Info                              : Audio Coding 3
  332. Commercial name                          : Dolby Digital
  333. Codec ID                                 : A_AC3
  334. Duration                                 : 2 h 12 min
  335. Bit rate mode                            : Constant
  336. Bit rate                                 : 448 kb/s
  337. Channel(s)                               : 6 channels
  338. Channel layout                           : L R C LFE Ls Rs
  339. Sampling rate                            : 48.0 kHz
  340. Frame rate                               : 31.250 FPS (1536 SPF)
  341. Compression mode                         : Lossy
  342. Stream size                              : 423 MiB (0%)
  343. Title                                    : DD 5.1
  344. Language                                 : Hungarian
  345. Service kind                             : Complete Main
  346. Default                                  : No
  347. Forced                                   : No
  348. Original source medium                   : Blu-ray
  349. Audio #15
  350. ID                                       : 16
  351. ID in the original source medium         : 4363 (0x110B)
  352. Format                                   : AC-3
  353. Format/Info                              : Audio Coding 3
  354. Commercial name                          : Dolby Digital
  355. Codec ID                                 : A_AC3
  356. Duration                                 : 2 h 12 min
  357. Bit rate mode                            : Constant
  358. Bit rate                                 : 448 kb/s
  359. Channel(s)                               : 6 channels
  360. Channel layout                           : L R C LFE Ls Rs
  361. Sampling rate                            : 48.0 kHz
  362. Frame rate                               : 31.250 FPS (1536 SPF)
  363. Compression mode                         : Lossy
  364. Stream size                              : 423 MiB (0%)
  365. Title                                    : DD 5.1
  366. Language                                 : Polish
  367. Service kind                             : Complete Main
  368. Default                                  : No
  369. Forced                                   : No
  370. Original source medium                   : Blu-ray
  371. Audio #16
  372. ID                                       : 17
  373. ID in the original source medium         : 4364 (0x110C)
  374. Format                                   : AC-3
  375. Format/Info                              : Audio Coding 3
  376. Commercial name                          : Dolby Digital
  377. Codec ID                                 : A_AC3
  378. Duration                                 : 2 h 12 min
  379. Bit rate mode                            : Constant
  380. Bit rate                                 : 448 kb/s
  381. Channel(s)                               : 6 channels
  382. Channel layout                           : L R C LFE Ls Rs
  383. Sampling rate                            : 48.0 kHz
  384. Frame rate                               : 31.250 FPS (1536 SPF)
  385. Compression mode                         : Lossy
  386. Stream size                              : 423 MiB (0%)
  387. Title                                    : DD 5.1
  388. Language                                 : Tamil
  389. Service kind                             : Complete Main
  390. Default                                  : No
  391. Forced                                   : No
  392. Original source medium                   : Blu-ray
  393. Audio #17
  394. ID                                       : 18
  395. ID in the original source medium         : 4365 (0x110D)
  396. Format                                   : AC-3
  397. Format/Info                              : Audio Coding 3
  398. Commercial name                          : Dolby Digital
  399. Codec ID                                 : A_AC3
  400. Duration                                 : 2 h 12 min
  401. Bit rate mode                            : Constant
  402. Bit rate                                 : 448 kb/s
  403. Channel(s)                               : 6 channels
  404. Channel layout                           : L R C LFE Ls Rs
  405. Sampling rate                            : 48.0 kHz
  406. Frame rate                               : 31.250 FPS (1536 SPF)
  407. Compression mode                         : Lossy
  408. Stream size                              : 423 MiB (0%)
  409. Title                                    : DD 5.1
  410. Language                                 : Telugu
  411. Service kind                             : Complete Main
  412. Default                                  : No
  413. Forced                                   : No
  414. Original source medium                   : Blu-ray
  415. Audio #18
  416. ID                                       : 19
  417. ID in the original source medium         : 4366 (0x110E)
  418. Format                                   : AC-3
  419. Format/Info                              : Audio Coding 3
  420. Commercial name                          : Dolby Digital
  421. Format settings                          : Dolby Surround
  422. Codec ID                                 : A_AC3
  423. Duration                                 : 2 h 12 min
  424. Bit rate mode                            : Constant
  425. Bit rate                                 : 192 kb/s
  426. Channel(s)                               : 2 channels
  427. Channel layout                           : L R
  428. Sampling rate                            : 48.0 kHz
  429. Frame rate                               : 31.250 FPS (1536 SPF)
  430. Compression mode                         : Lossy
  431. Stream size                              : 181 MiB (0%)
  432. Title                                    : DD 2.0
  433. Language                                 : English
  434. Service kind                             : Complete Main
  435. Default                                  : No
  436. Forced                                   : No
  437. Original source medium                   : Blu-ray
  438. Text #1
  439. ID                                       : 20
  440. Format                                   : UTF-8
  441. Codec ID                                 : S_TEXT/UTF8
  442. Codec ID/Info                            : UTF-8 Plain Text
  443. Duration                                 : 2 h 11 min
  444. Bit rate                                 : 44 b/s
  445. Frame rate                               : 0.179 FPS
  446. Count of elements                        : 1415
  447. Stream size                              : 43.2 KiB (0%)
  448. Language                                 : English
  449. Default                                  : Yes
  450. Forced                                   : No
  451. Text #2
  452. ID                                       : 21
  453. Format                                   : UTF-8
  454. Codec ID                                 : S_TEXT/UTF8
  455. Codec ID/Info                            : UTF-8 Plain Text
  456. Duration                                 : 2 h 11 min
  457. Bit rate                                 : 57 b/s
  458. Frame rate                               : 0.243 FPS
  459. Count of elements                        : 1919
  460. Stream size                              : 55.0 KiB (0%)
  461. Title                                    : SDH
  462. Language                                 : English
  463. Default                                  : No
  464. Forced                                   : No
  465. Text #3
  466. ID                                       : 22
  467. ID in the original source medium         : 4768 (0x12A0)
  468. Format                                   : PGS
  469. Muxing mode                              : zlib
  470. Codec ID                                 : S_HDMV/PGS
  471. Codec ID/Info                            : Picture based subtitle format used on BDs/HD-DVDs
  472. Duration                                 : 2 h 11 min
  473. Bit rate                                 : 36.5 kb/s
  474. Frame rate                               : 0.493 FPS
  475. Count of elements                        : 3892
  476. Stream size                              : 34.4 MiB (0%)
  477. Language                                 : English
  478. Default                                  : No
  479. Forced                                   : No
  480. Original source medium                   : Blu-ray
  481. Text #4
  482. ID                                       : 23
  483. ID in the original source medium         : 4769 (0x12A1)
  484. Format                                   : PGS
  485. Muxing mode                              : zlib
  486. Codec ID                                 : S_HDMV/PGS
  487. Codec ID/Info                            : Picture based subtitle format used on BDs/HD-DVDs
  488. Duration                                 : 2 h 11 min
  489. Bit rate                                 : 21.0 kb/s
  490. Frame rate                               : 0.321 FPS
  491. Count of elements                        : 2530
  492. Stream size                              : 19.8 MiB (0%)
  493. Language                                 : French
  494. Default                                  : No
  495. Forced                                   : No
  496. Original source medium                   : Blu-ray
  497. Text #5
  498. ID                                       : 24
  499. ID in the original source medium         : 4770 (0x12A2)
  500. Format                                   : PGS
  501. Muxing mode                              : zlib
  502. Codec ID                                 : S_HDMV/PGS
  503. Codec ID/Info                            : Picture based subtitle format used on BDs/HD-DVDs
  504. Duration                                 : 2 h 11 min
  505. Bit rate                                 : 31.4 kb/s
  506. Frame rate                               : 0.476 FPS
  507. Count of elements                        : 3756
  508. Stream size                              : 29.5 MiB (0%)
  509. Language                                 : Italian
  510. Default                                  : No
  511. Forced                                   : No
  512. Original source medium                   : Blu-ray
  513. Text #6
  514. ID                                       : 25
  515. ID in the original source medium         : 4771 (0x12A3)
  516. Format                                   : PGS
  517. Muxing mode                              : zlib
  518. Codec ID                                 : S_HDMV/PGS
  519. Codec ID/Info                            : Picture based subtitle format used on BDs/HD-DVDs
  520. Duration                                 : 2 h 9 min
  521. Bit rate                                 : 22.4 kb/s
  522. Frame rate                               : 0.303 FPS
  523. Count of elements                        : 2362
  524. Stream size                              : 20.9 MiB (0%)
  525. Language                                 : Spanish
  526. Default                                  : No
  527. Forced                                   : No
  528. Original source medium                   : Blu-ray
  529. Text #7
  530. ID                                       : 26
  531. ID in the original source medium         : 4772 (0x12A4)
  532. Format                                   : PGS
  533. Muxing mode                              : zlib
  534. Codec ID                                 : S_HDMV/PGS
  535. Codec ID/Info                            : Picture based subtitle format used on BDs/HD-DVDs
  536. Duration                                 : 2 h 9 min
  537. Bit rate                                 : 24.0 kb/s
  538. Frame rate                               : 0.309 FPS
  539. Count of elements                        : 2408
  540. Stream size                              : 22.3 MiB (0%)
  541. Language                                 : Spanish
  542. Default                                  : No
  543. Forced                                   : No
  544. Original source medium                   : Blu-ray
  545. Text #8
  546. ID                                       : 27
  547. ID in the original source medium         : 4773 (0x12A5)
  548. Format                                   : PGS
  549. Muxing mode                              : zlib
  550. Codec ID                                 : S_HDMV/PGS
  551. Codec ID/Info                            : Picture based subtitle format used on BDs/HD-DVDs
  552. Duration                                 : 2 h 9 min
  553. Bit rate                                 : 20.7 kb/s
  554. Frame rate                               : 0.223 FPS
  555. Count of elements                        : 1742
  556. Stream size                              : 19.2 MiB (0%)
  557. Language                                 : Danish
  558. Default                                  : No
  559. Forced                                   : No
  560. Original source medium                   : Blu-ray
  561. Text #9
  562. ID                                       : 28
  563. ID in the original source medium         : 4774 (0x12A6)
  564. Format                                   : PGS
  565. Muxing mode                              : zlib
  566. Codec ID                                 : S_HDMV/PGS
  567. Codec ID/Info                            : Picture based subtitle format used on BDs/HD-DVDs
  568. Duration                                 : 2 h 9 min
  569. Bit rate                                 : 25.9 kb/s
  570. Frame rate                               : 0.338 FPS
  571. Count of elements                        : 2638
  572. Stream size                              : 24.0 MiB (0%)
  573. Language                                 : Finnish
  574. Default                                  : No
  575. Forced                                   : No
  576. Original source medium                   : Blu-ray
  577. Text #10
  578. ID                                       : 29
  579. ID in the original source medium         : 4775 (0x12A7)
  580. Format                                   : PGS
  581. Muxing mode                              : zlib
  582. Codec ID                                 : S_HDMV/PGS
  583. Codec ID/Info                            : Picture based subtitle format used on BDs/HD-DVDs
  584. Duration                                 : 2 h 9 min
  585. Bit rate                                 : 24.2 kb/s
  586. Frame rate                               : 0.330 FPS
  587. Count of elements                        : 2572
  588. Stream size                              : 22.4 MiB (0%)
  589. Language                                 : Greek
  590. Default                                  : No
  591. Forced                                   : No
  592. Original source medium                   : Blu-ray
  593. Text #11
  594. ID                                       : 30
  595. ID in the original source medium         : 4776 (0x12A8)
  596. Format                                   : PGS
  597. Muxing mode                              : zlib
  598. Codec ID                                 : S_HDMV/PGS
  599. Codec ID/Info                            : Picture based subtitle format used on BDs/HD-DVDs
  600. Duration                                 : 2 h 9 min
  601. Bit rate                                 : 25.9 kb/s
  602. Frame rate                               : 0.339 FPS
  603. Count of elements                        : 2644
  604. Stream size                              : 24.0 MiB (0%)
  605. Language                                 : Hungarian
  606. Default                                  : No
  607. Forced                                   : No
  608. Original source medium                   : Blu-ray
  609. Text #12
  610. ID                                       : 31
  611. ID in the original source medium         : 4777 (0x12A9)
  612. Format                                   : PGS
  613. Muxing mode                              : zlib
  614. Codec ID                                 : S_HDMV/PGS
  615. Codec ID/Info                            : Picture based subtitle format used on BDs/HD-DVDs
  616. Duration                                 : 2 h 9 min
  617. Bit rate                                 : 22.2 kb/s
  618. Frame rate                               : 0.263 FPS
  619. Count of elements                        : 2048
  620. Stream size                              : 20.7 MiB (0%)
  621. Language                                 : Norwegian
  622. Default                                  : No
  623. Forced                                   : No
  624. Original source medium                   : Blu-ray
  625. Text #13
  626. ID                                       : 32
  627. ID in the original source medium         : 4778 (0x12AA)
  628. Format                                   : PGS
  629. Muxing mode                              : zlib
  630. Codec ID                                 : S_HDMV/PGS
  631. Codec ID/Info                            : Picture based subtitle format used on BDs/HD-DVDs
  632. Duration                                 : 2 h 9 min
  633. Bit rate                                 : 21.4 kb/s
  634. Frame rate                               : 0.325 FPS
  635. Count of elements                        : 2534
  636. Stream size                              : 19.8 MiB (0%)
  637. Language                                 : Polish
  638. Default                                  : No
  639. Forced                                   : No
  640. Original source medium                   : Blu-ray
  641. Text #14
  642. ID                                       : 33
  643. ID in the original source medium         : 4779 (0x12AB)
  644. Format                                   : PGS
  645. Muxing mode                              : zlib
  646. Codec ID                                 : S_HDMV/PGS
  647. Codec ID/Info                            : Picture based subtitle format used on BDs/HD-DVDs
  648. Duration                                 : 2 h 9 min
  649. Bit rate                                 : 23.7 kb/s
  650. Frame rate                               : 0.318 FPS
  651. Count of elements                        : 2476
  652. Stream size                              : 22.0 MiB (0%)
  653. Language                                 : Romanian
  654. Default                                  : No
  655. Forced                                   : No
  656. Original source medium                   : Blu-ray
  657. Text #15
  658. ID                                       : 34
  659. ID in the original source medium         : 4780 (0x12AC)
  660. Format                                   : PGS
  661. Muxing mode                              : zlib
  662. Codec ID                                 : S_HDMV/PGS
  663. Codec ID/Info                            : Picture based subtitle format used on BDs/HD-DVDs
  664. Duration                                 : 2 h 9 min
  665. Bit rate                                 : 20.4 kb/s
  666. Frame rate                               : 0.249 FPS
  667. Count of elements                        : 1938
  668. Stream size                              : 18.9 MiB (0%)
  669. Language                                 : Swedish
  670. Default                                  : No
  671. Forced                                   : No
  672. Original source medium                   : Blu-ray
  673. Text #16
  674. ID                                       : 35
  675. ID in the original source medium         : 4781 (0x12AD)
  676. Format                                   : PGS
  677. Muxing mode                              : zlib
  678. Codec ID                                 : S_HDMV/PGS
  679. Codec ID/Info                            : Picture based subtitle format used on BDs/HD-DVDs
  680. Duration                                 : 2 h 4 min
  681. Bit rate                                 : 1 870 b/s
  682. Frame rate                               : 0.027 FPS
  683. Count of elements                        : 200
  684. Stream size                              : 1.67 MiB (0%)
  685. Language                                 : French
  686. Default                                  : No
  687. Forced                                   : No
  688. Original source medium                   : Blu-ray
  689. Text #17
  690. ID                                       : 36
  691. ID in the original source medium         : 4782 (0x12AE)
  692. Format                                   : PGS
  693. Muxing mode                              : zlib
  694. Codec ID                                 : S_HDMV/PGS
  695. Codec ID/Info                            : Picture based subtitle format used on BDs/HD-DVDs
  696. Duration                                 : 2 h 5 min
  697. Bit rate                                 : 1 777 b/s
  698. Frame rate                               : 0.029 FPS
  699. Count of elements                        : 216
  700. Stream size                              : 1.59 MiB (0%)
  701. Language                                 : Italian
  702. Default                                  : No
  703. Forced                                   : No
  704. Original source medium                   : Blu-ray
  705. Text #18
  706. ID                                       : 37
  707. ID in the original source medium         : 4783 (0x12AF)
  708. Format                                   : PGS
  709. Muxing mode                              : zlib
  710. Codec ID                                 : S_HDMV/PGS
  711. Codec ID/Info                            : Picture based subtitle format used on BDs/HD-DVDs
  712. Duration                                 : 2 h 10 min
  713. Bit rate                                 : 231 b/s
  714. Frame rate                               : 0.005 FPS
  715. Count of elements                        : 40
  716. Stream size                              : 222 KiB (0%)
  717. Language                                 : Spanish
  718. Default                                  : No
  719. Forced                                   : No
  720. Original source medium                   : Blu-ray
  721. Text #19
  722. ID                                       : 38
  723. ID in the original source medium         : 4784 (0x12B0)
  724. Format                                   : PGS
  725. Muxing mode                              : zlib
  726. Codec ID                                 : S_HDMV/PGS
  727. Codec ID/Info                            : Picture based subtitle format used on BDs/HD-DVDs
  728. Duration                                 : 2 h 4 min
  729. Bit rate                                 : 423 b/s
  730. Frame rate                               : 0.007 FPS
  731. Count of elements                        : 50
  732. Stream size                              : 387 KiB (0%)
  733. Language                                 : Spanish
  734. Default                                  : No
  735. Forced                                   : No
  736. Original source medium                   : Blu-ray
  737. Text #20
  738. ID                                       : 39
  739. ID in the original source medium         : 4785 (0x12B1)
  740. Format                                   : PGS
  741. Muxing mode                              : zlib
  742. Codec ID                                 : S_HDMV/PGS
  743. Codec ID/Info                            : Picture based subtitle format used on BDs/HD-DVDs
  744. Duration                                 : 2 h 5 min
  745. Bit rate                                 : 1 387 b/s
  746. Frame rate                               : 0.029 FPS
  747. Count of elements                        : 220
  748. Stream size                              : 1.24 MiB (0%)
  749. Language                                 : Hindi
  750. Default                                  : No
  751. Forced                                   : No
  752. Original source medium                   : Blu-ray
  753. Text #21
  754. ID                                       : 40
  755. ID in the original source medium         : 4786 (0x12B2)
  756. Format                                   : PGS
  757. Muxing mode                              : zlib
  758. Codec ID                                 : S_HDMV/PGS
  759. Codec ID/Info                            : Picture based subtitle format used on BDs/HD-DVDs
  760. Duration                                 : 2 h 5 min
  761. Bit rate                                 : 2 503 b/s
  762. Frame rate                               : 0.029 FPS
  763. Count of elements                        : 220
  764. Stream size                              : 2.24 MiB (0%)
  765. Language                                 : Tamil
  766. Default                                  : No
  767. Forced                                   : No
  768. Original source medium                   : Blu-ray
  769. Text #22
  770. ID                                       : 41
  771. ID in the original source medium         : 4787 (0x12B3)
  772. Format                                   : PGS
  773. Muxing mode                              : zlib
  774. Codec ID                                 : S_HDMV/PGS
  775. Codec ID/Info                            : Picture based subtitle format used on BDs/HD-DVDs
  776. Duration                                 : 2 h 5 min
  777. Bit rate                                 : 1 700 b/s
  778. Frame rate                               : 0.029 FPS
  779. Count of elements                        : 220
  780. Stream size                              : 1.52 MiB (0%)
  781. Language                                 : Telugu
  782. Default                                  : No
  783. Forced                                   : No
  784. Original source medium                   : Blu-ray
  785. Text #23
  786. ID                                       : 42
  787. ID in the original source medium         : 4788 (0x12B4)
  788. Format                                   : PGS
  789. Muxing mode                              : zlib
  790. Codec ID                                 : S_HDMV/PGS
  791. Codec ID/Info                            : Picture based subtitle format used on BDs/HD-DVDs
  792. Duration                                 : 2 h 4 min
  793. Bit rate                                 : 1 868 b/s
  794. Frame rate                               : 0.028 FPS
  795. Count of elements                        : 212
  796. Stream size                              : 1.67 MiB (0%)
  797. Language                                 : Hungarian
  798. Default                                  : No
  799. Forced                                   : No
  800. Original source medium                   : Blu-ray
  801. Menu
  802. 00:00:00.000                             : en:Chapter 01
  803. 00:14:25.614                             : en:Chapter 02
  804. 00:22:08.035                             : en:Chapter 03
  805. 00:31:31.973                             : en:Chapter 04
  806. 00:40:48.362                             : en:Chapter 05
  807. 00:50:19.933                             : en:Chapter 06
  808. 01:01:09.332                             : en:Chapter 07
  809. 01:10:05.868                             : en:Chapter 08
  810. 01:19:44.488                             : en:Chapter 09
  811. 01:29:00.793                             : en:Chapter 10
  812. 01:40:41.160                             : en:Chapter 11
  813. 01:50:37.130                             : en:Chapter 12
  814. 01:59:28.536                             : en:Chapter 13
复制代码




                                       
                                       

                                       
                                       
                                       




X特遣队:全员集结 The.Suicide.Squad.2021.PROPER.2160p.BluRay.REMUX.HEVC.DTS-HD.MA.TrueHD.7.1.Atmos-FGT 76.94GB

The.Suicide.Squad.2021.PROPER.2160p.BluRay.REMUX.HEVC.DTS-HD.MA.TrueHD.7.1.Atmos.torrent

96.85 KB, 下载次数: 2, 下载积分: 蓝光币 -2

回复

使用道具 举报

您需要登录后才可以回帖 登录 | 立即注册

本版积分规则

QQ|Archiver|手机版|小黑屋|蓝光电影网

GMT+8, 2023-2-8 03:11 , Processed in 0.063356 second(s), 28 queries .

Powered by Discuz! X3.4

Copyright © 2001-2020, Tencent Cloud.

快速回复 返回顶部 返回列表