找回密码
 立即注册

QQ登录

只需一步,快速开始

查看: 85|回复: 0

[UHD.HEVC] 超人:钢铁之躯 Man.Of.Steel.2013.PROPER.2160p.BluRay.REMUX.HEVC.DTS-HD.MA.TrueHD.7.1.Atmos-FGT 72.25GB

[复制链接]

0

精华

0

好友

2

听众

新手上路

Rank: 2

蓝光币
5
发表于 2022-12-20 07:55:54 | 显示全部楼层 |阅读模式
[img][/img]

◎标  题 超人:钢铁之躯
◎译  名 超人:钢铁英雄(港 / 台) / Superman: Man of Steel
◎片  名 Man of Steel
◎年  代 2013
◎产  地 美国 / 英国
◎类  别 动作 / 科幻 / 冒险
◎语  言 英语
◎上映日期 2013-06-20(中国大陆) / 2013-06-14(美国)
◎IMDb评分 7/10 (736293人评价)
◎IMDb链接 https://www.imdb.com/title/tt0770828/
◎豆瓣评分 7.2/10 (220640人评价)
◎豆瓣链接 https://movie.douban.com/subject/2049435/
◎片  长 143分钟
◎导  演 扎克·施奈德 Zack Snyder
◎编  剧 大卫·S·高耶 David S. Goyer
       克里斯托弗·诺兰 Christopher Nolan
       乔·舒斯特 Joe Shuster
       杰里·西格尔 Jerry Siegel
◎演  员 亨利·卡维尔 Henry Cavill
       艾米·亚当斯 Amy Adams
       迈克尔·珊农 Michael Shannon
       凯文·科斯特纳 Kevin Costner
       戴安·琳恩 Diane Lane
       罗素·克劳 Russell Crowe
       克里斯托弗·米洛尼 Christopher Meloni
       安婕·特拉乌 Antje Traue
       劳伦斯·菲什伯恩 Laurence Fishburne
       阿耶莱特·祖里尔 Ayelet Zurer
       雅丹·古尔德 Jadin Gould
       迈克尔·凯利 Michael Kelly
       迪伦·斯派比利 Dylan Sprayberry
       朱利安·瑞钦斯 Julian Richings
       卡拉·古奇诺 Carla Gugino
       理查德·希夫 Richard Schiff
       麦克·多普德 Mike Dopud
       萨曼莎·乔 Samantha Win
       塔莫·潘尼凯 Tahmoh Penikett
       大卫·佩特考 David Paetkau
       哈里·列尼斯 Harry Lennix
       伊安·崔西 Ian Tracey
       理查德·赛特伦 Richard Cetrone
       克林特·卡尔顿 Clint Carleton
       乔·米诺索 Joe Minoso
       克里斯蒂娜·瑞恩 Christina Wren
       科维西·阿梅扬 Kwesi Ameyaw
       麦肯锡·葛雷 Mackenzie Gray
       科布恩·格罗斯 Coburn Goss
       艾伦·坡尔 Aaron Pearl
       麦迪逊·莫兰 Madison Moran
       迪索·拉莫斯 Diezel Ramos
       克里斯巴勒莫 Chris Palermo
       拉吉·拉尔 Raj Lal
       库珀·汀伯莱 Cooper Timberline
       汤姆·纳格尔 Tom Nagel
       杰奎琳·西斯洛夫斯基 Jacqueline Scislowski
       海伦娜·巴雷特 Helena Barrett
       卡罗琳·托马斯 Caroline Thomas
       玛丽·布莱克 Mary Black
       斯蒂芬妮·宋 Stephanie Song
       亚历克萨·耿格尔巴赫 Alexa Gengelbach
       克里斯托弗·诺兰 Christopher Nolan
       艾玛·托马斯 Emma Thomas
       黛博拉·施奈德 Deborah Snyder
       科特·金元 Curt Kanemoto
       托马斯·图尔 Thomas Tull
       韦斯利·柯勒 Wesley Coller
       汉斯·季默 Hans Zimmer
       阿米尔·M·莫克里 Amir M. Mokri
       杰森·李·豪顿 Jason Lei Howden
       劳伦·麦卡勒姆 Lauren McCallum
       达里尔·索丘克 Daryl Sawchuk
       米格尔·A·萨莱克 Miguel A. Salek
       保罗·弗拉纳根 Paul Flanagan
       丹·赖蒙 Dan Lemmon
◎标  签 科幻 / 超人 / 美国 / 超级英雄 / DC / 动作 / 漫画改编 / 2013
◎简  介

  遥远的宇宙深处,随着氪星的毁灭,超人的传奇故事拉开序幕。氪星人乔·艾尔(罗素·克劳 Russell Crowe 饰)抵死反抗佐德将军(迈克尔·珊农 Michael Shannon 饰)的邪恶计划,冒险将刚出生不久的儿子卡尔·艾尔被送到银河系另一边的地球。卡尔降落在美国堪萨斯一座小镇,他幸运地成为乔纳森·肯特(凯文·科斯特纳 Kevin Costner 饰)和玛莎(黛安·莲恩 Diane Lane 饰)的养子,并且得名克拉克。克拉克从小显露出与众不同的能力与特征,但这些带给他惊讶的同时还有数不清的烦恼。通过养父的引导,克拉克(亨利·卡维尔 Henry Cavill 饰)慢慢弄清自己的身世以及所肩负的使命。终于有一天,遥远的故乡“同胞”莅临。                                    
                                站在故乡与地球、邪恶与正义的两端,超人即将面临重大的抉择……
  1. Video
  2. ID                                       : 1
  3. ID in the original source medium         : 4113 (0x1011)
  4. Format                                   : HEVC
  5. Format/Info                              : High Efficiency Video Coding
  6. Format profile                           : Main [email protected]@High
  7. HDR format                               : SMPTE ST 2086, HDR10 compatible
  8. Codec ID                                 : V_MPEGH/ISO/HEVC
  9. Duration                                 : 2 h 22 min
  10. Bit rate                                 : 53.5 Mb/s
  11. Width                                    : 3 840 pixels
  12. Height                                   : 2 160 pixels
  13. Display aspect ratio                     : 16:9
  14. Frame rate mode                          : Constant
  15. Frame rate                               : 23.976 (24000/1001/189150) FPS
  16. Color space                              : YUV
  17. Chroma subsampling                       : 4:2:0 (Type 2)
  18. Bit depth                                : 10 bits
  19. Bits/(Pixel*Frame)                       : 0.269
  20. Stream size                              : 53.5 GiB (74%)
  21. Language                                 : English
  22. Default                                  : No
  23. Forced                                   : No
  24. Color range                              : Limited
  25. Color primaries                          : BT.2020
  26. Transfer characteristics                 : PQ
  27. Matrix coefficients                      : BT.2020 non-constant
  28. Mastering display color primaries        : Display P3
  29. Mastering display luminance              : min: 0.0050 cd/m2, max: 4000 cd/m2
  30. Maximum Content Light Level              : 7770 cd/m2
  31. Maximum Frame-Average Light Level        : 1468 cd/m2
  32. Original source medium                   : Blu-ray
  33. Audio #1
  34. ID                                       : 2
  35. ID in the original source medium         : 4352 (0x1100)
  36. Format                                   : MLP FBA 16-ch
  37. Format/Info                              : Meridian Lossless Packing FBA with 16-channel presentation
  38. Commercial name                          : Dolby TrueHD with Dolby Atmos
  39. Codec ID                                 : A_TRUEHD
  40. Duration                                 : 2 h 22 min
  41. Bit rate mode                            : Variable
  42. Bit rate                                 : 5 428 kb/s
  43. Maximum bit rate                         : 8 757 kb/s
  44. Channel(s)                               : 8 channels
  45. Channel layout                           : L R C LFE Ls Rs Lb Rb
  46. Sampling rate                            : 48.0 kHz
  47. Frame rate                               : 1 200.000 FPS (40 SPF)
  48. Bit depth                                : 24 bits
  49. Compression mode                         : Lossless
  50. Stream size                              : 5.42 GiB (8%)
  51. Title                                    : TrueHD 7.1 Atmos
  52. Language                                 : English
  53. Default                                  : Yes
  54. Forced                                   : No
  55. Original source medium                   : Blu-ray
  56. Number of dynamic objects                : 11
  57. Bed channel count                        : 1 channel
  58. Bed channel configuration                : LFE
  59. Audio #2
  60. ID                                       : 3
  61. Format                                   : DTS XLL
  62. Format/Info                              : Digital Theater Systems
  63. Commercial name                          : DTS-HD Master Audio
  64. Codec ID                                 : A_DTS
  65. Duration                                 : 2 h 22 min
  66. Bit rate mode                            : Variable
  67. Bit rate                                 : 4 325 kb/s
  68. Channel(s)                               : 8 channels
  69. Channel layout                           : C L R LFE Lb Rb Lss Rss
  70. Sampling rate                            : 48.0 kHz
  71. Frame rate                               : 93.750 FPS (512 SPF)
  72. Bit depth                                : 24 bits
  73. Compression mode                         : Lossless
  74. Stream size                              : 4.32 GiB (6%)
  75. Title                                    : DTS-HD MA 7.1
  76. Language                                 : English
  77. Default                                  : No
  78. Forced                                   : No
  79. Audio #3
  80. ID                                       : 4
  81. ID in the original source medium         : 4352 (0x1100)
  82. Format                                   : AC-3
  83. Format/Info                              : Audio Coding 3
  84. Commercial name                          : Dolby Digital
  85. Format settings                          : Dolby Surround EX
  86. Codec ID                                 : A_AC3
  87. Duration                                 : 2 h 22 min
  88. Bit rate mode                            : Constant
  89. Bit rate                                 : 448 kb/s
  90. Channel(s)                               : 6 channels
  91. Channel layout                           : L R C LFE Ls Rs
  92. Sampling rate                            : 48.0 kHz
  93. Frame rate                               : 31.250 FPS (1536 SPF)
  94. Compression mode                         : Lossy
  95. Stream size                              : 458 MiB (1%)
  96. Title                                    : DD 5.1
  97. Language                                 : English
  98. Service kind                             : Complete Main
  99. Default                                  : No
  100. Forced                                   : No
  101. Original source medium                   : Blu-ray
  102. Audio #4
  103. ID                                       : 5
  104. ID in the original source medium         : 4353 (0x1101)
  105. Format                                   : AC-3
  106. Format/Info                              : Audio Coding 3
  107. Commercial name                          : Dolby Digital
  108. Codec ID                                 : A_AC3
  109. Duration                                 : 2 h 22 min
  110. Bit rate mode                            : Constant
  111. Bit rate                                 : 640 kb/s
  112. Channel(s)                               : 6 channels
  113. Channel layout                           : L R C LFE Ls Rs
  114. Sampling rate                            : 48.0 kHz
  115. Frame rate                               : 31.250 FPS (1536 SPF)
  116. Compression mode                         : Lossy
  117. Stream size                              : 655 MiB (1%)
  118. Title                                    : DD 5.1
  119. Language                                 : English
  120. Service kind                             : Complete Main
  121. Default                                  : No
  122. Forced                                   : No
  123. Original source medium                   : Blu-ray
  124. Audio #5
  125. ID                                       : 6
  126. ID in the original source medium         : 4354 (0x1102)
  127. Format                                   : AC-3
  128. Format/Info                              : Audio Coding 3
  129. Commercial name                          : Dolby Digital
  130. Codec ID                                 : A_AC3
  131. Duration                                 : 2 h 22 min
  132. Bit rate mode                            : Constant
  133. Bit rate                                 : 640 kb/s
  134. Channel(s)                               : 6 channels
  135. Channel layout                           : L R C LFE Ls Rs
  136. Sampling rate                            : 48.0 kHz
  137. Frame rate                               : 31.250 FPS (1536 SPF)
  138. Compression mode                         : Lossy
  139. Stream size                              : 655 MiB (1%)
  140. Title                                    : DD 5.1
  141. Language                                 : French
  142. Service kind                             : Complete Main
  143. Default                                  : No
  144. Forced                                   : No
  145. Original source medium                   : Blu-ray
  146. Audio #6
  147. ID                                       : 7
  148. ID in the original source medium         : 4355 (0x1103)
  149. Format                                   : AC-3
  150. Format/Info                              : Audio Coding 3
  151. Commercial name                          : Dolby Digital
  152. Codec ID                                 : A_AC3
  153. Duration                                 : 2 h 22 min
  154. Bit rate mode                            : Constant
  155. Bit rate                                 : 640 kb/s
  156. Channel(s)                               : 6 channels
  157. Channel layout                           : L R C LFE Ls Rs
  158. Sampling rate                            : 48.0 kHz
  159. Frame rate                               : 31.250 FPS (1536 SPF)
  160. Compression mode                         : Lossy
  161. Stream size                              : 655 MiB (1%)
  162. Title                                    : DD 5.1
  163. Language                                 : French
  164. Service kind                             : Complete Main
  165. Default                                  : No
  166. Forced                                   : No
  167. Original source medium                   : Blu-ray
  168. Audio #7
  169. ID                                       : 8
  170. ID in the original source medium         : 4356 (0x1104)
  171. Format                                   : AC-3
  172. Format/Info                              : Audio Coding 3
  173. Commercial name                          : Dolby Digital
  174. Codec ID                                 : A_AC3
  175. Duration                                 : 2 h 22 min
  176. Bit rate mode                            : Constant
  177. Bit rate                                 : 640 kb/s
  178. Channel(s)                               : 6 channels
  179. Channel layout                           : L R C LFE Ls Rs
  180. Sampling rate                            : 48.0 kHz
  181. Frame rate                               : 31.250 FPS (1536 SPF)
  182. Compression mode                         : Lossy
  183. Stream size                              : 655 MiB (1%)
  184. Title                                    : DD 5.1
  185. Language                                 : German
  186. Service kind                             : Complete Main
  187. Default                                  : No
  188. Forced                                   : No
  189. Original source medium                   : Blu-ray
  190. Audio #8
  191. ID                                       : 9
  192. ID in the original source medium         : 4357 (0x1105)
  193. Format                                   : AC-3
  194. Format/Info                              : Audio Coding 3
  195. Commercial name                          : Dolby Digital
  196. Codec ID                                 : A_AC3
  197. Duration                                 : 2 h 22 min
  198. Bit rate mode                            : Constant
  199. Bit rate                                 : 640 kb/s
  200. Channel(s)                               : 6 channels
  201. Channel layout                           : L R C LFE Ls Rs
  202. Sampling rate                            : 48.0 kHz
  203. Frame rate                               : 31.250 FPS (1536 SPF)
  204. Compression mode                         : Lossy
  205. Stream size                              : 655 MiB (1%)
  206. Title                                    : DD 5.1
  207. Language                                 : Italian
  208. Service kind                             : Complete Main
  209. Default                                  : No
  210. Forced                                   : No
  211. Original source medium                   : Blu-ray
  212. Audio #9
  213. ID                                       : 10
  214. ID in the original source medium         : 4358 (0x1106)
  215. Format                                   : AC-3
  216. Format/Info                              : Audio Coding 3
  217. Commercial name                          : Dolby Digital
  218. Codec ID                                 : A_AC3
  219. Duration                                 : 2 h 22 min
  220. Bit rate mode                            : Constant
  221. Bit rate                                 : 640 kb/s
  222. Channel(s)                               : 6 channels
  223. Channel layout                           : L R C LFE Ls Rs
  224. Sampling rate                            : 48.0 kHz
  225. Frame rate                               : 31.250 FPS (1536 SPF)
  226. Compression mode                         : Lossy
  227. Stream size                              : 655 MiB (1%)
  228. Title                                    : DD 5.1
  229. Language                                 : Spanish
  230. Service kind                             : Complete Main
  231. Default                                  : No
  232. Forced                                   : No
  233. Original source medium                   : Blu-ray
  234. Audio #10
  235. ID                                       : 11
  236. ID in the original source medium         : 4359 (0x1107)
  237. Format                                   : AC-3
  238. Format/Info                              : Audio Coding 3
  239. Commercial name                          : Dolby Digital
  240. Codec ID                                 : A_AC3
  241. Duration                                 : 2 h 22 min
  242. Bit rate mode                            : Constant
  243. Bit rate                                 : 640 kb/s
  244. Channel(s)                               : 6 channels
  245. Channel layout                           : L R C LFE Ls Rs
  246. Sampling rate                            : 48.0 kHz
  247. Frame rate                               : 31.250 FPS (1536 SPF)
  248. Compression mode                         : Lossy
  249. Stream size                              : 655 MiB (1%)
  250. Title                                    : DD 5.1
  251. Language                                 : Spanish
  252. Service kind                             : Complete Main
  253. Default                                  : No
  254. Forced                                   : No
  255. Original source medium                   : Blu-ray
  256. Audio #11
  257. ID                                       : 12
  258. ID in the original source medium         : 4360 (0x1108)
  259. Format                                   : AC-3
  260. Format/Info                              : Audio Coding 3
  261. Commercial name                          : Dolby Digital
  262. Codec ID                                 : A_AC3
  263. Duration                                 : 2 h 22 min
  264. Bit rate mode                            : Constant
  265. Bit rate                                 : 640 kb/s
  266. Channel(s)                               : 6 channels
  267. Channel layout                           : L R C LFE Ls Rs
  268. Sampling rate                            : 48.0 kHz
  269. Frame rate                               : 31.250 FPS (1536 SPF)
  270. Compression mode                         : Lossy
  271. Stream size                              : 655 MiB (1%)
  272. Title                                    : DD 5.1
  273. Language                                 : Portuguese
  274. Service kind                             : Complete Main
  275. Default                                  : No
  276. Forced                                   : No
  277. Original source medium                   : Blu-ray
  278. Audio #12
  279. ID                                       : 13
  280. ID in the original source medium         : 4361 (0x1109)
  281. Format                                   : AC-3
  282. Format/Info                              : Audio Coding 3
  283. Commercial name                          : Dolby Digital
  284. Codec ID                                 : A_AC3
  285. Duration                                 : 2 h 22 min
  286. Bit rate mode                            : Constant
  287. Bit rate                                 : 640 kb/s
  288. Channel(s)                               : 6 channels
  289. Channel layout                           : L R C LFE Ls Rs
  290. Sampling rate                            : 48.0 kHz
  291. Frame rate                               : 31.250 FPS (1536 SPF)
  292. Compression mode                         : Lossy
  293. Stream size                              : 655 MiB (1%)
  294. Title                                    : DD 5.1
  295. Language                                 : Czech
  296. Service kind                             : Complete Main
  297. Default                                  : No
  298. Forced                                   : No
  299. Original source medium                   : Blu-ray
  300. Audio #13
  301. ID                                       : 14
  302. ID in the original source medium         : 4362 (0x110A)
  303. Format                                   : AC-3
  304. Format/Info                              : Audio Coding 3
  305. Commercial name                          : Dolby Digital
  306. Codec ID                                 : A_AC3
  307. Duration                                 : 2 h 22 min
  308. Bit rate mode                            : Constant
  309. Bit rate                                 : 640 kb/s
  310. Channel(s)                               : 6 channels
  311. Channel layout                           : L R C LFE Ls Rs
  312. Sampling rate                            : 48.0 kHz
  313. Frame rate                               : 31.250 FPS (1536 SPF)
  314. Compression mode                         : Lossy
  315. Stream size                              : 655 MiB (1%)
  316. Title                                    : DD 5.1
  317. Language                                 : Polish
  318. Service kind                             : Complete Main
  319. Default                                  : No
  320. Forced                                   : No
  321. Original source medium                   : Blu-ray
  322. Audio #14
  323. ID                                       : 15
  324. ID in the original source medium         : 4363 (0x110B)
  325. Format                                   : AC-3
  326. Format/Info                              : Audio Coding 3
  327. Commercial name                          : Dolby Digital
  328. Codec ID                                 : A_AC3
  329. Duration                                 : 2 h 22 min
  330. Bit rate mode                            : Constant
  331. Bit rate                                 : 640 kb/s
  332. Channel(s)                               : 6 channels
  333. Channel layout                           : L R C LFE Ls Rs
  334. Sampling rate                            : 48.0 kHz
  335. Frame rate                               : 31.250 FPS (1536 SPF)
  336. Compression mode                         : Lossy
  337. Stream size                              : 655 MiB (1%)
  338. Title                                    : DD 5.1
  339. Language                                 : Russian
  340. Service kind                             : Complete Main
  341. Default                                  : No
  342. Forced                                   : No
  343. Original source medium                   : Blu-ray
  344. Audio #15
  345. ID                                       : 16
  346. ID in the original source medium         : 4364 (0x110C)
  347. Format                                   : AC-3
  348. Format/Info                              : Audio Coding 3
  349. Commercial name                          : Dolby Digital
  350. Codec ID                                 : A_AC3
  351. Duration                                 : 2 h 22 min
  352. Bit rate mode                            : Constant
  353. Bit rate                                 : 640 kb/s
  354. Channel(s)                               : 6 channels
  355. Channel layout                           : L R C LFE Ls Rs
  356. Sampling rate                            : 48.0 kHz
  357. Frame rate                               : 31.250 FPS (1536 SPF)
  358. Compression mode                         : Lossy
  359. Stream size                              : 655 MiB (1%)
  360. Title                                    : DD 5.1
  361. Language                                 : Turkish
  362. Service kind                             : Complete Main
  363. Default                                  : No
  364. Forced                                   : No
  365. Original source medium                   : Blu-ray
  366. Audio #16
  367. ID                                       : 17
  368. ID in the original source medium         : 4365 (0x110D)
  369. Format                                   : AC-3
  370. Format/Info                              : Audio Coding 3
  371. Commercial name                          : Dolby Digital
  372. Codec ID                                 : A_AC3
  373. Duration                                 : 2 h 22 min
  374. Bit rate mode                            : Constant
  375. Bit rate                                 : 640 kb/s
  376. Channel(s)                               : 6 channels
  377. Channel layout                           : L R C LFE Ls Rs
  378. Sampling rate                            : 48.0 kHz
  379. Frame rate                               : 31.250 FPS (1536 SPF)
  380. Compression mode                         : Lossy
  381. Stream size                              : 655 MiB (1%)
  382. Title                                    : DD 5.1
  383. Language                                 : Japanese
  384. Service kind                             : Complete Main
  385. Default                                  : No
  386. Forced                                   : No
  387. Original source medium                   : Blu-ray
  388. Text #1
  389. ID                                       : 18
  390. Format                                   : UTF-8
  391. Codec ID                                 : S_TEXT/UTF8
  392. Codec ID/Info                            : UTF-8 Plain Text
  393. Duration                                 : 2 h 11 min
  394. Bit rate                                 : 40 b/s
  395. Frame rate                               : 0.158 FPS
  396. Count of elements                        : 1250
  397. Stream size                              : 39.5 KiB (0%)
  398. Language                                 : English
  399. Default                                  : Yes
  400. Forced                                   : No
  401. Text #2
  402. ID                                       : 19
  403. Format                                   : UTF-8
  404. Codec ID                                 : S_TEXT/UTF8
  405. Codec ID/Info                            : UTF-8 Plain Text
  406. Duration                                 : 2 h 22 min
  407. Bit rate                                 : 40 b/s
  408. Frame rate                               : 0.168 FPS
  409. Count of elements                        : 1428
  410. Stream size                              : 42.3 KiB (0%)
  411. Title                                    : SDH
  412. Language                                 : English
  413. Default                                  : No
  414. Forced                                   : No
  415. Text #3
  416. ID                                       : 20
  417. ID in the original source medium         : 4768 (0x12A0)
  418. Format                                   : PGS
  419. Muxing mode                              : zlib
  420. Codec ID                                 : S_HDMV/PGS
  421. Codec ID/Info                            : Picture based subtitle format used on BDs/HD-DVDs
  422. Duration                                 : 2 h 22 min
  423. Bit rate                                 : 24.8 kb/s
  424. Frame rate                               : 0.345 FPS
  425. Count of elements                        : 2940
  426. Stream size                              : 25.2 MiB (0%)
  427. Language                                 : English
  428. Default                                  : No
  429. Forced                                   : No
  430. Original source medium                   : Blu-ray
  431. Text #4
  432. ID                                       : 21
  433. ID in the original source medium         : 4769 (0x12A1)
  434. Format                                   : PGS
  435. Muxing mode                              : zlib
  436. Codec ID                                 : S_HDMV/PGS
  437. Codec ID/Info                            : Picture based subtitle format used on BDs/HD-DVDs
  438. Duration                                 : 2 h 20 min
  439. Bit rate                                 : 19.0 kb/s
  440. Frame rate                               : 0.281 FPS
  441. Count of elements                        : 2370
  442. Stream size                              : 19.1 MiB (0%)
  443. Language                                 : French
  444. Default                                  : No
  445. Forced                                   : No
  446. Original source medium                   : Blu-ray
  447. Text #5
  448. ID                                       : 22
  449. ID in the original source medium         : 4770 (0x12A2)
  450. Format                                   : PGS
  451. Muxing mode                              : zlib
  452. Codec ID                                 : S_HDMV/PGS
  453. Codec ID/Info                            : Picture based subtitle format used on BDs/HD-DVDs
  454. Duration                                 : 2 h 22 min
  455. Bit rate                                 : 28.2 kb/s
  456. Frame rate                               : 0.347 FPS
  457. Count of elements                        : 2958
  458. Stream size                              : 28.6 MiB (0%)
  459. Language                                 : German
  460. Default                                  : No
  461. Forced                                   : No
  462. Original source medium                   : Blu-ray
  463. Text #6
  464. ID                                       : 23
  465. ID in the original source medium         : 4771 (0x12A3)
  466. Format                                   : PGS
  467. Muxing mode                              : zlib
  468. Codec ID                                 : S_HDMV/PGS
  469. Codec ID/Info                            : Picture based subtitle format used on BDs/HD-DVDs
  470. Duration                                 : 2 h 22 min
  471. Bit rate                                 : 24.8 kb/s
  472. Frame rate                               : 0.347 FPS
  473. Count of elements                        : 2960
  474. Stream size                              : 25.2 MiB (0%)
  475. Language                                 : Italian
  476. Default                                  : No
  477. Forced                                   : No
  478. Original source medium                   : Blu-ray
  479. Text #7
  480. ID                                       : 24
  481. ID in the original source medium         : 4772 (0x12A4)
  482. Format                                   : PGS
  483. Muxing mode                              : zlib
  484. Codec ID                                 : S_HDMV/PGS
  485. Codec ID/Info                            : Picture based subtitle format used on BDs/HD-DVDs
  486. Duration                                 : 2 h 22 min
  487. Bit rate                                 : 20.6 kb/s
  488. Frame rate                               : 0.290 FPS
  489. Count of elements                        : 2470
  490. Stream size                              : 20.9 MiB (0%)
  491. Language                                 : Spanish
  492. Default                                  : No
  493. Forced                                   : No
  494. Original source medium                   : Blu-ray
  495. Text #8
  496. ID                                       : 25
  497. ID in the original source medium         : 4773 (0x12A5)
  498. Format                                   : PGS
  499. Muxing mode                              : zlib
  500. Codec ID                                 : S_HDMV/PGS
  501. Codec ID/Info                            : Picture based subtitle format used on BDs/HD-DVDs
  502. Duration                                 : 2 h 22 min
  503. Bit rate                                 : 18.3 kb/s
  504. Frame rate                               : 0.284 FPS
  505. Count of elements                        : 2420
  506. Stream size                              : 18.6 MiB (0%)
  507. Language                                 : Dutch
  508. Default                                  : No
  509. Forced                                   : No
  510. Original source medium                   : Blu-ray
  511. Text #9
  512. ID                                       : 26
  513. ID in the original source medium         : 4774 (0x12A6)
  514. Format                                   : PGS
  515. Muxing mode                              : zlib
  516. Codec ID                                 : S_HDMV/PGS
  517. Codec ID/Info                            : Picture based subtitle format used on BDs/HD-DVDs
  518. Duration                                 : 2 h 22 min
  519. Bit rate                                 : 19.7 kb/s
  520. Frame rate                               : 0.300 FPS
  521. Count of elements                        : 2556
  522. Stream size                              : 20.0 MiB (0%)
  523. Language                                 : Chinese
  524. Default                                  : No
  525. Forced                                   : No
  526. Original source medium                   : Blu-ray
  527. Text #10
  528. ID                                       : 27
  529. ID in the original source medium         : 4775 (0x12A7)
  530. Format                                   : PGS
  531. Muxing mode                              : zlib
  532. Codec ID                                 : S_HDMV/PGS
  533. Codec ID/Info                            : Picture based subtitle format used on BDs/HD-DVDs
  534. Duration                                 : 2 h 22 min
  535. Bit rate                                 : 19.8 kb/s
  536. Frame rate                               : 0.295 FPS
  537. Count of elements                        : 2516
  538. Stream size                              : 20.1 MiB (0%)
  539. Language                                 : Chinese
  540. Default                                  : No
  541. Forced                                   : No
  542. Original source medium                   : Blu-ray
  543. Text #11
  544. ID                                       : 28
  545. ID in the original source medium         : 4776 (0x12A8)
  546. Format                                   : PGS
  547. Muxing mode                              : zlib
  548. Codec ID                                 : S_HDMV/PGS
  549. Codec ID/Info                            : Picture based subtitle format used on BDs/HD-DVDs
  550. Duration                                 : 2 h 22 min
  551. Bit rate                                 : 13.6 kb/s
  552. Frame rate                               : 0.292 FPS
  553. Count of elements                        : 2488
  554. Stream size                              : 13.8 MiB (0%)
  555. Language                                 : Korean
  556. Default                                  : No
  557. Forced                                   : No
  558. Original source medium                   : Blu-ray
  559. Text #12
  560. ID                                       : 29
  561. ID in the original source medium         : 4777 (0x12A9)
  562. Format                                   : PGS
  563. Muxing mode                              : zlib
  564. Codec ID                                 : S_HDMV/PGS
  565. Codec ID/Info                            : Picture based subtitle format used on BDs/HD-DVDs
  566. Duration                                 : 2 h 22 min
  567. Bit rate                                 : 21.9 kb/s
  568. Frame rate                               : 0.295 FPS
  569. Count of elements                        : 2518
  570. Stream size                              : 22.2 MiB (0%)
  571. Language                                 : Spanish
  572. Default                                  : No
  573. Forced                                   : No
  574. Original source medium                   : Blu-ray
  575. Text #13
  576. ID                                       : 30
  577. ID in the original source medium         : 4778 (0x12AA)
  578. Format                                   : PGS
  579. Muxing mode                              : zlib
  580. Codec ID                                 : S_HDMV/PGS
  581. Codec ID/Info                            : Picture based subtitle format used on BDs/HD-DVDs
  582. Duration                                 : 2 h 22 min
  583. Bit rate                                 : 20.8 kb/s
  584. Frame rate                               : 0.293 FPS
  585. Count of elements                        : 2500
  586. Stream size                              : 21.1 MiB (0%)
  587. Language                                 : Portuguese
  588. Default                                  : No
  589. Forced                                   : No
  590. Original source medium                   : Blu-ray
  591. Text #14
  592. ID                                       : 31
  593. ID in the original source medium         : 4779 (0x12AB)
  594. Format                                   : PGS
  595. Muxing mode                              : zlib
  596. Codec ID                                 : S_HDMV/PGS
  597. Codec ID/Info                            : Picture based subtitle format used on BDs/HD-DVDs
  598. Duration                                 : 2 h 22 min
  599. Bit rate                                 : 11.0 kb/s
  600. Frame rate                               : 0.296 FPS
  601. Count of elements                        : 2524
  602. Stream size                              : 11.2 MiB (0%)
  603. Language                                 : Arabic
  604. Default                                  : No
  605. Forced                                   : No
  606. Original source medium                   : Blu-ray
  607. Text #15
  608. ID                                       : 32
  609. ID in the original source medium         : 4780 (0x12AC)
  610. Format                                   : PGS
  611. Muxing mode                              : zlib
  612. Codec ID                                 : S_HDMV/PGS
  613. Codec ID/Info                            : Picture based subtitle format used on BDs/HD-DVDs
  614. Duration                                 : 2 h 22 min
  615. Bit rate                                 : 19.7 kb/s
  616. Frame rate                               : 0.293 FPS
  617. Count of elements                        : 2500
  618. Stream size                              : 20.0 MiB (0%)
  619. Language                                 : Czech
  620. Default                                  : No
  621. Forced                                   : No
  622. Original source medium                   : Blu-ray
  623. Text #16
  624. ID                                       : 33
  625. ID in the original source medium         : 4781 (0x12AD)
  626. Format                                   : PGS
  627. Muxing mode                              : zlib
  628. Codec ID                                 : S_HDMV/PGS
  629. Codec ID/Info                            : Picture based subtitle format used on BDs/HD-DVDs
  630. Duration                                 : 2 h 22 min
  631. Bit rate                                 : 17.2 kb/s
  632. Frame rate                               : 0.291 FPS
  633. Count of elements                        : 2476
  634. Stream size                              : 17.5 MiB (0%)
  635. Language                                 : Danish
  636. Default                                  : No
  637. Forced                                   : No
  638. Original source medium                   : Blu-ray
  639. Text #17
  640. ID                                       : 34
  641. ID in the original source medium         : 4782 (0x12AE)
  642. Format                                   : PGS
  643. Muxing mode                              : zlib
  644. Codec ID                                 : S_HDMV/PGS
  645. Codec ID/Info                            : Picture based subtitle format used on BDs/HD-DVDs
  646. Duration                                 : 2 h 22 min
  647. Bit rate                                 : 18.9 kb/s
  648. Frame rate                               : 0.294 FPS
  649. Count of elements                        : 2502
  650. Stream size                              : 19.2 MiB (0%)
  651. Language                                 : Finnish
  652. Default                                  : No
  653. Forced                                   : No
  654. Original source medium                   : Blu-ray
  655. Text #18
  656. ID                                       : 35
  657. ID in the original source medium         : 4783 (0x12AF)
  658. Format                                   : PGS
  659. Muxing mode                              : zlib
  660. Codec ID                                 : S_HDMV/PGS
  661. Codec ID/Info                            : Picture based subtitle format used on BDs/HD-DVDs
  662. Duration                                 : 2 h 22 min
  663. Bit rate                                 : 18.4 kb/s
  664. Frame rate                               : 0.245 FPS
  665. Count of elements                        : 2086
  666. Stream size                              : 18.7 MiB (0%)
  667. Language                                 : Norwegian
  668. Default                                  : No
  669. Forced                                   : No
  670. Original source medium                   : Blu-ray
  671. Text #19
  672. ID                                       : 36
  673. ID in the original source medium         : 4784 (0x12B0)
  674. Format                                   : PGS
  675. Muxing mode                              : zlib
  676. Codec ID                                 : S_HDMV/PGS
  677. Codec ID/Info                            : Picture based subtitle format used on BDs/HD-DVDs
  678. Duration                                 : 2 h 22 min
  679. Bit rate                                 : 18.2 kb/s
  680. Frame rate                               : 0.285 FPS
  681. Count of elements                        : 2428
  682. Stream size                              : 18.5 MiB (0%)
  683. Language                                 : Polish
  684. Default                                  : No
  685. Forced                                   : No
  686. Original source medium                   : Blu-ray
  687. Text #20
  688. ID                                       : 37
  689. ID in the original source medium         : 4785 (0x12B1)
  690. Format                                   : PGS
  691. Muxing mode                              : zlib
  692. Codec ID                                 : S_HDMV/PGS
  693. Codec ID/Info                            : Picture based subtitle format used on BDs/HD-DVDs
  694. Duration                                 : 2 h 22 min
  695. Bit rate                                 : 18.2 kb/s
  696. Frame rate                               : 0.292 FPS
  697. Count of elements                        : 2492
  698. Stream size                              : 18.5 MiB (0%)
  699. Language                                 : Russian
  700. Default                                  : No
  701. Forced                                   : No
  702. Original source medium                   : Blu-ray
  703. Text #21
  704. ID                                       : 38
  705. ID in the original source medium         : 4786 (0x12B2)
  706. Format                                   : PGS
  707. Muxing mode                              : zlib
  708. Codec ID                                 : S_HDMV/PGS
  709. Codec ID/Info                            : Picture based subtitle format used on BDs/HD-DVDs
  710. Duration                                 : 2 h 20 min
  711. Bit rate                                 : 19.0 kb/s
  712. Frame rate                               : 0.196 FPS
  713. Count of elements                        : 1654
  714. Stream size                              : 19.1 MiB (0%)
  715. Language                                 : Swedish
  716. Default                                  : No
  717. Forced                                   : No
  718. Original source medium                   : Blu-ray
  719. Text #22
  720. ID                                       : 39
  721. ID in the original source medium         : 4787 (0x12B3)
  722. Format                                   : PGS
  723. Muxing mode                              : zlib
  724. Codec ID                                 : S_HDMV/PGS
  725. Codec ID/Info                            : Picture based subtitle format used on BDs/HD-DVDs
  726. Duration                                 : 2 h 22 min
  727. Bit rate                                 : 20.6 kb/s
  728. Frame rate                               : 0.295 FPS
  729. Count of elements                        : 2512
  730. Stream size                              : 21.0 MiB (0%)
  731. Language                                 : Turkish
  732. Default                                  : No
  733. Forced                                   : No
  734. Original source medium                   : Blu-ray
  735. Text #23
  736. ID                                       : 40
  737. ID in the original source medium         : 4788 (0x12B4)
  738. Format                                   : PGS
  739. Muxing mode                              : zlib
  740. Codec ID                                 : S_HDMV/PGS
  741. Codec ID/Info                            : Picture based subtitle format used on BDs/HD-DVDs
  742. Duration                                 : 1 h 20 min
  743. Bit rate                                 : 21 b/s
  744. Frame rate                               : 0.001 FPS
  745. Count of elements                        : 4
  746. Stream size                              : 12.6 KiB (0%)
  747. Language                                 : French
  748. Default                                  : No
  749. Forced                                   : No
  750. Original source medium                   : Blu-ray
  751. Text #24
  752. ID                                       : 41
  753. ID in the original source medium         : 4789 (0x12B5)
  754. Format                                   : PGS
  755. Muxing mode                              : zlib
  756. Codec ID                                 : S_HDMV/PGS
  757. Codec ID/Info                            : Picture based subtitle format used on BDs/HD-DVDs
  758. Duration                                 : 1 h 56 min
  759. Bit rate                                 : 198 b/s
  760. Frame rate                               : 0.003 FPS
  761. Count of elements                        : 22
  762. Stream size                              : 170 KiB (0%)
  763. Language                                 : Italian
  764. Default                                  : No
  765. Forced                                   : No
  766. Original source medium                   : Blu-ray
  767. Text #25
  768. ID                                       : 42
  769. ID in the original source medium         : 4790 (0x12B6)
  770. Format                                   : PGS
  771. Muxing mode                              : zlib
  772. Codec ID                                 : S_HDMV/PGS
  773. Codec ID/Info                            : Picture based subtitle format used on BDs/HD-DVDs
  774. Duration                                 : 1 h 56 min
  775. Bit rate                                 : 264 b/s
  776. Frame rate                               : 0.004 FPS
  777. Count of elements                        : 28
  778. Stream size                              : 227 KiB (0%)
  779. Language                                 : Spanish
  780. Default                                  : No
  781. Forced                                   : No
  782. Original source medium                   : Blu-ray
  783. Text #26
  784. ID                                       : 43
  785. ID in the original source medium         : 4791 (0x12B7)
  786. Format                                   : PGS
  787. Muxing mode                              : zlib
  788. Codec ID                                 : S_HDMV/PGS
  789. Codec ID/Info                            : Picture based subtitle format used on BDs/HD-DVDs
  790. Duration                                 : 1 h 56 min
  791. Bit rate                                 : 168 b/s
  792. Frame rate                               : 0.003 FPS
  793. Count of elements                        : 18
  794. Stream size                              : 144 KiB (0%)
  795. Language                                 : Portuguese
  796. Default                                  : No
  797. Forced                                   : No
  798. Original source medium                   : Blu-ray
  799. Text #27
  800. ID                                       : 44
  801. ID in the original source medium         : 4792 (0x12B8)
  802. Format                                   : PGS
  803. Muxing mode                              : zlib
  804. Codec ID                                 : S_HDMV/PGS
  805. Codec ID/Info                            : Picture based subtitle format used on BDs/HD-DVDs
  806. Duration                                 : 1 h 56 min
  807. Bit rate                                 : 161 b/s
  808. Frame rate                               : 0.002 FPS
  809. Count of elements                        : 16
  810. Stream size                              : 138 KiB (0%)
  811. Language                                 : Czech
  812. Default                                  : No
  813. Forced                                   : No
  814. Original source medium                   : Blu-ray
  815. Text #28
  816. ID                                       : 45
  817. ID in the original source medium         : 4793 (0x12B9)
  818. Format                                   : PGS
  819. Muxing mode                              : zlib
  820. Codec ID                                 : S_HDMV/PGS
  821. Codec ID/Info                            : Picture based subtitle format used on BDs/HD-DVDs
  822. Duration                                 : 1 h 29 min
  823. Bit rate                                 : 161 b/s
  824. Frame rate                               : 0.003 FPS
  825. Count of elements                        : 14
  826. Stream size                              : 106 KiB (0%)
  827. Language                                 : Russian
  828. Default                                  : No
  829. Forced                                   : No
  830. Original source medium                   : Blu-ray
  831. Text #29
  832. ID                                       : 46
  833. ID in the original source medium         : 4794 (0x12BA)
  834. Format                                   : PGS
  835. Muxing mode                              : zlib
  836. Codec ID                                 : S_HDMV/PGS
  837. Codec ID/Info                            : Picture based subtitle format used on BDs/HD-DVDs
  838. Duration                                 : 1 h 56 min
  839. Bit rate                                 : 205 b/s
  840. Frame rate                               : 0.003 FPS
  841. Count of elements                        : 24
  842. Stream size                              : 176 KiB (0%)
  843. Language                                 : Turkish
  844. Default                                  : No
  845. Forced                                   : No
  846. Original source medium                   : Blu-ray
  847. Text #30
  848. ID                                       : 47
  849. ID in the original source medium         : 4795 (0x12BB)
  850. Format                                   : PGS
  851. Muxing mode                              : zlib
  852. Codec ID                                 : S_HDMV/PGS
  853. Codec ID/Info                            : Picture based subtitle format used on BDs/HD-DVDs
  854. Duration                                 : 2 h 10 min
  855. Bit rate                                 : 16.3 kb/s
  856. Frame rate                               : 0.284 FPS
  857. Count of elements                        : 2224
  858. Stream size                              : 15.2 MiB (0%)
  859. Language                                 : Japanese
  860. Default                                  : No
  861. Forced                                   : No
  862. Original source medium                   : Blu-ray
  863. Text #31
  864. ID                                       : 48
  865. ID in the original source medium         : 4796 (0x12BC)
  866. Format                                   : PGS
  867. Muxing mode                              : zlib
  868. Codec ID                                 : S_HDMV/PGS
  869. Codec ID/Info                            : Picture based subtitle format used on BDs/HD-DVDs
  870. Duration                                 : 1 h 18 min
  871. Bit rate                                 : 119 b/s
  872. Frame rate                               : 0.011 FPS
  873. Count of elements                        : 54
  874. Stream size                              : 68.7 KiB (0%)
  875. Language                                 : Japanese
  876. Default                                  : No
  877. Forced                                   : No
  878. Original source medium                   : Blu-ray
  879. Menu
  880. 00:00:00.000                             : en:Chapter 01
  881. 00:11:15.925                             : en:Chapter 02
  882. 00:20:00.282                             : en:Chapter 03
  883. 00:30:08.431                             : en:Chapter 04
  884. 00:39:20.274                             : en:Chapter 05
  885. 00:48:56.433                             : en:Chapter 06
  886. 00:59:02.372                             : en:Chapter 07
  887. 01:08:56.632                             : en:Chapter 08
  888. 01:17:33.899                             : en:Chapter 09
  889. 01:28:35.143                             : en:Chapter 10
  890. 01:40:46.749                             : en:Chapter 11
  891. 01:50:54.522                             : en:Chapter 12
  892. 02:00:52.328                             : en:Chapter 13
  893. 02:10:12.513                             : en:Chapter 14
  894. 02:12:48.794                             : en:Chapter 15
复制代码




                                       
                                       

                                       
                                       
                                       




Man.Of.Steel.2013.PROPER.2160p.BluRay.REMUX.HEVC.DTS-HD.MA.TrueHD.7.1.Atmos-FGT.torrent (90.99 KB, 下载次数: 1)
回复

使用道具 举报

您需要登录后才可以回帖 登录 | 立即注册

本版积分规则

QQ|Archiver|手机版|小黑屋|蓝光电影网

GMT+8, 2023-2-8 02:15 , Processed in 0.060047 second(s), 28 queries .

Powered by Discuz! X3.4

Copyright © 2001-2020, Tencent Cloud.

快速回复 返回顶部 返回列表