找回密码
 立即注册

QQ登录

只需一步,快速开始

查看: 100|回复: 0

[其他] 金发梦露 Blonde.2022.2160p.NF.WEB-DL.DDP5.1.Atmos.DV.MP4.x265-DVSUX 23.39GB

[复制链接]

0

精华

0

好友

2

听众

新手上路

Rank: 2

蓝光币
5
发表于 2022-12-1 07:52:05 | 显示全部楼层 |阅读模式
[img][/img]

◎标  题 金发梦露
◎译  名 金发女郎 / 金发美人
◎片  名 Blonde
◎年  代 2022
◎产  地 美国
◎类  别 剧情 / 传记
◎语  言 英语
◎上映日期 2022-09-08(威尼斯电影节) / 2022-09-16(美国) / 2022-09-28(美国网络)
◎IMDb评分 6.3/10 (1693人评价)
◎IMDb链接 https://www.imdb.com/title/tt1655389/
◎豆瓣链接 https://movie.douban.com/subject/4840389/
◎片  长 166分钟
◎导  演 安德鲁·多米尼克 Andrew Dominik
◎编  剧 安德鲁·多米尼克 Andrew Dominik
       乔伊斯·卡罗尔·欧茨 Joyce Carol Oates
◎演  员 安娜·德·阿玛斯 Ana de Armas
       艾德里安·布洛迪 Adrien Brody
       鲍比·坎纳瓦尔 Bobby Cannavale
       朱丽安妮·尼科尔森 Julianne Nicholson
       泽维尔·塞缪尔 Xavier Samuel
       埃文·威廉斯 Evan Williams
       加瑞特·迪拉胡特 Garret Dillahunt
       萨拉·帕克斯顿 Sara Paxton
       斯科特·麦克纳里 Scoot McNairy
       托比·哈斯 Toby Huss
       瑞贝卡·薇索基 Rebecca Wisocky
       露西·德维托 Lucy DeVito
       凯瑟琳·丹特 Catherine Dent
       斯宾塞·加雷特 Spencer Garrett
       丹·巴特勒 Dan Butler
       海雷·韦伯 Haley Webb
       埃登·里格尔 Eden Riegel
       耐德·巴拉米 Ned Bellamy
       泰格·伦岩 Tygh Runyan
       卡斯珀·菲利普森 Caspar Phillipson
       大卫·沃肖夫斯基 David Warshofsky
       科琳·福伊 Colleen Foy
       拉维尔·伊斯亚诺夫 Ravil Isyanov
       克里斯·莱蒙 Chris Lemmon
       泰姆·温特斯 Time Winters
       桑尼·瓦利森蒂 Sonny Valicenti
       朱迪·凯恩 Judy Kain
       蒂姆伦森 Tim Ransom
       萨尔·兰迪 Sal Landi
       莉莉·费舍尔 Lily Fisher
       史蒂夫·班诺斯 Steve Bannos
       罗伯·奈格尔 Rob Nagle
       迈克尔·马西尼 Michael Masini
       Ethan Cohn Ethan Cohn
       埃姆利·贝赫什蒂 Emil Beheshti
       米娅·麦戈文·扎伊尼 Mia McGovern Zaini
       埃里克·马特尼 Eric Matheny
       斯科特·希斯洛普 Scott Hislop
       安德鲁·塔切尔 Andrew Thacher
       瑞安·文森特 Ryan Vincent
       多米尼克·李德 Dominic Leeder
       Lidia Sabljic Lidia Sabljic
       布莱恩·科诺瓦尔 Brian Konowal
       塔特姆·尚客 Tatum Shank
       Marshall Watson Marshall Watson
       特蕾莎·雷扎迪 Tereza Rizzardi
       琳达·迈克尔斯 Linda Michaels
       亚历山德罗·佩德拉齐 Alessandro Pedrazzi
       亚历山大·卡内拉科斯 Alexander Kanellakos
       布拉德·皮特 Brad Pitt
       蔡斯·欧文 Chayse Irvin
       詹妮弗·约翰逊 Jennifer Johnson
◎简  介

  《金发梦露》改编自乔伊思·卡罗尔·奥特兹的畅销小说,大胆地再现了好莱坞最不朽的偶像之一玛丽莲·梦露的生活。从她作为诺玛·简的动荡童年,到她的明星地位和爱情纠葛,《金发梦露》模糊了事实和虚构的界限,探索了她的公众自我和私人自我之间日益扩大的割裂。该片由安德鲁·多米尼克担任编剧和导演,由安娜·德·阿玛斯领衔主演,其他演员阵容包括鲍比·坎纳瓦尔、艾德里安·布洛迪、朱丽安妮·尼科尔森、泽维尔·塞缪尔和埃文·威廉斯。
  1. Video
  2. ID                                       : 1
  3. Format                                   : HEVC
  4. Format/Info                              : High Efficiency Video Coding
  5. Format profile                           : Main [email protected]@Main
  6. HDR format                               : Dolby Vision, Version 1.0, dvhe.05.06, BL+RPU
  7. Codec ID                                 : dvhe
  8. Codec ID/Info                            : High Efficiency Video Coding with Dolby Vision
  9. Duration                                 : 2 h 47 min
  10. Bit rate                                 : 19.2 Mb/s
  11. Width                                    : 3 840 pixels
  12. Height                                   : 2 160 pixels
  13. Display aspect ratio                     : 16:9
  14. Frame rate mode                          : Constant
  15. Frame rate                               : 24.000 FPS
  16. Color space                              : YUV
  17. Chroma subsampling                       : 4:2:0
  18. Bit depth                                : 10 bits
  19. Bits/(Pixel*Frame)                       : 0.097
  20. Stream size                              : 22.5 GiB (96%)
  21. Default                                  : Yes
  22. Alternate group                          : 1
  23. Encoded date                             : UTC 2022-11-29 16:56:56
  24. Tagged date                              : UTC 2022-11-29 17:05:25
  25. Color range                              : Full
  26. Codec configuration box                  : hvcC+dvcC

  27. Audio
  28. ID                                       : 2
  29. Format                                   : E-AC-3 JOC
  30. Format/Info                              : Enhanced AC-3 with Joint Object Coding
  31. Commercial name                          : Dolby Digital Plus with Dolby Atmos
  32. Codec ID                                 : ec-3
  33. Duration                                 : 2 h 47 min
  34. Bit rate mode                            : Constant
  35. Bit rate                                 : 768 kb/s
  36. Maximum bit rate                         : 811 kb/s
  37. Channel(s)                               : 6 channels
  38. Channel layout                           : L R C LFE Ls Rs
  39. Sampling rate                            : 48.0 kHz
  40. Frame rate                               : 31.250 FPS (1536 SPF)
  41. Compression mode                         : Lossy
  42. Stream size                              : 920 MiB (4%)
  43. Title                                    : English
  44. Language                                 : English
  45. Service kind                             : Complete Main
  46. Default                                  : Yes
  47. Alternate group                          : 1
  48. Tagged date                              : UTC 2022-11-29 17:05:25
  49. Complexity index                         : Not present / 16
  50. Number of dynamic objects                : 15
  51. Bed channel count                        : 1 channel
  52. Bed channel configuration                : LFE

  53. Text #1
  54. ID                                       : 3
  55. Format                                   : Timed Text
  56. Codec ID                                 : tx3g
  57. Duration                                 : 2 h 38 min
  58. Bit rate mode                            : Variable
  59. Bit rate                                 : 54 b/s
  60. Frame rate                               : 0.354 FPS
  61. Stream size                              : 62.5 KiB (0%)
  62. Title                                    : English
  63. Language                                 : English
  64. Forced                                   : No
  65. Encoded date                             : UTC 2022-11-29 17:05:21
  66. Tagged date                              : UTC 2022-11-29 17:05:25

  67. Text #2
  68. ID                                       : 4
  69. Format                                   : Timed Text
  70. Codec ID                                 : tx3g
  71. Duration                                 : 2 h 37 min
  72. Bit rate mode                            : Variable
  73. Bit rate                                 : 42 b/s
  74. Frame rate                               : 0.280 FPS
  75. Stream size                              : 48.6 KiB (0%)
  76. Title                                    : English
  77. Language                                 : English
  78. Forced                                   : No
  79. Encoded date                             : UTC 2022-11-29 17:05:22
  80. Tagged date                              : UTC 2022-11-29 17:05:25

  81. Text #3
  82. ID                                       : 5
  83. Format                                   : Timed Text
  84. Codec ID                                 : tx3g
  85. Duration                                 : 2 h 45 min
  86. Bit rate mode                            : Variable
  87. Bit rate                                 : 59 b/s
  88. Frame rate                               : 0.284 FPS
  89. Stream size                              : 71.9 KiB (0%)
  90. Title                                    : Arabic
  91. Language                                 : Arabic
  92. Forced                                   : No
  93. Encoded date                             : UTC 2022-11-29 17:05:22
  94. Tagged date                              : UTC 2022-11-29 17:05:25

  95. Text #4
  96. ID                                       : 6
  97. Format                                   : Timed Text
  98. Codec ID                                 : tx3g
  99. Duration                                 : 2 h 45 min
  100. Bit rate mode                            : Variable
  101. Bit rate                                 : 38 b/s
  102. Frame rate                               : 0.275 FPS
  103. Stream size                              : 46.3 KiB (0%)
  104. Title                                    : Chinese-Simplified
  105. Language                                 : Chinese
  106. Forced                                   : No
  107. Encoded date                             : UTC 2022-11-29 17:05:22
  108. Tagged date                              : UTC 2022-11-29 17:05:25

  109. Text #5
  110. ID                                       : 7
  111. Format                                   : Timed Text
  112. Codec ID                                 : tx3g
  113. Duration                                 : 2 h 45 min
  114. Bit rate mode                            : Variable
  115. Bit rate                                 : 37 b/s
  116. Frame rate                               : 0.284 FPS
  117. Stream size                              : 45.0 KiB (0%)
  118. Title                                    : Chinese-Traditional
  119. Language                                 : Chinese
  120. Forced                                   : No
  121. Encoded date                             : UTC 2022-11-29 17:05:22
  122. Tagged date                              : UTC 2022-11-29 17:05:25

  123. Text #6
  124. ID                                       : 8
  125. Format                                   : Timed Text
  126. Codec ID                                 : tx3g
  127. Duration                                 : 2 h 45 min
  128. Bit rate mode                            : Variable
  129. Bit rate                                 : 38 b/s
  130. Frame rate                               : 0.273 FPS
  131. Stream size                              : 45.9 KiB (0%)
  132. Title                                    : Croatian
  133. Language                                 : Croatian
  134. Forced                                   : No
  135. Encoded date                             : UTC 2022-11-29 17:05:22
  136. Tagged date                              : UTC 2022-11-29 17:05:25

  137. Text #7
  138. ID                                       : 9
  139. Format                                   : Timed Text
  140. Codec ID                                 : tx3g
  141. Duration                                 : 2 h 45 min
  142. Bit rate mode                            : Variable
  143. Bit rate                                 : 38 b/s
  144. Frame rate                               : 0.272 FPS
  145. Stream size                              : 46.7 KiB (0%)
  146. Title                                    : Czech
  147. Language                                 : Czech
  148. Forced                                   : No
  149. Encoded date                             : UTC 2022-11-29 17:05:22
  150. Tagged date                              : UTC 2022-11-29 17:05:25

  151. Text #8
  152. ID                                       : 10
  153. Format                                   : Timed Text
  154. Codec ID                                 : tx3g
  155. Duration                                 : 2 h 45 min
  156. Bit rate mode                            : Variable
  157. Bit rate                                 : 41 b/s
  158. Frame rate                               : 0.267 FPS
  159. Stream size                              : 49.4 KiB (0%)
  160. Title                                    : Danish
  161. Language                                 : Danish
  162. Forced                                   : No
  163. Encoded date                             : UTC 2022-11-29 17:05:22
  164. Tagged date                              : UTC 2022-11-29 17:05:25

  165. Text #9
  166. ID                                       : 11
  167. Format                                   : Timed Text
  168. Codec ID                                 : tx3g
  169. Duration                                 : 2 h 45 min
  170. Bit rate mode                            : Variable
  171. Bit rate                                 : 35 b/s
  172. Frame rate                               : 0.258 FPS
  173. Stream size                              : 42.2 KiB (0%)
  174. Title                                    : Dutch
  175. Language                                 : Dutch
  176. Forced                                   : No
  177. Encoded date                             : UTC 2022-11-29 17:05:22
  178. Tagged date                              : UTC 2022-11-29 17:05:25

  179. Text #10
  180. ID                                       : 12
  181. Format                                   : Timed Text
  182. Codec ID                                 : tx3g
  183. Duration                                 : 2 h 45 min
  184. Bit rate mode                            : Variable
  185. Bit rate                                 : 43 b/s
  186. Frame rate                               : 0.270 FPS
  187. Stream size                              : 52.4 KiB (0%)
  188. Title                                    : Filipino
  189. Language                                 : fil
  190. Forced                                   : No
  191. Encoded date                             : UTC 2022-11-29 17:05:22
  192. Tagged date                              : UTC 2022-11-29 17:05:25

  193. Text #11
  194. ID                                       : 13
  195. Format                                   : Timed Text
  196. Codec ID                                 : tx3g
  197. Duration                                 : 2 h 45 min
  198. Bit rate mode                            : Variable
  199. Bit rate                                 : 39 b/s
  200. Frame rate                               : 0.263 FPS
  201. Stream size                              : 47.5 KiB (0%)
  202. Title                                    : Finnish
  203. Language                                 : Finnish
  204. Forced                                   : No
  205. Encoded date                             : UTC 2022-11-29 17:05:22
  206. Tagged date                              : UTC 2022-11-29 17:05:25

  207. Text #12
  208. ID                                       : 14
  209. Format                                   : Timed Text
  210. Codec ID                                 : tx3g
  211. Duration                                 : 2 h 45 min
  212. Bit rate mode                            : Variable
  213. Bit rate                                 : 39 b/s
  214. Frame rate                               : 0.275 FPS
  215. Stream size                              : 47.7 KiB (0%)
  216. Title                                    : French
  217. Language                                 : French
  218. Forced                                   : No
  219. Encoded date                             : UTC 2022-11-29 17:05:22
  220. Tagged date                              : UTC 2022-11-29 17:05:25

  221. Text #13
  222. ID                                       : 15
  223. Format                                   : Timed Text
  224. Codec ID                                 : tx3g
  225. Duration                                 : 2 h 45 min
  226. Bit rate mode                            : Variable
  227. Bit rate                                 : 39 b/s
  228. Frame rate                               : 0.262 FPS
  229. Stream size                              : 47.8 KiB (0%)
  230. Title                                    : German
  231. Language                                 : German
  232. Forced                                   : No
  233. Encoded date                             : UTC 2022-11-29 17:05:23
  234. Tagged date                              : UTC 2022-11-29 17:05:25

  235. Text #14
  236. ID                                       : 16
  237. Format                                   : Timed Text
  238. Codec ID                                 : tx3g
  239. Duration                                 : 2 h 45 min
  240. Bit rate mode                            : Variable
  241. Bit rate                                 : 64 b/s
  242. Frame rate                               : 0.275 FPS
  243. Stream size                              : 77.2 KiB (0%)
  244. Title                                    : Greek
  245. Language                                 : Greek
  246. Forced                                   : No
  247. Encoded date                             : UTC 2022-11-29 17:05:23
  248. Tagged date                              : UTC 2022-11-29 17:05:25

  249. Text #15
  250. ID                                       : 17
  251. Format                                   : Timed Text
  252. Codec ID                                 : tx3g
  253. Duration                                 : 2 h 45 min
  254. Bit rate mode                            : Variable
  255. Bit rate                                 : 55 b/s
  256. Frame rate                               : 0.274 FPS
  257. Stream size                              : 66.8 KiB (0%)
  258. Title                                    : Hebrew
  259. Language                                 : Hebrew
  260. Forced                                   : No
  261. Encoded date                             : UTC 2022-11-29 17:05:23
  262. Tagged date                              : UTC 2022-11-29 17:05:25

  263. Text #16
  264. ID                                       : 18
  265. Format                                   : Timed Text
  266. Codec ID                                 : tx3g
  267. Duration                                 : 2 h 45 min
  268. Bit rate mode                            : Variable
  269. Bit rate                                 : 41 b/s
  270. Frame rate                               : 0.270 FPS
  271. Stream size                              : 50.2 KiB (0%)
  272. Title                                    : Hungarian
  273. Language                                 : Hungarian
  274. Forced                                   : No
  275. Encoded date                             : UTC 2022-11-29 17:05:23
  276. Tagged date                              : UTC 2022-11-29 17:05:25

  277. Text #17
  278. ID                                       : 19
  279. Format                                   : Timed Text
  280. Codec ID                                 : tx3g
  281. Duration                                 : 2 h 45 min
  282. Bit rate mode                            : Variable
  283. Bit rate                                 : 41 b/s
  284. Frame rate                               : 0.273 FPS
  285. Stream size                              : 49.6 KiB (0%)
  286. Title                                    : Indonesian
  287. Language                                 : Indonesian
  288. Forced                                   : No
  289. Encoded date                             : UTC 2022-11-29 17:05:23
  290. Tagged date                              : UTC 2022-11-29 17:05:25

  291. Text #18
  292. ID                                       : 20
  293. Format                                   : Timed Text
  294. Codec ID                                 : tx3g
  295. Duration                                 : 2 h 45 min
  296. Bit rate mode                            : Variable
  297. Bit rate                                 : 39 b/s
  298. Frame rate                               : 0.263 FPS
  299. Stream size                              : 46.8 KiB (0%)
  300. Title                                    : Italian
  301. Language                                 : Italian
  302. Forced                                   : No
  303. Encoded date                             : UTC 2022-11-29 17:05:23
  304. Tagged date                              : UTC 2022-11-29 17:05:25

  305. Text #19
  306. ID                                       : 21
  307. Format                                   : Timed Text
  308. Codec ID                                 : tx3g
  309. Duration                                 : 2 h 45 min
  310. Bit rate mode                            : Variable
  311. Bit rate                                 : 37 b/s
  312. Frame rate                               : 0.260 FPS
  313. Stream size                              : 45.5 KiB (0%)
  314. Title                                    : Japanese
  315. Language                                 : Japanese
  316. Forced                                   : No
  317. Encoded date                             : UTC 2022-11-29 17:05:23
  318. Tagged date                              : UTC 2022-11-29 17:05:25

  319. Text #20
  320. ID                                       : 22
  321. Format                                   : Timed Text
  322. Codec ID                                 : tx3g
  323. Duration                                 : 2 h 45 min
  324. Bit rate mode                            : Variable
  325. Bit rate                                 : 42 b/s
  326. Frame rate                               : 0.275 FPS
  327. Stream size                              : 51.0 KiB (0%)
  328. Title                                    : Korean
  329. Language                                 : Korean
  330. Forced                                   : No
  331. Encoded date                             : UTC 2022-11-29 17:05:23
  332. Tagged date                              : UTC 2022-11-29 17:05:25

  333. Text #21
  334. ID                                       : 23
  335. Format                                   : Timed Text
  336. Codec ID                                 : tx3g
  337. Duration                                 : 2 h 45 min
  338. Bit rate mode                            : Variable
  339. Bit rate                                 : 40 b/s
  340. Frame rate                               : 0.273 FPS
  341. Stream size                              : 48.4 KiB (0%)
  342. Title                                    : Malay
  343. Language                                 : Malay
  344. Forced                                   : No
  345. Encoded date                             : UTC 2022-11-29 17:05:23
  346. Tagged date                              : UTC 2022-11-29 17:05:25

  347. Text #22
  348. ID                                       : 24
  349. Format                                   : Timed Text
  350. Codec ID                                 : tx3g
  351. Duration                                 : 2 h 45 min
  352. Bit rate mode                            : Variable
  353. Bit rate                                 : 38 b/s
  354. Frame rate                               : 0.269 FPS
  355. Stream size                              : 46.5 KiB (0%)
  356. Title                                    : Norwegian
  357. Language                                 : Norwegian Bokmal
  358. Forced                                   : No
  359. Encoded date                             : UTC 2022-11-29 17:05:23
  360. Tagged date                              : UTC 2022-11-29 17:05:25

  361. Text #23
  362. ID                                       : 25
  363. Format                                   : Timed Text
  364. Codec ID                                 : tx3g
  365. Duration                                 : 2 h 45 min
  366. Bit rate mode                            : Variable
  367. Bit rate                                 : 38 b/s
  368. Frame rate                               : 0.256 FPS
  369. Stream size                              : 45.8 KiB (0%)
  370. Title                                    : Polish
  371. Language                                 : Polish
  372. Forced                                   : No
  373. Encoded date                             : UTC 2022-11-29 17:05:23
  374. Tagged date                              : UTC 2022-11-29 17:05:25

  375. Text #24
  376. ID                                       : 26
  377. Format                                   : Timed Text
  378. Codec ID                                 : tx3g
  379. Duration                                 : 2 h 45 min
  380. Bit rate mode                            : Variable
  381. Bit rate                                 : 41 b/s
  382. Frame rate                               : 0.271 FPS
  383. Stream size                              : 49.4 KiB (0%)
  384. Title                                    : Portuguese
  385. Language                                 : Portuguese
  386. Forced                                   : No
  387. Encoded date                             : UTC 2022-11-29 17:05:24
  388. Tagged date                              : UTC 2022-11-29 17:05:25

  389. Text #25
  390. ID                                       : 27
  391. Format                                   : Timed Text
  392. Codec ID                                 : tx3g
  393. Duration                                 : 2 h 45 min
  394. Bit rate mode                            : Variable
  395. Bit rate                                 : 42 b/s
  396. Frame rate                               : 0.280 FPS
  397. Stream size                              : 50.4 KiB (0%)
  398. Title                                    : Portuguese-BR
  399. Language                                 : Portuguese
  400. Forced                                   : No
  401. Encoded date                             : UTC 2022-11-29 17:05:24
  402. Tagged date                              : UTC 2022-11-29 17:05:25

  403. Text #26
  404. ID                                       : 28
  405. Format                                   : Timed Text
  406. Codec ID                                 : tx3g
  407. Duration                                 : 2 h 45 min
  408. Bit rate mode                            : Variable
  409. Bit rate                                 : 45 b/s
  410. Frame rate                               : 0.273 FPS
  411. Stream size                              : 55.0 KiB (0%)
  412. Title                                    : Romanian
  413. Language                                 : Romanian
  414. Forced                                   : No
  415. Encoded date                             : UTC 2022-11-29 17:05:24
  416. Tagged date                              : UTC 2022-11-29 17:05:25

  417. Text #27
  418. ID                                       : 29
  419. Format                                   : Timed Text
  420. Codec ID                                 : tx3g
  421. Duration                                 : 2 h 45 min
  422. Bit rate mode                            : Variable
  423. Bit rate                                 : 62 b/s
  424. Frame rate                               : 0.286 FPS
  425. Stream size                              : 75.3 KiB (0%)
  426. Title                                    : Russian
  427. Language                                 : Russian
  428. Forced                                   : No
  429. Encoded date                             : UTC 2022-11-29 17:05:24
  430. Tagged date                              : UTC 2022-11-29 17:05:25

  431. Text #28
  432. ID                                       : 30
  433. Format                                   : Timed Text
  434. Codec ID                                 : tx3g
  435. Duration                                 : 2 h 38 min
  436. Bit rate mode                            : Variable
  437. Bit rate                                 : 52 b/s
  438. Frame rate                               : 0.376 FPS
  439. Stream size                              : 59.9 KiB (0%)
  440. Title                                    : Spanish
  441. Language                                 : Spanish
  442. Forced                                   : No
  443. Encoded date                             : UTC 2022-11-29 17:05:24
  444. Tagged date                              : UTC 2022-11-29 17:05:25

  445. Text #29
  446. ID                                       : 31
  447. Format                                   : Timed Text
  448. Codec ID                                 : tx3g
  449. Duration                                 : 2 h 37 min
  450. Bit rate mode                            : Variable
  451. Bit rate                                 : 44 b/s
  452. Frame rate                               : 0.319 FPS
  453. Stream size                              : 51.2 KiB (0%)
  454. Title                                    : Spanish
  455. Language                                 : Spanish
  456. Forced                                   : No
  457. Encoded date                             : UTC 2022-11-29 17:05:24
  458. Tagged date                              : UTC 2022-11-29 17:05:25

  459. Text #30
  460. ID                                       : 32
  461. Format                                   : Timed Text
  462. Codec ID                                 : tx3g
  463. Duration                                 : 2 h 45 min
  464. Bit rate mode                            : Variable
  465. Bit rate                                 : 41 b/s
  466. Frame rate                               : 0.271 FPS
  467. Stream size                              : 49.5 KiB (0%)
  468. Title                                    : Spanish
  469. Language                                 : Spanish
  470. Forced                                   : No
  471. Encoded date                             : UTC 2022-11-29 17:05:24
  472. Tagged date                              : UTC 2022-11-29 17:05:25

  473. Text #31
  474. ID                                       : 33
  475. Format                                   : Timed Text
  476. Codec ID                                 : tx3g
  477. Duration                                 : 2 h 45 min
  478. Bit rate mode                            : Variable
  479. Bit rate                                 : 39 b/s
  480. Frame rate                               : 0.274 FPS
  481. Stream size                              : 47.7 KiB (0%)
  482. Title                                    : Spanish-Basque
  483. Language                                 : Basque
  484. Forced                                   : No
  485. Encoded date                             : UTC 2022-11-29 17:05:24
  486. Tagged date                              : UTC 2022-11-29 17:05:25

  487. Text #32
  488. ID                                       : 34
  489. Format                                   : Timed Text
  490. Codec ID                                 : tx3g
  491. Duration                                 : 2 h 45 min
  492. Bit rate mode                            : Variable
  493. Bit rate                                 : 42 b/s
  494. Frame rate                               : 0.273 FPS
  495. Stream size                              : 50.7 KiB (0%)
  496. Title                                    : Spanish-Catalan
  497. Language                                 : Catalan
  498. Forced                                   : No
  499. Encoded date                             : UTC 2022-11-29 17:05:24
  500. Tagged date                              : UTC 2022-11-29 17:05:25

  501. Text #33
  502. ID                                       : 35
  503. Format                                   : Timed Text
  504. Codec ID                                 : tx3g
  505. Duration                                 : 2 h 45 min
  506. Bit rate mode                            : Variable
  507. Bit rate                                 : 41 b/s
  508. Frame rate                               : 0.274 FPS
  509. Stream size                              : 49.3 KiB (0%)
  510. Title                                    : Spanish-EU
  511. Language                                 : Spanish
  512. Forced                                   : No
  513. Encoded date                             : UTC 2022-11-29 17:05:24
  514. Tagged date                              : UTC 2022-11-29 17:05:25

  515. Text #34
  516. ID                                       : 36
  517. Format                                   : Timed Text
  518. Codec ID                                 : tx3g
  519. Duration                                 : 2 h 45 min
  520. Bit rate mode                            : Variable
  521. Bit rate                                 : 40 b/s
  522. Frame rate                               : 0.274 FPS
  523. Stream size                              : 48.7 KiB (0%)
  524. Title                                    : Spanish-Galician
  525. Language                                 : Galician
  526. Forced                                   : No
  527. Encoded date                             : UTC 2022-11-29 17:05:25
  528. Tagged date                              : UTC 2022-11-29 17:05:25

  529. Text #35
  530. ID                                       : 37
  531. Format                                   : Timed Text
  532. Codec ID                                 : tx3g
  533. Duration                                 : 2 h 45 min
  534. Bit rate mode                            : Variable
  535. Bit rate                                 : 39 b/s
  536. Frame rate                               : 0.263 FPS
  537. Stream size                              : 47.4 KiB (0%)
  538. Title                                    : Swedish
  539. Language                                 : Swedish
  540. Forced                                   : No
  541. Encoded date                             : UTC 2022-11-29 17:05:25
  542. Tagged date                              : UTC 2022-11-29 17:05:25

  543. Text #36
  544. ID                                       : 38
  545. Format                                   : Timed Text
  546. Codec ID                                 : tx3g
  547. Duration                                 : 2 h 45 min
  548. Bit rate mode                            : Variable
  549. Bit rate                                 : 84 b/s
  550. Frame rate                               : 0.275 FPS
  551. Stream size                              : 102 KiB (0%)
  552. Title                                    : Thai
  553. Language                                 : Thai
  554. Forced                                   : No
  555. Encoded date                             : UTC 2022-11-29 17:05:25
  556. Tagged date                              : UTC 2022-11-29 17:05:25

  557. Text #37
  558. ID                                       : 39
  559. Format                                   : Timed Text
  560. Codec ID                                 : tx3g
  561. Duration                                 : 2 h 45 min
  562. Bit rate mode                            : Variable
  563. Bit rate                                 : 42 b/s
  564. Frame rate                               : 0.272 FPS
  565. Stream size                              : 50.5 KiB (0%)
  566. Title                                    : Turkish
  567. Language                                 : Turkish
  568. Forced                                   : No
  569. Encoded date                             : UTC 2022-11-29 17:05:25
  570. Tagged date                              : UTC 2022-11-29 17:05:25

  571. Text #38
  572. ID                                       : 40
  573. Format                                   : Timed Text
  574. Codec ID                                 : tx3g
  575. Duration                                 : 2 h 45 min
  576. Bit rate mode                            : Variable
  577. Bit rate                                 : 58 b/s
  578. Frame rate                               : 0.274 FPS
  579. Stream size                              : 70.5 KiB (0%)
  580. Title                                    : Ukrainian
  581. Language                                 : Ukrainian
  582. Forced                                   : No
  583. Encoded date                             : UTC 2022-11-29 17:05:25
  584. Tagged date                              : UTC 2022-11-29 17:05:25

  585. Text #39
  586. ID                                       : 41
  587. Format                                   : Timed Text
  588. Codec ID                                 : tx3g
  589. Duration                                 : 2 h 45 min
  590. Bit rate mode                            : Variable
  591. Bit rate                                 : 54 b/s
  592. Frame rate                               : 0.275 FPS
  593. Stream size                              : 66.1 KiB (0%)
  594. Title                                    : Vietnamese
  595. Language                                 : Vietnamese
  596. Forced                                   : No
  597. Encoded date                             : UTC 2022-11-29 17:05:25
  598. Tagged date                              : UTC 2022-11-29 17:05:25
复制代码




                                       
                                       

                                       
                                       
                                       




Blonde.2022.2160p.NF.WEB-DL.DDP5.1.Atmos.DV.MP4.x265-DVSUX.torrent (29.89 KB, 下载次数: 0)
回复

使用道具 举报

您需要登录后才可以回帖 登录 | 立即注册

本版积分规则

QQ|Archiver|手机版|小黑屋|蓝光电影网

GMT+8, 2023-2-8 02:28 , Processed in 0.075610 second(s), 26 queries .

Powered by Discuz! X3.4

Copyright © 2001-2020, Tencent Cloud.

快速回复 返回顶部 返回列表