找回密码
 立即注册

QQ登录

只需一步,快速开始

查看: 114|回复: 0

[UHD.HEVC] 生活多美好 Its.a.Wonderful.Life.1946.PROPER.2160p.BluRay.REMUX.HEVC.DTS-HD.MA.TrueHD.2.0-FGT 49.90GB

[复制链接]

0

精华

0

好友

2

听众

新手上路

Rank: 2

蓝光币
5
发表于 2022-11-30 07:52:14 | 显示全部楼层 |阅读模式
[img][/img]

◎标  题 生活多美好
◎译  名 莫负少年头(港) / 风云人物(台) / 美满人生(澳) / 美好人生 / 哀乐人生 / 美好生活 / Frank Capra's It's a Wonderful Life
◎片  名 It's a Wonderful Life
◎年  代 1946
◎产  地 美国
◎类  别 剧情 / 爱情 / 奇幻
◎语  言 英语 / 法语
◎上映日期 1946-12-20(纽约首映)
◎IMDb评分 8.6/10 (426916人评价)
◎IMDb链接 https://www.imdb.com/title/tt0038650/
◎豆瓣评分 9.3/10 (78375人评价)
◎豆瓣链接 https://movie.douban.com/subject/1293749/
◎片  长 130分钟
◎导  演 弗兰克·卡普拉 Frank Capra
◎编  剧 弗朗西丝·古德里奇 Frances Goodrich
       艾伯特·哈克特 Albert Hackett
       弗兰克·卡普拉 Frank Capra
       乔·斯沃林 Jo Swerling
       菲利普·范多伦·斯特恩 Philip Van Doren Stern
       迈克尔·威尔逊 Michael Wilson
◎演  员 詹姆斯·斯图尔特 James Stewart
       唐娜·里德 Donna Reed
       莱昂纳尔·巴里摩尔 Lionel Barrymore
       托马斯·米切尔 Thomas Mitchell
       亨利·崔佛斯 Henry Travers
       比尤拉·邦蒂 Beulah Bondi
       弗兰克·费伦 Frank Faylen
       沃德·邦德 Ward Bond
       格洛丽亚·格雷厄姆 Gloria Grahame
       H.B.沃纳 H.B. Warner
       弗兰克·艾伯森 Frank Albertson
       托德·卡恩茨 Todd Karns
       萨缪尔·S·辛兹 Samuel S. Hinds
       玛丽特琳 Mary Treen
       弗吉妮娅·巴顿 Virginia Patton
       查尔斯·威廉姆斯 Charles Williams
       萨拉·爱德华兹 Sarah Edwards
       威廉·埃德蒙兹 William Edmunds
       莉莲·伦道夫 Lillian Randolph
       阿亨蒂娜·布鲁内蒂 Argentina Brunetti
       罗伯特·J·安德森 Robert J. Anderson
       龙尼·拉尔夫 Ronnie Ralph
       雅尼娜·安·鲁斯 Jeanine Ann Roose
       乔吉·努克斯 Georgie Nokes
       谢尔登·伦纳德 Sheldon Leonard
       弗兰克·哈格尼 Frank Hagney
       雷·沃克 Ray Walker
       查尔斯·莱恩 Charles Lane
       爱德华·基恩 Edward Keane
       卡萝尔·库姆斯 Carol Coombs
       卡罗琳·格兰姆斯 Karolyn Grimes
       拉里·西姆斯 Larry Simms
       吉米·霍金斯 Jimmy Hawkins
       简·阿克 Jean Acker
       厄尼·亚当斯 Ernie Adams
       曼雅·安德烈 Monya Andre
       斯坦利·安德鲁斯 Stanley Andrews
       萨姆·阿什 Sam Ash
       杰克·贝利 Jack Bailey
       布鲁克斯·贝内迪克特 Brooks Benedict
       约瑟夫·伯纳德 Joseph E. Bernard
       阿尔·布里奇 Al Bridge
       玛丽安·卡尔 Marian Carr
       阿德里亚娜·卡塞洛蒂 Adriana Caselotti
       莱恩·钱德勒 Lane Chandler
       迈克尔·蔡平 Michael Chapin
       汤姆·查特顿 Tom Chatterton
       杰克·奇塔姆 Jack Cheatham
       哈里·切希尔 Harry Cheshire
       爱德华·克拉克 Edward Clark
       汤姆·科尔曼 Tom Coleman
       埃伦·科比 Ellen Corby
       海伦·迪克森 Helen Dickson
       迪克·埃利奥特 Dick Elliott
       汤姆·法登 Tom Fadden
       弗兰克·芬顿 Frank Fenton
       埃迪·凡特思顿 Eddie Fetherston
       萨姆·弗林特 Sam Flint
       迪克·戈登 Dick Gordon
       约瑟夫·格兰比 Joseph Granby
       查尔斯·霍尔顿 Charles Halton
       Herbert Heywood Herbert Heywood
       Harry Holman Harry Holman
       Art Howard Art Howard
       Bert Howard Bert Howard
       Arthur Stuart Hull Arthur Stuart Hull
       约翰·因德里萨诺 John Indrisano
       艾迪·凯恩 Eddie Kane
       Carl Kent Carl Kent
       Milton Kibbee Milton Kibbee
       Effie Laird Effie Laird
       迈克·拉里 Mike Lally
       Harold Landon Harold Landon
       Meade 'Lux' Lewis Meade 'Lux' Lewis
       杰克·洛马斯 Jack Lomas
       J·法瑞尔·麦克唐纳 J. Farrell MacDonald
       Wilbur Mack Wilbur Mack
       Charles Meakin Charles Meakin
       伯特·穆尔豪斯 Bert Moorhouse
       Evelyn Moriarty Evelyn Moriarty
       Philip Morris Philip Morris
       George Noisom George Noisom
       弗兰克·奥康纳 Frank O'Connor
       让·盖尔 Jean Gale
       迪米特里·迪奥姆金 Dimitri Tiomkin
       克莱姆·波特曼 Clem Portman
◎标  签 经典 / 励志 / 美国 / 温情 / 美国电影 / 喜剧 / 人生 / 爱情
◎简  介

  乔治(詹姆斯•斯图尔特 James Stewart 饰)在圣诞节前准备自杀,这时上帝传来旨意,派天使拯救他,并让他了解到自己一生的使命——拯救那些不幸的人。乔治小时候左耳有疾,在贝德福德镇上的一家药店帮工。他很机灵,深得老板器重,同时也很招女孩喜欢。某日,老板接到爱子死亡的电报,悲痛欲绝,配错了药,幸亏乔治才化险为夷。乔治从小嫉恶如仇,尤其看不惯富人专横跋扈。长大后,乔治一表人才,准备去读大学。这时,他的父亲去世了,他子承父业,协助叔父料理公司事务。然而公司经营状况不佳,在董事会会议上面临破产。如果公司破产,小镇将会有很多家庭陷入困境。乔治力排众议,说服了董事会,但是条件是他要担任董事会秘书长。这与他的大学梦相去甚远。而且,此时他还陷入了对一个女孩的爱恋之中……
  1. Video
  2. ID                                       : 1
  3. ID in the original source medium         : 4113 (0x1011)
  4. Format                                   : HEVC
  5. Format/Info                              : High Efficiency Video Coding
  6. Format profile                           : Main [email protected]@High
  7. HDR format                               : Dolby Vision, Version 1.0, dvhe.07.06, BL+EL+RPU, Blu-ray compatible / SMPTE ST 2086, HDR10 compatible
  8. Codec ID                                 : V_MPEGH/ISO/HEVC
  9. Duration                                 : 2 h 10 min
  10. Bit rate                                 : 50.0 Mb/s
  11. Width                                    : 3 840 pixels
  12. Height                                   : 2 160 pixels
  13. Display aspect ratio                     : 16:9
  14. Frame rate mode                          : Constant
  15. Frame rate                               : 23.976 (24000/1001/189150) FPS
  16. Color space                              : YUV
  17. Chroma subsampling                       : 4:2:0 (Type 2)
  18. Bit depth                                : 10 bits
  19. Bits/(Pixel*Frame)                       : 0.252
  20. Stream size                              : 45.6 GiB (91%)
  21. Language                                 : English
  22. Default                                  : No
  23. Forced                                   : No
  24. Color range                              : Limited
  25. Color primaries                          : BT.2020
  26. Transfer characteristics                 : PQ
  27. Matrix coefficients                      : BT.2020 non-constant
  28. Mastering display color primaries        : BT.2020
  29. Mastering display luminance              : min: 0.0001 cd/m2, max: 1000 cd/m2
  30. Original source medium                   : Blu-ray
  31. Audio #1
  32. ID                                       : 2
  33. ID in the original source medium         : 4352 (0x1100)
  34. Format                                   : MLP FBA
  35. Format/Info                              : Meridian Lossless Packing FBA
  36. Commercial name                          : Dolby TrueHD
  37. Codec ID                                 : A_TRUEHD
  38. Duration                                 : 2 h 10 min
  39. Bit rate mode                            : Variable
  40. Bit rate                                 : 677 kb/s
  41. Maximum bit rate                         : 1 080 kb/s
  42. Channel(s)                               : 2 channels
  43. Channel layout                           : L R
  44. Sampling rate                            : 48.0 kHz
  45. Frame rate                               : 1 200.000 FPS (40 SPF)
  46. Bit depth                                : 24 bits
  47. Compression mode                         : Lossless
  48. Stream size                              : 632 MiB (1%)
  49. Title                                    : TrueHD 2.0
  50. Language                                 : English
  51. Default                                  : Yes
  52. Forced                                   : No
  53. Original source medium                   : Blu-ray
  54. Audio #2
  55. ID                                       : 3
  56. Format                                   : DTS XLL
  57. Format/Info                              : Digital Theater Systems
  58. Commercial name                          : DTS-HD Master Audio
  59. Codec ID                                 : A_DTS
  60. Duration                                 : 2 h 10 min
  61. Bit rate mode                            : Variable
  62. Bit rate                                 : 1 798 kb/s
  63. Channel(s)                               : 2 channels
  64. Channel layout                           : L R
  65. Sampling rate                            : 48.0 kHz
  66. Frame rate                               : 93.750 FPS (512 SPF)
  67. Bit depth                                : 24 bits
  68. Compression mode                         : Lossless
  69. Stream size                              : 1.64 GiB (3%)
  70. Title                                    : DTS-HD MA 2.0
  71. Language                                 : English
  72. Default                                  : No
  73. Forced                                   : No
  74. Audio #3
  75. ID                                       : 4
  76. ID in the original source medium         : 4352 (0x1100)
  77. Format                                   : AC-3
  78. Format/Info                              : Audio Coding 3
  79. Commercial name                          : Dolby Digital
  80. Codec ID                                 : A_AC3
  81. Duration                                 : 2 h 10 min
  82. Bit rate mode                            : Constant
  83. Bit rate                                 : 640 kb/s
  84. Channel(s)                               : 2 channels
  85. Channel layout                           : L R
  86. Sampling rate                            : 48.0 kHz
  87. Frame rate                               : 31.250 FPS (1536 SPF)
  88. Compression mode                         : Lossy
  89. Stream size                              : 598 MiB (1%)
  90. Title                                    : DD 2.0
  91. Language                                 : English
  92. Service kind                             : Complete Main
  93. Default                                  : No
  94. Forced                                   : No
  95. Original source medium                   : Blu-ray
  96. Audio #4
  97. ID                                       : 5
  98. ID in the original source medium         : 4353 (0x1101)
  99. Format                                   : AC-3
  100. Format/Info                              : Audio Coding 3
  101. Commercial name                          : Dolby Digital
  102. Codec ID                                 : A_AC3
  103. Duration                                 : 2 h 10 min
  104. Bit rate mode                            : Constant
  105. Bit rate                                 : 224 kb/s
  106. Channel(s)                               : 2 channels
  107. Channel layout                           : L R
  108. Sampling rate                            : 48.0 kHz
  109. Frame rate                               : 31.250 FPS (1536 SPF)
  110. Compression mode                         : Lossy
  111. Delay relative to video                  : 667 ms
  112. Stream size                              : 209 MiB (0%)
  113. Title                                    : DD 2.0
  114. Language                                 : English
  115. Service kind                             : Complete Main
  116. Default                                  : No
  117. Forced                                   : No
  118. Original source medium                   : Blu-ray
  119. Audio #5
  120. ID                                       : 6
  121. ID in the original source medium         : 4354 (0x1102)
  122. Format                                   : AC-3
  123. Format/Info                              : Audio Coding 3
  124. Commercial name                          : Dolby Digital
  125. Codec ID                                 : A_AC3
  126. Duration                                 : 2 h 10 min
  127. Bit rate mode                            : Constant
  128. Bit rate                                 : 224 kb/s
  129. Channel(s)                               : 2 channels
  130. Channel layout                           : L R
  131. Sampling rate                            : 48.0 kHz
  132. Frame rate                               : 31.250 FPS (1536 SPF)
  133. Compression mode                         : Lossy
  134. Delay relative to video                  : 667 ms
  135. Stream size                              : 209 MiB (0%)
  136. Title                                    : DD 2.0
  137. Language                                 : German
  138. Service kind                             : Complete Main
  139. Default                                  : No
  140. Forced                                   : No
  141. Original source medium                   : Blu-ray
  142. Audio #6
  143. ID                                       : 7
  144. ID in the original source medium         : 4355 (0x1103)
  145. Format                                   : AC-3
  146. Format/Info                              : Audio Coding 3
  147. Commercial name                          : Dolby Digital
  148. Codec ID                                 : A_AC3
  149. Duration                                 : 2 h 10 min
  150. Bit rate mode                            : Constant
  151. Bit rate                                 : 224 kb/s
  152. Channel(s)                               : 2 channels
  153. Channel layout                           : L R
  154. Sampling rate                            : 48.0 kHz
  155. Frame rate                               : 31.250 FPS (1536 SPF)
  156. Compression mode                         : Lossy
  157. Delay relative to video                  : 667 ms
  158. Stream size                              : 209 MiB (0%)
  159. Title                                    : DD 2.0
  160. Language                                 : Spanish
  161. Service kind                             : Complete Main
  162. Default                                  : No
  163. Forced                                   : No
  164. Original source medium                   : Blu-ray
  165. Audio #7
  166. ID                                       : 8
  167. ID in the original source medium         : 4356 (0x1104)
  168. Format                                   : AC-3
  169. Format/Info                              : Audio Coding 3
  170. Commercial name                          : Dolby Digital
  171. Codec ID                                 : A_AC3
  172. Duration                                 : 2 h 10 min
  173. Bit rate mode                            : Constant
  174. Bit rate                                 : 224 kb/s
  175. Channel(s)                               : 2 channels
  176. Channel layout                           : L R
  177. Sampling rate                            : 48.0 kHz
  178. Frame rate                               : 31.250 FPS (1536 SPF)
  179. Compression mode                         : Lossy
  180. Delay relative to video                  : 667 ms
  181. Stream size                              : 209 MiB (0%)
  182. Title                                    : DD 2.0
  183. Language                                 : French
  184. Service kind                             : Complete Main
  185. Default                                  : No
  186. Forced                                   : No
  187. Original source medium                   : Blu-ray
  188. Audio #8
  189. ID                                       : 9
  190. ID in the original source medium         : 4357 (0x1105)
  191. Format                                   : AC-3
  192. Format/Info                              : Audio Coding 3
  193. Commercial name                          : Dolby Digital
  194. Codec ID                                 : A_AC3
  195. Duration                                 : 2 h 10 min
  196. Bit rate mode                            : Constant
  197. Bit rate                                 : 224 kb/s
  198. Channel(s)                               : 2 channels
  199. Channel layout                           : L R
  200. Sampling rate                            : 48.0 kHz
  201. Frame rate                               : 31.250 FPS (1536 SPF)
  202. Compression mode                         : Lossy
  203. Delay relative to video                  : 667 ms
  204. Stream size                              : 209 MiB (0%)
  205. Title                                    : DD 2.0
  206. Language                                 : Italian
  207. Service kind                             : Complete Main
  208. Default                                  : No
  209. Forced                                   : No
  210. Original source medium                   : Blu-ray
  211. Audio #9
  212. ID                                       : 10
  213. ID in the original source medium         : 4358 (0x1106)
  214. Format                                   : AC-3
  215. Format/Info                              : Audio Coding 3
  216. Commercial name                          : Dolby Digital
  217. Codec ID                                 : A_AC3
  218. Duration                                 : 2 h 10 min
  219. Bit rate mode                            : Constant
  220. Bit rate                                 : 224 kb/s
  221. Channel(s)                               : 2 channels
  222. Channel layout                           : L R
  223. Sampling rate                            : 48.0 kHz
  224. Frame rate                               : 31.250 FPS (1536 SPF)
  225. Compression mode                         : Lossy
  226. Delay relative to video                  : 667 ms
  227. Stream size                              : 209 MiB (0%)
  228. Title                                    : DD 2.0
  229. Language                                 : Japanese
  230. Service kind                             : Complete Main
  231. Default                                  : No
  232. Forced                                   : No
  233. Original source medium                   : Blu-ray
  234. Text #1
  235. ID                                       : 11
  236. Format                                   : UTF-8
  237. Codec ID                                 : S_TEXT/UTF8
  238. Codec ID/Info                            : UTF-8 Plain Text
  239. Duration                                 : 2 h 8 min
  240. Bit rate                                 : 92 b/s
  241. Frame rate                               : 0.307 FPS
  242. Count of elements                        : 2365
  243. Stream size                              : 87.5 KiB (0%)
  244. Language                                 : English
  245. Default                                  : Yes
  246. Forced                                   : No
  247. Text #2
  248. ID                                       : 12
  249. Format                                   : UTF-8
  250. Codec ID                                 : S_TEXT/UTF8
  251. Codec ID/Info                            : UTF-8 Plain Text
  252. Duration                                 : 2 h 8 min
  253. Bit rate                                 : 96 b/s
  254. Frame rate                               : 0.323 FPS
  255. Count of elements                        : 2487
  256. Stream size                              : 90.4 KiB (0%)
  257. Title                                    : SDH
  258. Language                                 : English
  259. Default                                  : No
  260. Forced                                   : No
  261. Text #3
  262. ID                                       : 13
  263. ID in the original source medium         : 4768 (0x12A0)
  264. Format                                   : PGS
  265. Muxing mode                              : zlib
  266. Codec ID                                 : S_HDMV/PGS
  267. Codec ID/Info                            : Picture based subtitle format used on BDs/HD-DVDs
  268. Duration                                 : 2 h 8 min
  269. Bit rate                                 : 55.2 kb/s
  270. Frame rate                               : 0.609 FPS
  271. Count of elements                        : 4694
  272. Stream size                              : 50.7 MiB (0%)
  273. Language                                 : English
  274. Default                                  : No
  275. Forced                                   : No
  276. Original source medium                   : Blu-ray
  277. Text #4
  278. ID                                       : 14
  279. ID in the original source medium         : 4769 (0x12A1)
  280. Format                                   : PGS
  281. Muxing mode                              : zlib
  282. Codec ID                                 : S_HDMV/PGS
  283. Codec ID/Info                            : Picture based subtitle format used on BDs/HD-DVDs
  284. Duration                                 : 2 h 8 min
  285. Bit rate                                 : 59.0 kb/s
  286. Frame rate                               : 0.649 FPS
  287. Count of elements                        : 5002
  288. Stream size                              : 54.2 MiB (0%)
  289. Language                                 : English
  290. Default                                  : No
  291. Forced                                   : No
  292. Original source medium                   : Blu-ray
  293. Text #5
  294. ID                                       : 15
  295. ID in the original source medium         : 4770 (0x12A2)
  296. Format                                   : PGS
  297. Muxing mode                              : zlib
  298. Codec ID                                 : S_HDMV/PGS
  299. Codec ID/Info                            : Picture based subtitle format used on BDs/HD-DVDs
  300. Duration                                 : 2 h 9 min
  301. Bit rate                                 : 41.1 kb/s
  302. Frame rate                               : 0.565 FPS
  303. Count of elements                        : 4384
  304. Stream size                              : 38.0 MiB (0%)
  305. Language                                 : Danish
  306. Default                                  : No
  307. Forced                                   : No
  308. Original source medium                   : Blu-ray
  309. Text #6
  310. ID                                       : 16
  311. ID in the original source medium         : 4771 (0x12A3)
  312. Format                                   : PGS
  313. Muxing mode                              : zlib
  314. Codec ID                                 : S_HDMV/PGS
  315. Codec ID/Info                            : Picture based subtitle format used on BDs/HD-DVDs
  316. Duration                                 : 2 h 9 min
  317. Bit rate                                 : 55.2 kb/s
  318. Frame rate                               : 0.614 FPS
  319. Count of elements                        : 4764
  320. Stream size                              : 51.0 MiB (0%)
  321. Language                                 : German
  322. Default                                  : No
  323. Forced                                   : No
  324. Original source medium                   : Blu-ray
  325. Text #7
  326. ID                                       : 17
  327. ID in the original source medium         : 4771 (0x12A3)
  328. Format                                   : PGS
  329. Muxing mode                              : zlib
  330. Codec ID                                 : S_HDMV/PGS
  331. Codec ID/Info                            : Picture based subtitle format used on BDs/HD-DVDs
  332. Duration                                 : 2 h 8 min
  333. Bit rate                                 : 636 b/s
  334. Frame rate                               : 0.007 FPS
  335. Count of elements                        : 56
  336. Stream size                              : 600 KiB (0%)
  337. Language                                 : German
  338. Default                                  : No
  339. Forced                                   : No
  340. Original source medium                   : Blu-ray
  341. Text #8
  342. ID                                       : 18
  343. ID in the original source medium         : 4772 (0x12A4)
  344. Format                                   : PGS
  345. Muxing mode                              : zlib
  346. Codec ID                                 : S_HDMV/PGS
  347. Codec ID/Info                            : Picture based subtitle format used on BDs/HD-DVDs
  348. Duration                                 : 2 h 10 min
  349. Bit rate                                 : 43.4 kb/s
  350. Frame rate                               : 0.560 FPS
  351. Count of elements                        : 4376
  352. Stream size                              : 40.4 MiB (0%)
  353. Language                                 : Spanish
  354. Default                                  : No
  355. Forced                                   : No
  356. Original source medium                   : Blu-ray
  357. Text #9
  358. ID                                       : 19
  359. ID in the original source medium         : 4772 (0x12A4)
  360. Format                                   : PGS
  361. Muxing mode                              : zlib
  362. Codec ID                                 : S_HDMV/PGS
  363. Codec ID/Info                            : Picture based subtitle format used on BDs/HD-DVDs
  364. Duration                                 : 2 h 1 min
  365. Bit rate                                 : 506 b/s
  366. Frame rate                               : 0.006 FPS
  367. Count of elements                        : 46
  368. Stream size                              : 452 KiB (0%)
  369. Language                                 : Spanish
  370. Default                                  : No
  371. Forced                                   : No
  372. Original source medium                   : Blu-ray
  373. Text #10
  374. ID                                       : 20
  375. ID in the original source medium         : 4773 (0x12A5)
  376. Format                                   : PGS
  377. Muxing mode                              : zlib
  378. Codec ID                                 : S_HDMV/PGS
  379. Codec ID/Info                            : Picture based subtitle format used on BDs/HD-DVDs
  380. Duration                                 : 2 h 10 min
  381. Bit rate                                 : 46.4 kb/s
  382. Frame rate                               : 0.568 FPS
  383. Count of elements                        : 4442
  384. Stream size                              : 43.2 MiB (0%)
  385. Language                                 : French
  386. Default                                  : No
  387. Forced                                   : No
  388. Original source medium                   : Blu-ray
  389. Text #11
  390. ID                                       : 21
  391. ID in the original source medium         : 4773 (0x12A5)
  392. Format                                   : PGS
  393. Muxing mode                              : zlib
  394. Codec ID                                 : S_HDMV/PGS
  395. Codec ID/Info                            : Picture based subtitle format used on BDs/HD-DVDs
  396. Duration                                 : 2 h 9 min
  397. Bit rate                                 : 580 b/s
  398. Frame rate                               : 0.007 FPS
  399. Count of elements                        : 56
  400. Stream size                              : 551 KiB (0%)
  401. Language                                 : French
  402. Default                                  : No
  403. Forced                                   : No
  404. Original source medium                   : Blu-ray
  405. Text #12
  406. ID                                       : 22
  407. ID in the original source medium         : 4774 (0x12A6)
  408. Format                                   : PGS
  409. Muxing mode                              : zlib
  410. Codec ID                                 : S_HDMV/PGS
  411. Codec ID/Info                            : Picture based subtitle format used on BDs/HD-DVDs
  412. Duration                                 : 2 h 9 min
  413. Bit rate                                 : 40.8 kb/s
  414. Frame rate                               : 0.565 FPS
  415. Count of elements                        : 4380
  416. Stream size                              : 37.7 MiB (0%)
  417. Language                                 : Italian
  418. Default                                  : No
  419. Forced                                   : No
  420. Original source medium                   : Blu-ray
  421. Text #13
  422. ID                                       : 23
  423. ID in the original source medium         : 4774 (0x12A6)
  424. Format                                   : PGS
  425. Muxing mode                              : zlib
  426. Codec ID                                 : S_HDMV/PGS
  427. Codec ID/Info                            : Picture based subtitle format used on BDs/HD-DVDs
  428. Duration                                 : 2 h 8 min
  429. Bit rate                                 : 499 b/s
  430. Frame rate                               : 0.006 FPS
  431. Count of elements                        : 46
  432. Stream size                              : 471 KiB (0%)
  433. Language                                 : Italian
  434. Default                                  : No
  435. Forced                                   : No
  436. Original source medium                   : Blu-ray
  437. Text #14
  438. ID                                       : 24
  439. ID in the original source medium         : 4775 (0x12A7)
  440. Format                                   : PGS
  441. Muxing mode                              : zlib
  442. Codec ID                                 : S_HDMV/PGS
  443. Codec ID/Info                            : Picture based subtitle format used on BDs/HD-DVDs
  444. Duration                                 : 2 h 8 min
  445. Bit rate                                 : 27.8 kb/s
  446. Frame rate                               : 0.483 FPS
  447. Count of elements                        : 3708
  448. Stream size                              : 25.4 MiB (0%)
  449. Language                                 : Japanese
  450. Default                                  : No
  451. Forced                                   : No
  452. Original source medium                   : Blu-ray
  453. Text #15
  454. ID                                       : 25
  455. ID in the original source medium         : 4776 (0x12A8)
  456. Format                                   : PGS
  457. Muxing mode                              : zlib
  458. Codec ID                                 : S_HDMV/PGS
  459. Codec ID/Info                            : Picture based subtitle format used on BDs/HD-DVDs
  460. Duration                                 : 2 h 9 min
  461. Bit rate                                 : 40.6 kb/s
  462. Frame rate                               : 0.457 FPS
  463. Count of elements                        : 3540
  464. Stream size                              : 37.5 MiB (0%)
  465. Language                                 : Dutch
  466. Default                                  : No
  467. Forced                                   : No
  468. Original source medium                   : Blu-ray
  469. Text #16
  470. ID                                       : 26
  471. ID in the original source medium         : 4777 (0x12A9)
  472. Format                                   : PGS
  473. Muxing mode                              : zlib
  474. Codec ID                                 : S_HDMV/PGS
  475. Codec ID/Info                            : Picture based subtitle format used on BDs/HD-DVDs
  476. Duration                                 : 2 h 9 min
  477. Bit rate                                 : 40.8 kb/s
  478. Frame rate                               : 0.466 FPS
  479. Count of elements                        : 3614
  480. Stream size                              : 37.7 MiB (0%)
  481. Language                                 : Norwegian
  482. Default                                  : No
  483. Forced                                   : No
  484. Original source medium                   : Blu-ray
  485. Text #17
  486. ID                                       : 27
  487. ID in the original source medium         : 4778 (0x12AA)
  488. Format                                   : PGS
  489. Muxing mode                              : zlib
  490. Codec ID                                 : S_HDMV/PGS
  491. Codec ID/Info                            : Picture based subtitle format used on BDs/HD-DVDs
  492. Duration                                 : 2 h 9 min
  493. Bit rate                                 : 44.6 kb/s
  494. Frame rate                               : 0.543 FPS
  495. Count of elements                        : 4210
  496. Stream size                              : 41.3 MiB (0%)
  497. Language                                 : Finnish
  498. Default                                  : No
  499. Forced                                   : No
  500. Original source medium                   : Blu-ray
  501. Text #18
  502. ID                                       : 28
  503. ID in the original source medium         : 4779 (0x12AB)
  504. Format                                   : PGS
  505. Muxing mode                              : zlib
  506. Codec ID                                 : S_HDMV/PGS
  507. Codec ID/Info                            : Picture based subtitle format used on BDs/HD-DVDs
  508. Duration                                 : 2 h 9 min
  509. Bit rate                                 : 34.5 kb/s
  510. Frame rate                               : 0.461 FPS
  511. Count of elements                        : 3576
  512. Stream size                              : 31.9 MiB (0%)
  513. Language                                 : Swedish
  514. Default                                  : No
  515. Forced                                   : No
  516. Original source medium                   : Blu-ray
  517. Text #19
  518. ID                                       : 29
  519. ID in the original source medium         : 4780 (0x12AC)
  520. Format                                   : PGS
  521. Muxing mode                              : zlib
  522. Codec ID                                 : S_HDMV/PGS
  523. Codec ID/Info                            : Picture based subtitle format used on BDs/HD-DVDs
  524. Duration                                 : 2 h 7 min
  525. Bit rate                                 : 336 b/s
  526. Frame rate                               : 0.005 FPS
  527. Count of elements                        : 40
  528. Stream size                              : 315 KiB (0%)
  529. Language                                 : Japanese
  530. Default                                  : No
  531. Forced                                   : No
  532. Original source medium                   : Blu-ray
  533. Menu
  534. 00:00:00.000                             : en:Chapter 01
  535. 00:03:43.264                             : en:Chapter 02
  536. 00:05:25.575                             : en:Chapter 03
  537. 00:07:46.507                             : en:Chapter 04
  538. 00:11:39.907                             : en:Chapter 05
  539. 00:14:17.523                             : en:Chapter 06
  540. 00:19:03.517                             : en:Chapter 07
  541. 00:21:14.481                             : en:Chapter 08
  542. 00:24:03.942                             : en:Chapter 09
  543. 00:35:16.239                             : en:Chapter 10
  544. 00:42:31.966                             : en:Chapter 11
  545. 00:50:16.763                             : en:Chapter 12
  546. 01:00:12.150                             : en:Chapter 13
  547. 01:03:50.201                             : en:Chapter 14
  548. 01:13:55.764                             : en:Chapter 15
  549. 01:16:51.023                             : en:Chapter 16
  550. 01:19:07.951                             : en:Chapter 17
  551. 01:23:00.517                             : en:Chapter 18
  552. 01:30:24.710                             : en:Chapter 19
  553. 01:32:20.493                             : en:Chapter 20
  554. 01:35:34.812                             : en:Chapter 21
  555. 01:38:39.830                             : en:Chapter 22
  556. 01:39:45.771                             : en:Chapter 23
  557. 01:46:44.898                             : en:Chapter 24
  558. 01:52:47.552                             : en:Chapter 25
  559. 02:01:24.944                             : en:Chapter 26
  560. 02:03:36.117                             : en:Chapter 27
  561. 02:08:10.015                             : en:Chapter 28
复制代码




                                       
                                       

                                       
                                       
                                       




Its.a.Wonderful.Life.1946.PROPER.2160p.BluRay.REMUX.HEVC.DTS-HD.MA.TrueHD.2.0-FGT.torrent (63.06 KB, 下载次数: 0)
回复

使用道具 举报

您需要登录后才可以回帖 登录 | 立即注册

本版积分规则

QQ|Archiver|手机版|小黑屋|蓝光电影网

GMT+8, 2023-2-8 02:02 , Processed in 0.123300 second(s), 28 queries .

Powered by Discuz! X3.4

Copyright © 2001-2020, Tencent Cloud.

快速回复 返回顶部 返回列表