找回密码
 立即注册

QQ登录

只需一步,快速开始

查看: 106|回复: 0

[UHD.HEVC] 永远的蝙蝠侠 Batman.Forever.1995.PROPER.2160p.BluRay.REMUX.HEVC.DTS-HD.MA.TrueHD.7.1.Atmos-FGT 78.47GB

[复制链接]

0

精华

0

好友

2

听众

新手上路

Rank: 2

蓝光币
5
发表于 2022-11-30 07:52:03 | 显示全部楼层 |阅读模式
[img][/img]

◎标  题 永远的蝙蝠侠
◎译  名 蝙蝠侠3 / 新蝙蝠侠之不败之谜(港) / 蝙蝠侠3:永远的蝙蝠侠
◎片  名 Batman Forever
◎年  代 1995
◎产  地 美国 / 英国
◎类  别 动作 / 冒险
◎语  言 英语
◎上映日期 1995-06-16
◎IMDb评分 5.4/10 (243045人评价)
◎IMDb链接 https://www.imdb.com/title/tt0112462/
◎豆瓣评分 6.7/10 (26732人评价)
◎豆瓣链接 https://movie.douban.com/subject/1295638/
◎片  长 121 分钟
◎导  演 乔·舒马赫 Joel Schumacher
◎编  剧 李·巴奇勒 Lee Batchler
       珍妮特·斯科特·巴奇勒 Janet Scott Batchler
       阿齐瓦·高斯曼 Akiva Goldsman
◎演  员 方·基默 Val Kilmer
       汤米·李·琼斯 Tommy Lee Jones
       金·凯瑞 Jim Carrey
       妮可·基德曼 Nicole Kidman
       克里斯·奥唐纳 Chris O'Donnell
       德鲁·巴里摩尔 Drew Barrymore
       陆建艺 Jianyi Lu
       格雷格·劳伦 Greg Lauren
       帕特·亨格尔 Pat Hingle
       黛比·玛扎 Debi Mazar
       Robert Powell Robert Powell
       杰克·贝茨 Jack Betts
       吉姆·帕尔默 Jim Palmer
       迈克·史密斯 Mike Smith
       马克·希克斯 Mark Hicks
       迈克尔·高夫 Michael Gough
       Peter Macgregor-Scott Peter Macgregor-Scott
       蒂姆·波顿 Tim Burton
       艾略特·戈登塞尔 Elliot Goldenthal
       斯蒂芬·戈德布拉特 Stephen Goldblatt
       丹尼斯·弗尔克勒 Dennis Virkler
       克里斯托弗·布里安-莫尔 Christopher Burian-Mohr
       Ingrid Ferrin Ingrid Ferrin
       鲍勃·林伍德 Bob Ringwood
       金·桑坦托尼奥 Kim Santantonio
       Julie Hewett Julie Hewett
       戴维·勒罗伊·安德森 David LeRoy Anderson
       里克·斯特拉顿 Rick Stratton
       谢里尔·普塔克 Sheryl Ptak
       约兰达·塔辛 Yolanda Toussieng
       吉尔·罗考 Jill Rockow
       巴巴拉·洛伦兹 Barbara Lorenz
       Janna Phillips Janna Phillips
       爱德华·F.·恩里克斯 Edouard F. Henriques
       Wade Daily Wade Daily
       维·尼尔 Ve Neill
       莱昂纳德·恩格尔曼 Leonard Engelman
       Robert Scifo Robert Scifo
       Olivier Sarda Olivier Sarda
       温迪·罗杰斯 Wendy Rogers
       丹尼·穆德特 Danny Mudgett
       格兰特·麦丘恩 Grant McCune
       马克·科尔帕克 Mark Kolpack
       许诚毅 Raman Hui
       James Hegedus James Hegedus
       兰斯·汉默 Lance Hammer
       Apurva Shah Apurva Shah
       博伊德·谢尔米斯 Boyd Shermis
       扎克·贾德森 Zack Judson
       安德鲁·亚当森 Andrew Adamson
       盖伊·威廉斯 Guy Williams
       Dobbie Schiff Dobbie Schiff
       彼得·韦伯 Peter Webb
       Mike Wassel Mike Wassel
       Bill Taylor Bill Taylor
       David Taritero David Taritero
       David Sosalla David Sosalla
       吉姆·戈尔曼 Jim Gorman
       Terry Clotiaux Terry Clotiaux
       Steve Bowen Steve Bowen
       Andrea D'Amico Andrea D'Amico
       Thomas Boland Thomas Boland
       尼克·戴维斯 Nick Davis
       莱斯·伯恩斯汀 Les Bernstien
       David Stump David Stump
       Tim Donahue Tim Donahue
       Eric Durst Eric Durst
       David Emery David Emery
       吉姆·伯尔尼  Jim Berney
◎标  签 科幻 / 美国 / 蝙蝠侠 / 动作 / 漫画改编 / 1995 / DC / 美国电影
◎简  介

  高谭市的黑暗势力又开始蠢蠢欲动了,这次是毁了半边脸的“双面人”(汤米•李•琼斯 Tommy Lee Jones 饰)。一次,“双面人”袭击了马戏团,演员迪克(克里斯•奥唐纳 Chris O'Donnell 饰)阻止了“双面人”的阴谋,家人却因此惨遭杀害。                                    
                                布鲁斯(瓦尔•基尔默 Val Kilmer 饰)收留了迪克,并说服了满腔仇恨的迪克留了下来。因研究计划被拒绝而仇视韦布斯的公司职员爱德华(金•凯瑞 Jim Carrey 饰)成功研究出脑波吸收装置,化身成为“谜语侠”。                                    
                                “双面人”和“谜语侠”联手破坏高谭市,并通过脑电波吸收装置大量吸收市民的脑电波。蝙蝠侠这次的对手强大得可怕,蝙蝠侠最终能否战胜罪恶?
  1. Video
  2. ID                                       : 1
  3. ID in the original source medium         : 4113 (0x1011)
  4. Format                                   : HEVC
  5. Format/Info                              : High Efficiency Video Coding
  6. Format profile                           : Main [email protected]@High
  7. HDR format                               : SMPTE ST 2086, HDR10 compatible
  8. Codec ID                                 : V_MPEGH/ISO/HEVC
  9. Duration                                 : 2 h 1 min
  10. Bit rate                                 : 78.4 Mb/s
  11. Width                                    : 3 840 pixels
  12. Height                                   : 2 160 pixels
  13. Display aspect ratio                     : 16:9
  14. Frame rate mode                          : Constant
  15. Frame rate                               : 23.976 (24000/1001/189150) FPS
  16. Color space                              : YUV
  17. Chroma subsampling                       : 4:2:0 (Type 2)
  18. Bit depth                                : 10 bits
  19. Bits/(Pixel*Frame)                       : 0.394
  20. Stream size                              : 66.6 GiB (85%)
  21. Writing library                          : ATEME Titan File 3.9.0 (4.9.0.0)        
  22. Language                                 : English
  23. Default                                  : No
  24. Forced                                   : No
  25. Color range                              : Limited
  26. Color primaries                          : BT.2020
  27. Transfer characteristics                 : PQ
  28. Matrix coefficients                      : BT.2020 non-constant
  29. Mastering display color primaries        : Display P3
  30. Mastering display luminance              : min: 0.0050 cd/m2, max: 4000 cd/m2
  31. Maximum Content Light Level              : 1353 cd/m2
  32. Maximum Frame-Average Light Level        : 135 cd/m2
  33. Original source medium                   : Blu-ray
  34. Audio #1
  35. ID                                       : 2
  36. ID in the original source medium         : 4352 (0x1100)
  37. Format                                   : MLP FBA 16-ch
  38. Format/Info                              : Meridian Lossless Packing FBA with 16-channel presentation
  39. Commercial name                          : Dolby TrueHD with Dolby Atmos
  40. Codec ID                                 : A_TRUEHD
  41. Duration                                 : 2 h 1 min
  42. Bit rate mode                            : Variable
  43. Bit rate                                 : 4 134 kb/s
  44. Maximum bit rate                         : 7 242 kb/s
  45. Channel(s)                               : 8 channels
  46. Channel layout                           : L R C LFE Ls Rs Lb Rb
  47. Sampling rate                            : 48.0 kHz
  48. Frame rate                               : 1 200.000 FPS (40 SPF)
  49. Bit depth                                : 24 bits
  50. Compression mode                         : Lossless
  51. Stream size                              : 3.51 GiB (4%)
  52. Title                                    : TrueHD 7.1 Atmos
  53. Language                                 : English
  54. Default                                  : Yes
  55. Forced                                   : No
  56. Original source medium                   : Blu-ray
  57. Number of dynamic objects                : 15
  58. Bed channel count                        : 1 channel
  59. Bed channel configuration                : LFE
  60. Audio #2
  61. ID                                       : 3
  62. Format                                   : DTS XLL
  63. Format/Info                              : Digital Theater Systems
  64. Commercial name                          : DTS-HD Master Audio
  65. Codec ID                                 : A_DTS
  66. Duration                                 : 2 h 1 min
  67. Bit rate mode                            : Variable
  68. Bit rate                                 : 3 860 kb/s
  69. Channel(s)                               : 8 channels
  70. Channel layout                           : C L R LFE Lb Rb Lss Rss
  71. Sampling rate                            : 48.0 kHz
  72. Frame rate                               : 93.750 FPS (512 SPF)
  73. Bit depth                                : 24 bits
  74. Compression mode                         : Lossless
  75. Stream size                              : 3.28 GiB (4%)
  76. Title                                    : DTS-HD MA 7.1
  77. Language                                 : English
  78. Default                                  : No
  79. Forced                                   : No
  80. Audio #3
  81. ID                                       : 4
  82. ID in the original source medium         : 4352 (0x1100)
  83. Format                                   : AC-3
  84. Format/Info                              : Audio Coding 3
  85. Commercial name                          : Dolby Digital
  86. Format settings                          : Dolby Surround EX
  87. Codec ID                                 : A_AC3
  88. Duration                                 : 2 h 1 min
  89. Bit rate mode                            : Constant
  90. Bit rate                                 : 448 kb/s
  91. Channel(s)                               : 6 channels
  92. Channel layout                           : L R C LFE Ls Rs
  93. Sampling rate                            : 48.0 kHz
  94. Frame rate                               : 31.250 FPS (1536 SPF)
  95. Compression mode                         : Lossy
  96. Stream size                              : 390 MiB (0%)
  97. Title                                    : DD 5.1
  98. Language                                 : English
  99. Service kind                             : Complete Main
  100. Default                                  : No
  101. Forced                                   : No
  102. Original source medium                   : Blu-ray
  103. Audio #4
  104. ID                                       : 5
  105. ID in the original source medium         : 4353 (0x1101)
  106. Format                                   : AC-3
  107. Format/Info                              : Audio Coding 3
  108. Commercial name                          : Dolby Digital
  109. Codec ID                                 : A_AC3
  110. Duration                                 : 2 h 1 min
  111. Bit rate mode                            : Constant
  112. Bit rate                                 : 448 kb/s
  113. Channel(s)                               : 6 channels
  114. Channel layout                           : L R C LFE Ls Rs
  115. Sampling rate                            : 48.0 kHz
  116. Frame rate                               : 31.250 FPS (1536 SPF)
  117. Compression mode                         : Lossy
  118. Stream size                              : 390 MiB (0%)
  119. Title                                    : DD 5.1
  120. Language                                 : English
  121. Service kind                             : Complete Main
  122. Default                                  : No
  123. Forced                                   : No
  124. Original source medium                   : Blu-ray
  125. Audio #5
  126. ID                                       : 6
  127. ID in the original source medium         : 4355 (0x1103)
  128. Format                                   : AC-3
  129. Format/Info                              : Audio Coding 3
  130. Commercial name                          : Dolby Digital
  131. Codec ID                                 : A_AC3
  132. Duration                                 : 2 h 1 min
  133. Bit rate mode                            : Constant
  134. Bit rate                                 : 640 kb/s
  135. Channel(s)                               : 6 channels
  136. Channel layout                           : L R C LFE Ls Rs
  137. Sampling rate                            : 48.0 kHz
  138. Frame rate                               : 31.250 FPS (1536 SPF)
  139. Compression mode                         : Lossy
  140. Stream size                              : 557 MiB (1%)
  141. Title                                    : DD 5.1
  142. Language                                 : French
  143. Service kind                             : Complete Main
  144. Default                                  : No
  145. Forced                                   : No
  146. Original source medium                   : Blu-ray
  147. Audio #6
  148. ID                                       : 7
  149. ID in the original source medium         : 4356 (0x1104)
  150. Format                                   : AC-3
  151. Format/Info                              : Audio Coding 3
  152. Commercial name                          : Dolby Digital
  153. Codec ID                                 : A_AC3
  154. Duration                                 : 2 h 1 min
  155. Bit rate mode                            : Constant
  156. Bit rate                                 : 640 kb/s
  157. Channel(s)                               : 6 channels
  158. Channel layout                           : L R C LFE Ls Rs
  159. Sampling rate                            : 48.0 kHz
  160. Frame rate                               : 31.250 FPS (1536 SPF)
  161. Compression mode                         : Lossy
  162. Stream size                              : 557 MiB (1%)
  163. Title                                    : DD 5.1
  164. Language                                 : German
  165. Service kind                             : Complete Main
  166. Default                                  : No
  167. Forced                                   : No
  168. Original source medium                   : Blu-ray
  169. Audio #7
  170. ID                                       : 8
  171. ID in the original source medium         : 4357 (0x1105)
  172. Format                                   : AC-3
  173. Format/Info                              : Audio Coding 3
  174. Commercial name                          : Dolby Digital
  175. Codec ID                                 : A_AC3
  176. Duration                                 : 2 h 1 min
  177. Bit rate mode                            : Constant
  178. Bit rate                                 : 640 kb/s
  179. Channel(s)                               : 6 channels
  180. Channel layout                           : L R C LFE Ls Rs
  181. Sampling rate                            : 48.0 kHz
  182. Frame rate                               : 31.250 FPS (1536 SPF)
  183. Compression mode                         : Lossy
  184. Stream size                              : 557 MiB (1%)
  185. Title                                    : DD 5.1
  186. Language                                 : Italian
  187. Service kind                             : Complete Main
  188. Default                                  : No
  189. Forced                                   : No
  190. Original source medium                   : Blu-ray
  191. Audio #8
  192. ID                                       : 9
  193. ID in the original source medium         : 4358 (0x1106)
  194. Format                                   : AC-3
  195. Format/Info                              : Audio Coding 3
  196. Commercial name                          : Dolby Digital
  197. Codec ID                                 : A_AC3
  198. Duration                                 : 2 h 1 min
  199. Bit rate mode                            : Constant
  200. Bit rate                                 : 640 kb/s
  201. Channel(s)                               : 6 channels
  202. Channel layout                           : L R C LFE Ls Rs
  203. Sampling rate                            : 48.0 kHz
  204. Frame rate                               : 31.250 FPS (1536 SPF)
  205. Compression mode                         : Lossy
  206. Stream size                              : 557 MiB (1%)
  207. Title                                    : DD 5.1
  208. Language                                 : Spanish
  209. Service kind                             : Complete Main
  210. Default                                  : No
  211. Forced                                   : No
  212. Original source medium                   : Blu-ray
  213. Audio #9
  214. ID                                       : 10
  215. ID in the original source medium         : 4359 (0x1107)
  216. Format                                   : AC-3
  217. Format/Info                              : Audio Coding 3
  218. Commercial name                          : Dolby Digital
  219. Format settings                          : Dolby Surround
  220. Codec ID                                 : A_AC3
  221. Duration                                 : 2 h 1 min
  222. Bit rate mode                            : Constant
  223. Bit rate                                 : 192 kb/s
  224. Channel(s)                               : 2 channels
  225. Channel layout                           : L R
  226. Sampling rate                            : 48.0 kHz
  227. Frame rate                               : 31.250 FPS (1536 SPF)
  228. Compression mode                         : Lossy
  229. Stream size                              : 167 MiB (0%)
  230. Title                                    : DD 2.0
  231. Language                                 : Chinese
  232. Service kind                             : Complete Main
  233. Default                                  : No
  234. Forced                                   : No
  235. Original source medium                   : Blu-ray
  236. Audio #10
  237. ID                                       : 11
  238. ID in the original source medium         : 4360 (0x1108)
  239. Format                                   : AC-3
  240. Format/Info                              : Audio Coding 3
  241. Commercial name                          : Dolby Digital
  242. Codec ID                                 : A_AC3
  243. Duration                                 : 2 h 1 min
  244. Bit rate mode                            : Constant
  245. Bit rate                                 : 192 kb/s
  246. Channel(s)                               : 2 channels
  247. Channel layout                           : L R
  248. Sampling rate                            : 48.0 kHz
  249. Frame rate                               : 31.250 FPS (1536 SPF)
  250. Compression mode                         : Lossy
  251. Stream size                              : 167 MiB (0%)
  252. Title                                    : DD 2.0
  253. Language                                 : Spanish
  254. Service kind                             : Complete Main
  255. Default                                  : No
  256. Forced                                   : No
  257. Original source medium                   : Blu-ray
  258. Audio #11
  259. ID                                       : 12
  260. ID in the original source medium         : 4361 (0x1109)
  261. Format                                   : AC-3
  262. Format/Info                              : Audio Coding 3
  263. Commercial name                          : Dolby Digital
  264. Format settings                          : Dolby Surround
  265. Codec ID                                 : A_AC3
  266. Duration                                 : 2 h 1 min
  267. Bit rate mode                            : Constant
  268. Bit rate                                 : 192 kb/s
  269. Channel(s)                               : 2 channels
  270. Channel layout                           : L R
  271. Sampling rate                            : 48.0 kHz
  272. Frame rate                               : 31.250 FPS (1536 SPF)
  273. Compression mode                         : Lossy
  274. Stream size                              : 167 MiB (0%)
  275. Title                                    : DD 2.0
  276. Language                                 : Czech
  277. Service kind                             : Complete Main
  278. Default                                  : No
  279. Forced                                   : No
  280. Original source medium                   : Blu-ray
  281. Audio #12
  282. ID                                       : 13
  283. ID in the original source medium         : 4362 (0x110A)
  284. Format                                   : AC-3
  285. Format/Info                              : Audio Coding 3
  286. Commercial name                          : Dolby Digital
  287. Codec ID                                 : A_AC3
  288. Duration                                 : 2 h 1 min
  289. Bit rate mode                            : Constant
  290. Bit rate                                 : 448 kb/s
  291. Channel(s)                               : 6 channels
  292. Channel layout                           : L R C LFE Ls Rs
  293. Sampling rate                            : 48.0 kHz
  294. Frame rate                               : 31.250 FPS (1536 SPF)
  295. Compression mode                         : Lossy
  296. Stream size                              : 390 MiB (0%)
  297. Title                                    : DD 5.1
  298. Language                                 : Hungarian
  299. Service kind                             : Complete Main
  300. Default                                  : No
  301. Forced                                   : No
  302. Original source medium                   : Blu-ray
  303. Audio #13
  304. ID                                       : 14
  305. ID in the original source medium         : 4363 (0x110B)
  306. Format                                   : AC-3
  307. Format/Info                              : Audio Coding 3
  308. Commercial name                          : Dolby Digital
  309. Codec ID                                 : A_AC3
  310. Duration                                 : 2 h 1 min
  311. Bit rate mode                            : Constant
  312. Bit rate                                 : 448 kb/s
  313. Channel(s)                               : 6 channels
  314. Channel layout                           : L R C LFE Ls Rs
  315. Sampling rate                            : 48.0 kHz
  316. Frame rate                               : 31.250 FPS (1536 SPF)
  317. Compression mode                         : Lossy
  318. Stream size                              : 390 MiB (0%)
  319. Title                                    : DD 5.1
  320. Language                                 : Polish
  321. Service kind                             : Complete Main
  322. Default                                  : No
  323. Forced                                   : No
  324. Original source medium                   : Blu-ray
  325. Audio #14
  326. ID                                       : 15
  327. ID in the original source medium         : 4364 (0x110C)
  328. Format                                   : AC-3
  329. Format/Info                              : Audio Coding 3
  330. Commercial name                          : Dolby Digital
  331. Codec ID                                 : A_AC3
  332. Duration                                 : 2 h 1 min
  333. Bit rate mode                            : Constant
  334. Bit rate                                 : 448 kb/s
  335. Channel(s)                               : 6 channels
  336. Channel layout                           : L R C LFE Ls Rs
  337. Sampling rate                            : 48.0 kHz
  338. Frame rate                               : 31.250 FPS (1536 SPF)
  339. Compression mode                         : Lossy
  340. Stream size                              : 390 MiB (0%)
  341. Title                                    : DD 5.1
  342. Language                                 : Russian
  343. Service kind                             : Complete Main
  344. Default                                  : No
  345. Forced                                   : No
  346. Original source medium                   : Blu-ray
  347. Audio #15
  348. ID                                       : 16
  349. ID in the original source medium         : 4365 (0x110D)
  350. Format                                   : AC-3
  351. Format/Info                              : Audio Coding 3
  352. Commercial name                          : Dolby Digital
  353. Format settings                          : Dolby Surround
  354. Codec ID                                 : A_AC3
  355. Duration                                 : 2 h 1 min
  356. Bit rate mode                            : Constant
  357. Bit rate                                 : 192 kb/s
  358. Channel(s)                               : 2 channels
  359. Channel layout                           : L R
  360. Sampling rate                            : 48.0 kHz
  361. Frame rate                               : 31.250 FPS (1536 SPF)
  362. Compression mode                         : Lossy
  363. Stream size                              : 167 MiB (0%)
  364. Title                                    : DD 2.0
  365. Language                                 : Thai
  366. Service kind                             : Complete Main
  367. Default                                  : No
  368. Forced                                   : No
  369. Original source medium                   : Blu-ray
  370. Audio #16
  371. ID                                       : 17
  372. ID in the original source medium         : 4366 (0x110E)
  373. Format                                   : AC-3
  374. Format/Info                              : Audio Coding 3
  375. Commercial name                          : Dolby Digital
  376. Format settings                          : Dolby Surround
  377. Codec ID                                 : A_AC3
  378. Duration                                 : 2 h 1 min
  379. Bit rate mode                            : Constant
  380. Bit rate                                 : 192 kb/s
  381. Channel(s)                               : 2 channels
  382. Channel layout                           : L R
  383. Sampling rate                            : 48.0 kHz
  384. Frame rate                               : 31.250 FPS (1536 SPF)
  385. Compression mode                         : Lossy
  386. Stream size                              : 167 MiB (0%)
  387. Title                                    : DD 2.0
  388. Language                                 : English
  389. Service kind                             : Complete Main
  390. Default                                  : No
  391. Forced                                   : No
  392. Original source medium                   : Blu-ray
  393. Text #1
  394. ID                                       : 18
  395. Format                                   : UTF-8
  396. Codec ID                                 : S_TEXT/UTF8
  397. Codec ID/Info                            : UTF-8 Plain Text
  398. Duration                                 : 1 h 55 min
  399. Bit rate                                 : 43 b/s
  400. Frame rate                               : 0.158 FPS
  401. Count of elements                        : 1095
  402. Stream size                              : 36.8 KiB (0%)
  403. Language                                 : English
  404. Default                                  : Yes
  405. Forced                                   : No
  406. Text #2
  407. ID                                       : 19
  408. Format                                   : UTF-8
  409. Codec ID                                 : S_TEXT/UTF8
  410. Codec ID/Info                            : UTF-8 Plain Text
  411. Duration                                 : 1 h 55 min
  412. Bit rate                                 : 48 b/s
  413. Frame rate                               : 0.202 FPS
  414. Count of elements                        : 1397
  415. Stream size                              : 41.0 KiB (0%)
  416. Title                                    : SDH
  417. Language                                 : English
  418. Default                                  : No
  419. Forced                                   : No
  420. Text #3
  421. ID                                       : 20
  422. ID in the original source medium         : 4769 (0x12A1)
  423. Format                                   : PGS
  424. Muxing mode                              : zlib
  425. Codec ID                                 : S_HDMV/PGS
  426. Codec ID/Info                            : Picture based subtitle format used on BDs/HD-DVDs
  427. Duration                                 : 1 h 55 min
  428. Bit rate                                 : 27.9 kb/s
  429. Frame rate                               : 0.425 FPS
  430. Count of elements                        : 2946
  431. Stream size                              : 23.0 MiB (0%)
  432. Language                                 : English
  433. Default                                  : No
  434. Forced                                   : No
  435. Original source medium                   : Blu-ray
  436. Text #4
  437. ID                                       : 21
  438. ID in the original source medium         : 4770 (0x12A2)
  439. Format                                   : PGS
  440. Muxing mode                              : zlib
  441. Codec ID                                 : S_HDMV/PGS
  442. Codec ID/Info                            : Picture based subtitle format used on BDs/HD-DVDs
  443. Duration                                 : 1 h 55 min
  444. Bit rate                                 : 20.7 kb/s
  445. Frame rate                               : 0.343 FPS
  446. Count of elements                        : 2370
  447. Stream size                              : 17.0 MiB (0%)
  448. Language                                 : French
  449. Default                                  : No
  450. Forced                                   : No
  451. Original source medium                   : Blu-ray
  452. Text #5
  453. ID                                       : 22
  454. ID in the original source medium         : 4771 (0x12A3)
  455. Format                                   : PGS
  456. Muxing mode                              : zlib
  457. Codec ID                                 : S_HDMV/PGS
  458. Codec ID/Info                            : Picture based subtitle format used on BDs/HD-DVDs
  459. Duration                                 : 1 h 55 min
  460. Bit rate                                 : 24.4 kb/s
  461. Frame rate                               : 0.360 FPS
  462. Count of elements                        : 2488
  463. Stream size                              : 20.1 MiB (0%)
  464. Language                                 : German
  465. Default                                  : No
  466. Forced                                   : No
  467. Original source medium                   : Blu-ray
  468. Text #6
  469. ID                                       : 23
  470. ID in the original source medium         : 4772 (0x12A4)
  471. Format                                   : PGS
  472. Muxing mode                              : zlib
  473. Codec ID                                 : S_HDMV/PGS
  474. Codec ID/Info                            : Picture based subtitle format used on BDs/HD-DVDs
  475. Duration                                 : 1 h 55 min
  476. Bit rate                                 : 23.1 kb/s
  477. Frame rate                               : 0.361 FPS
  478. Count of elements                        : 2492
  479. Stream size                              : 19.0 MiB (0%)
  480. Language                                 : Italian
  481. Default                                  : No
  482. Forced                                   : No
  483. Original source medium                   : Blu-ray
  484. Text #7
  485. ID                                       : 24
  486. ID in the original source medium         : 4773 (0x12A5)
  487. Format                                   : PGS
  488. Muxing mode                              : zlib
  489. Codec ID                                 : S_HDMV/PGS
  490. Codec ID/Info                            : Picture based subtitle format used on BDs/HD-DVDs
  491. Duration                                 : 1 h 55 min
  492. Bit rate                                 : 23.3 kb/s
  493. Frame rate                               : 0.347 FPS
  494. Count of elements                        : 2398
  495. Stream size                              : 19.2 MiB (0%)
  496. Language                                 : Spanish
  497. Default                                  : No
  498. Forced                                   : No
  499. Original source medium                   : Blu-ray
  500. Text #8
  501. ID                                       : 25
  502. ID in the original source medium         : 4773 (0x12A5)
  503. Format                                   : PGS
  504. Muxing mode                              : zlib
  505. Codec ID                                 : S_HDMV/PGS
  506. Codec ID/Info                            : Picture based subtitle format used on BDs/HD-DVDs
  507. Duration                                 : 1 h 44 min
  508. Bit rate                                 : 295 b/s
  509. Frame rate                               : 0.004 FPS
  510. Count of elements                        : 28
  511. Stream size                              : 226 KiB (0%)
  512. Language                                 : Spanish
  513. Default                                  : No
  514. Forced                                   : No
  515. Original source medium                   : Blu-ray
  516. Text #9
  517. ID                                       : 26
  518. ID in the original source medium         : 4774 (0x12A6)
  519. Format                                   : PGS
  520. Muxing mode                              : zlib
  521. Codec ID                                 : S_HDMV/PGS
  522. Codec ID/Info                            : Picture based subtitle format used on BDs/HD-DVDs
  523. Duration                                 : 1 h 55 min
  524. Bit rate                                 : 21.8 kb/s
  525. Frame rate                               : 0.347 FPS
  526. Count of elements                        : 2400
  527. Stream size                              : 18.0 MiB (0%)
  528. Language                                 : Dutch
  529. Default                                  : No
  530. Forced                                   : No
  531. Original source medium                   : Blu-ray
  532. Text #10
  533. ID                                       : 27
  534. ID in the original source medium         : 4775 (0x12A7)
  535. Format                                   : PGS
  536. Muxing mode                              : zlib
  537. Codec ID                                 : S_HDMV/PGS
  538. Codec ID/Info                            : Picture based subtitle format used on BDs/HD-DVDs
  539. Duration                                 : 1 h 56 min
  540. Bit rate                                 : 19.4 kb/s
  541. Frame rate                               : 0.349 FPS
  542. Count of elements                        : 2440
  543. Stream size                              : 16.2 MiB (0%)
  544. Language                                 : Chinese
  545. Default                                  : No
  546. Forced                                   : No
  547. Original source medium                   : Blu-ray
  548. Text #11
  549. ID                                       : 28
  550. ID in the original source medium         : 4776 (0x12A8)
  551. Format                                   : PGS
  552. Muxing mode                              : zlib
  553. Codec ID                                 : S_HDMV/PGS
  554. Codec ID/Info                            : Picture based subtitle format used on BDs/HD-DVDs
  555. Duration                                 : 1 h 55 min
  556. Bit rate                                 : 21.0 kb/s
  557. Frame rate                               : 0.355 FPS
  558. Count of elements                        : 2450
  559. Stream size                              : 17.3 MiB (0%)
  560. Language                                 : Chinese
  561. Default                                  : No
  562. Forced                                   : No
  563. Original source medium                   : Blu-ray
  564. Text #12
  565. ID                                       : 29
  566. ID in the original source medium         : 4777 (0x12A9)
  567. Format                                   : PGS
  568. Muxing mode                              : zlib
  569. Codec ID                                 : S_HDMV/PGS
  570. Codec ID/Info                            : Picture based subtitle format used on BDs/HD-DVDs
  571. Duration                                 : 1 h 56 min
  572. Bit rate                                 : 17.9 kb/s
  573. Frame rate                               : 0.348 FPS
  574. Count of elements                        : 2434
  575. Stream size                              : 14.9 MiB (0%)
  576. Language                                 : Korean
  577. Default                                  : No
  578. Forced                                   : No
  579. Original source medium                   : Blu-ray
  580. Text #13
  581. ID                                       : 30
  582. ID in the original source medium         : 4778 (0x12AA)
  583. Format                                   : PGS
  584. Muxing mode                              : zlib
  585. Codec ID                                 : S_HDMV/PGS
  586. Codec ID/Info                            : Picture based subtitle format used on BDs/HD-DVDs
  587. Duration                                 : 1 h 55 min
  588. Bit rate                                 : 23.3 kb/s
  589. Frame rate                               : 0.348 FPS
  590. Count of elements                        : 2406
  591. Stream size                              : 19.2 MiB (0%)
  592. Language                                 : Spanish
  593. Default                                  : No
  594. Forced                                   : No
  595. Original source medium                   : Blu-ray
  596. Text #14
  597. ID                                       : 31
  598. ID in the original source medium         : 4779 (0x12AB)
  599. Format                                   : PGS
  600. Muxing mode                              : zlib
  601. Codec ID                                 : S_HDMV/PGS
  602. Codec ID/Info                            : Picture based subtitle format used on BDs/HD-DVDs
  603. Duration                                 : 1 h 55 min
  604. Bit rate                                 : 14.3 kb/s
  605. Frame rate                               : 0.347 FPS
  606. Count of elements                        : 2412
  607. Stream size                              : 11.9 MiB (0%)
  608. Language                                 : Arabic
  609. Default                                  : No
  610. Forced                                   : No
  611. Original source medium                   : Blu-ray
  612. Text #15
  613. ID                                       : 32
  614. ID in the original source medium         : 4780 (0x12AC)
  615. Format                                   : PGS
  616. Muxing mode                              : zlib
  617. Codec ID                                 : S_HDMV/PGS
  618. Codec ID/Info                            : Picture based subtitle format used on BDs/HD-DVDs
  619. Duration                                 : 1 h 55 min
  620. Bit rate                                 : 21.1 kb/s
  621. Frame rate                               : 0.348 FPS
  622. Count of elements                        : 2402
  623. Stream size                              : 17.3 MiB (0%)
  624. Language                                 : Czech
  625. Default                                  : No
  626. Forced                                   : No
  627. Original source medium                   : Blu-ray
  628. Text #16
  629. ID                                       : 33
  630. ID in the original source medium         : 4780 (0x12AC)
  631. Format                                   : PGS
  632. Muxing mode                              : zlib
  633. Codec ID                                 : S_HDMV/PGS
  634. Codec ID/Info                            : Picture based subtitle format used on BDs/HD-DVDs
  635. Duration                                 : 1 h 32 min
  636. Bit rate                                 : 342 b/s
  637. Frame rate                               : 0.007 FPS
  638. Count of elements                        : 36
  639. Stream size                              : 231 KiB (0%)
  640. Language                                 : Czech
  641. Default                                  : No
  642. Forced                                   : No
  643. Original source medium                   : Blu-ray
  644. Text #17
  645. ID                                       : 34
  646. ID in the original source medium         : 4781 (0x12AD)
  647. Format                                   : PGS
  648. Muxing mode                              : zlib
  649. Codec ID                                 : S_HDMV/PGS
  650. Codec ID/Info                            : Picture based subtitle format used on BDs/HD-DVDs
  651. Duration                                 : 1 h 55 min
  652. Bit rate                                 : 20.8 kb/s
  653. Frame rate                               : 0.347 FPS
  654. Count of elements                        : 2398
  655. Stream size                              : 17.2 MiB (0%)
  656. Language                                 : Danish
  657. Default                                  : No
  658. Forced                                   : No
  659. Original source medium                   : Blu-ray
  660. Text #18
  661. ID                                       : 35
  662. ID in the original source medium         : 4782 (0x12AE)
  663. Format                                   : PGS
  664. Muxing mode                              : zlib
  665. Codec ID                                 : S_HDMV/PGS
  666. Codec ID/Info                            : Picture based subtitle format used on BDs/HD-DVDs
  667. Duration                                 : 1 h 55 min
  668. Bit rate                                 : 20.2 kb/s
  669. Frame rate                               : 0.347 FPS
  670. Count of elements                        : 2400
  671. Stream size                              : 16.7 MiB (0%)
  672. Language                                 : Finnish
  673. Default                                  : No
  674. Forced                                   : No
  675. Original source medium                   : Blu-ray
  676. Text #19
  677. ID                                       : 36
  678. ID in the original source medium         : 4783 (0x12AF)
  679. Format                                   : PGS
  680. Muxing mode                              : zlib
  681. Codec ID                                 : S_HDMV/PGS
  682. Codec ID/Info                            : Picture based subtitle format used on BDs/HD-DVDs
  683. Duration                                 : 1 h 55 min
  684. Bit rate                                 : 22.2 kb/s
  685. Frame rate                               : 0.347 FPS
  686. Count of elements                        : 2398
  687. Stream size                              : 18.3 MiB (0%)
  688. Language                                 : Hungarian
  689. Default                                  : No
  690. Forced                                   : No
  691. Original source medium                   : Blu-ray
  692. Text #20
  693. ID                                       : 37
  694. ID in the original source medium         : 4783 (0x12AF)
  695. Format                                   : PGS
  696. Muxing mode                              : zlib
  697. Codec ID                                 : S_HDMV/PGS
  698. Codec ID/Info                            : Picture based subtitle format used on BDs/HD-DVDs
  699. Duration                                 : 1 h 32 min
  700. Bit rate                                 : 357 b/s
  701. Frame rate                               : 0.006 FPS
  702. Count of elements                        : 34
  703. Stream size                              : 242 KiB (0%)
  704. Language                                 : Hungarian
  705. Default                                  : No
  706. Forced                                   : No
  707. Original source medium                   : Blu-ray
  708. Text #21
  709. ID                                       : 38
  710. ID in the original source medium         : 4784 (0x12B0)
  711. Format                                   : PGS
  712. Muxing mode                              : zlib
  713. Codec ID                                 : S_HDMV/PGS
  714. Codec ID/Info                            : Picture based subtitle format used on BDs/HD-DVDs
  715. Duration                                 : 1 h 55 min
  716. Bit rate                                 : 19.8 kb/s
  717. Frame rate                               : 0.347 FPS
  718. Count of elements                        : 2398
  719. Stream size                              : 16.3 MiB (0%)
  720. Language                                 : Norwegian
  721. Default                                  : No
  722. Forced                                   : No
  723. Original source medium                   : Blu-ray
  724. Text #22
  725. ID                                       : 39
  726. ID in the original source medium         : 4785 (0x12B1)
  727. Format                                   : PGS
  728. Muxing mode                              : zlib
  729. Codec ID                                 : S_HDMV/PGS
  730. Codec ID/Info                            : Picture based subtitle format used on BDs/HD-DVDs
  731. Duration                                 : 1 h 55 min
  732. Bit rate                                 : 20.0 kb/s
  733. Frame rate                               : 0.348 FPS
  734. Count of elements                        : 2404
  735. Stream size                              : 16.5 MiB (0%)
  736. Language                                 : Polish
  737. Default                                  : No
  738. Forced                                   : No
  739. Original source medium                   : Blu-ray
  740. Text #23
  741. ID                                       : 40
  742. ID in the original source medium         : 4785 (0x12B1)
  743. Format                                   : PGS
  744. Muxing mode                              : zlib
  745. Codec ID                                 : S_HDMV/PGS
  746. Codec ID/Info                            : Picture based subtitle format used on BDs/HD-DVDs
  747. Duration                                 : 1 h 32 min
  748. Bit rate                                 : 247 b/s
  749. Frame rate                               : 0.005 FPS
  750. Count of elements                        : 26
  751. Stream size                              : 167 KiB (0%)
  752. Language                                 : Polish
  753. Default                                  : No
  754. Forced                                   : No
  755. Original source medium                   : Blu-ray
  756. Text #24
  757. ID                                       : 41
  758. ID in the original source medium         : 4786 (0x12B2)
  759. Format                                   : PGS
  760. Muxing mode                              : zlib
  761. Codec ID                                 : S_HDMV/PGS
  762. Codec ID/Info                            : Picture based subtitle format used on BDs/HD-DVDs
  763. Duration                                 : 1 h 55 min
  764. Bit rate                                 : 20.2 kb/s
  765. Frame rate                               : 0.349 FPS
  766. Count of elements                        : 2412
  767. Stream size                              : 16.6 MiB (0%)
  768. Language                                 : Russian
  769. Default                                  : No
  770. Forced                                   : No
  771. Original source medium                   : Blu-ray
  772. Text #25
  773. ID                                       : 42
  774. ID in the original source medium         : 4786 (0x12B2)
  775. Format                                   : PGS
  776. Muxing mode                              : zlib
  777. Codec ID                                 : S_HDMV/PGS
  778. Codec ID/Info                            : Picture based subtitle format used on BDs/HD-DVDs
  779. Duration                                 : 1 h 32 min
  780. Bit rate                                 : 245 b/s
  781. Frame rate                               : 0.005 FPS
  782. Count of elements                        : 28
  783. Stream size                              : 165 KiB (0%)
  784. Language                                 : Russian
  785. Default                                  : No
  786. Forced                                   : No
  787. Original source medium                   : Blu-ray
  788. Text #26
  789. ID                                       : 43
  790. ID in the original source medium         : 4787 (0x12B3)
  791. Format                                   : PGS
  792. Muxing mode                              : zlib
  793. Codec ID                                 : S_HDMV/PGS
  794. Codec ID/Info                            : Picture based subtitle format used on BDs/HD-DVDs
  795. Duration                                 : 1 h 55 min
  796. Bit rate                                 : 20.1 kb/s
  797. Frame rate                               : 0.347 FPS
  798. Count of elements                        : 2398
  799. Stream size                              : 16.5 MiB (0%)
  800. Language                                 : Swedish
  801. Default                                  : No
  802. Forced                                   : No
  803. Original source medium                   : Blu-ray
  804. Text #27
  805. ID                                       : 44
  806. ID in the original source medium         : 4788 (0x12B4)
  807. Format                                   : PGS
  808. Muxing mode                              : zlib
  809. Codec ID                                 : S_HDMV/PGS
  810. Codec ID/Info                            : Picture based subtitle format used on BDs/HD-DVDs
  811. Duration                                 : 1 h 59 min
  812. Bit rate                                 : 20.9 kb/s
  813. Frame rate                               : 0.316 FPS
  814. Count of elements                        : 2272
  815. Stream size                              : 17.9 MiB (0%)
  816. Language                                 : Thai
  817. Default                                  : No
  818. Forced                                   : No
  819. Original source medium                   : Blu-ray
  820. Text #28
  821. ID                                       : 45
  822. ID in the original source medium         : 4790 (0x12B6)
  823. Format                                   : PGS
  824. Muxing mode                              : zlib
  825. Codec ID                                 : S_HDMV/PGS
  826. Codec ID/Info                            : Picture based subtitle format used on BDs/HD-DVDs
  827. Duration                                 : 1 h 44 min
  828. Bit rate                                 : 192 b/s
  829. Frame rate                               : 0.003 FPS
  830. Count of elements                        : 20
  831. Stream size                              : 147 KiB (0%)
  832. Language                                 : French
  833. Default                                  : No
  834. Forced                                   : No
  835. Original source medium                   : Blu-ray
  836. Text #29
  837. ID                                       : 46
  838. ID in the original source medium         : 4791 (0x12B7)
  839. Format                                   : PGS
  840. Muxing mode                              : zlib
  841. Codec ID                                 : S_HDMV/PGS
  842. Codec ID/Info                            : Picture based subtitle format used on BDs/HD-DVDs
  843. Duration                                 : 1 h 44 min
  844. Bit rate                                 : 351 b/s
  845. Frame rate                               : 0.005 FPS
  846. Count of elements                        : 34
  847. Stream size                              : 268 KiB (0%)
  848. Language                                 : German
  849. Default                                  : No
  850. Forced                                   : No
  851. Original source medium                   : Blu-ray
  852. Text #30
  853. ID                                       : 47
  854. ID in the original source medium         : 4792 (0x12B8)
  855. Format                                   : PGS
  856. Muxing mode                              : zlib
  857. Codec ID                                 : S_HDMV/PGS
  858. Codec ID/Info                            : Picture based subtitle format used on BDs/HD-DVDs
  859. Duration                                 : 1 h 44 min
  860. Bit rate                                 : 343 b/s
  861. Frame rate                               : 0.005 FPS
  862. Count of elements                        : 32
  863. Stream size                              : 262 KiB (0%)
  864. Language                                 : Italian
  865. Default                                  : No
  866. Forced                                   : No
  867. Original source medium                   : Blu-ray
  868. Text #31
  869. ID                                       : 48
  870. ID in the original source medium         : 4793 (0x12B9)
  871. Format                                   : PGS
  872. Muxing mode                              : zlib
  873. Codec ID                                 : S_HDMV/PGS
  874. Codec ID/Info                            : Picture based subtitle format used on BDs/HD-DVDs
  875. Duration                                 : 1 h 31 min
  876. Bit rate                                 : 567 b/s
  877. Frame rate                               : 0.008 FPS
  878. Count of elements                        : 42
  879. Stream size                              : 380 KiB (0%)
  880. Language                                 : Spanish
  881. Default                                  : No
  882. Forced                                   : No
  883. Original source medium                   : Blu-ray
  884. Menu
  885. 00:00:00.000                             : en:Chapter 01
  886. 00:02:17.887                             : en:Chapter 02
  887. 00:05:30.496                             : en:Chapter 03
  888. 00:10:10.610                             : en:Chapter 04
  889. 00:12:40.885                             : en:Chapter 05
  890. 00:16:36.453                             : en:Chapter 06
  891. 00:19:55.903                             : en:Chapter 07
  892. 00:24:51.948                             : en:Chapter 08
  893. 00:29:09.914                             : en:Chapter 09
  894. 00:32:56.557                             : en:Chapter 10
  895. 00:41:02.918                             : en:Chapter 11
  896. 00:44:09.438                             : en:Chapter 12
  897. 00:46:51.725                             : en:Chapter 13
  898. 00:48:09.177                             : en:Chapter 14
  899. 00:50:49.421                             : en:Chapter 15
  900. 00:56:48.488                             : en:Chapter 16
  901. 00:58:16.951                             : en:Chapter 17
  902. 01:01:51.165                             : en:Chapter 18
  903. 01:04:44.839                             : en:Chapter 19
  904. 01:08:37.947                             : en:Chapter 20
  905. 01:10:24.386                             : en:Chapter 21
  906. 01:15:13.884                             : en:Chapter 22
  907. 01:19:55.665                             : en:Chapter 23
  908. 01:21:59.748                             : en:Chapter 24
  909. 01:24:06.708                             : en:Chapter 25
  910. 01:24:58.343                             : en:Chapter 26
  911. 01:26:17.505                             : en:Chapter 27
  912. 01:31:35.740                             : en:Chapter 28
  913. 01:35:50.453                             : en:Chapter 29
  914. 01:37:25.005                             : en:Chapter 30
  915. 01:39:55.948                             : en:Chapter 31
  916. 01:41:11.190                             : en:Chapter 32
  917. 01:42:53.792                             : en:Chapter 33
  918. 01:44:58.792                             : en:Chapter 34
  919. 01:52:35.665                             : en:Chapter 35
  920. 01:53:44.943                             : en:Chapter 36
  921. 01:54:42.166                             : en:Chapter 37
  922. 01:56:03.706                             : en:Chapter 38
  923. 01:57:33.212                             : en:Chapter 39
复制代码




                                       
                                       

                                       
                                       
                                       




Batman.Forever.1995.PROPER.2160p.BluRay.REMUX.HEVC.DTS-HD.MA.TrueHD.7.1.Atmos-FGT.torrent (98.76 KB, 下载次数: 0)
回复

使用道具 举报

您需要登录后才可以回帖 登录 | 立即注册

本版积分规则

QQ|Archiver|手机版|小黑屋|蓝光电影网

GMT+8, 2023-2-8 02:25 , Processed in 0.059215 second(s), 28 queries .

Powered by Discuz! X3.4

Copyright © 2001-2020, Tencent Cloud.

快速回复 返回顶部 返回列表