找回密码
 立即注册

QQ登录

只需一步,快速开始

查看: 105|回复: 0

[UHD.HEVC] 蝙蝠侠:黑暗骑士崛起 The.Dark.Knight.Rises.2012.PROPER.2160p.BluRay.REMUX.HEVC.DTS-HD.MA.5.1-FGT 82.54GB

[复制链接]

0

精华

0

好友

2

听众

新手上路

Rank: 2

蓝光币
5
发表于 2022-11-30 07:51:57 | 显示全部楼层 |阅读模式
[img][/img]

◎标  题 蝙蝠侠:黑暗骑士崛起
◎译  名 蝙蝠侠前传3:黑暗骑士崛起 / 黑暗骑士:黎明升起(台) / 蝙蝠侠:夜神起义(港) / 蝙蝠侠前传3:黑骑再起 / 蝙蝠侠7:黑暗骑士崛起 / 暗夜骑士崛起 / T.D.K.R. / TDKR / Batman 3: The Dark Knight Rises
◎片  名 The Dark Knight Rises
◎年  代 2012
◎产  地 美国 / 英国
◎类  别 剧情 / 动作 / 科幻 / 惊悚 / 犯罪
◎语  言 英语 / 阿拉伯语
◎上映日期 2012-08-27(中国大陆) / 2012-07-20(美国)
◎IMDb评分 8.4/10 (1595584人评价)
◎IMDb链接 https://www.imdb.com/title/tt1345836/
◎豆瓣评分 8.8/10 (619001人评价)
◎豆瓣链接 https://movie.douban.com/subject/3395373/
◎片  长 165分钟
◎导  演 克里斯托弗·诺兰 Christopher Nolan
◎编  剧 大卫·S·高耶 David S. Goyer
       乔纳森·诺兰 Jonathan Nolan
       克里斯托弗·诺兰 Christopher Nolan
       鲍勃·凯恩 Bob Kane
◎演  员 克里斯蒂安·贝尔 Christian Bale
       汤姆·哈迪 Tom Hardy
       安妮·海瑟薇 Anne Hathaway
       约瑟夫·高登-莱维特 Joseph Gordon-Levitt
       玛丽昂·歌迪亚 Marion Cotillard
       加里·奥德曼 Gary Oldman
       迈克尔·凯恩 Michael Caine
       摩根·弗里曼 Morgan Freeman
       朱诺·坦普尔 Juno Temple
       乔什·平茨 Josh Pence
       丹尼尔·逊亚塔 Daniel Sunjata
       内斯特·卡博内尔 Nestor Carbonell
       伯恩·戈曼 Burn Gorman
       连姆·尼森 Liam Neeson
       乔伊·金 Joey King
       艾丹·吉伦 Aidan Gillen
       基里安·墨菲 Cillian Murphy
       乔什·斯图沃特 Josh Stewart
       马修·莫迪恩 Matthew Modine
       本·门德尔森 Ben Mendelsohn
       本·科尼什 Ben Cornish
       克莱尔·茱莉安 Claire Julien
       伊恩·鲍汉 Ian Bohen
       威廉姆·德瓦内 William Devane
       罗伯特·维斯多姆 Robert Wisdom
       弗瑞德里克·林恩 Fredric Lehne
       罗伯·布朗 Rob Brown
       约瑟夫·莱尔·泰勒 Joseph Lyle Taylor
       阿隆·阿布布尔 Alon Aboutboul
       艾伦·萨吉尼亚 Alan Saginian
       约翰·诺兰 John Nolan
       托马斯·图尔 Thomas Tull
       杰伊·本尼迪克特 Jay Benedict
       金锋 Feng Jin
       约翰·麦克米兰 John MacMillan
       杰克·卡鲁索 Jake Canuso
       迪索·拉莫斯 Diezel Ramos
       英迪娅·沃兹沃思 India Wadsworth
       阿拉米斯·奈特 Aramis Knight
       特雷弗·怀特 Trevor White
       布莱特·卡伦 Brett Cullen
       拉塞尔·巴洛格 Russell Balogh
       艾捷拉·埃文斯 Aja Evans
       托马斯·列农 Thomas Lennon
       戴斯蒙德·哈灵顿 Desmond Harrington
       汤姆·康蒂 Tom Conti
       大卫·莫纳汉 David Monahan
       韦德·威廉姆斯 Wade Williams
       雷吉·李 Reggie Lee
       艾玛·托马斯 Emma Thomas
       克里斯托弗·诺兰 Christopher Nolan
       马切尔·E·尤斯兰 Michael E. Uslan
       托马斯·图尔 Thomas Tull
       查尔斯·罗文 Charles Roven
       汉斯·季默 Hans Zimmer
       詹姆斯·纽顿·霍华德 James Newton Howard
       沃利·菲斯特 Wally Pfister
       林迪·海明 Lindy Hemming
◎标  签 蝙蝠侠 / 美国 / 科幻 / 超级英雄 / 动作 / 犯罪 / 漫画改编 / 人性
◎简  介

  检察官哈维·登特(艾伦·艾克哈特 Aaron Eckhart 饰)死后的八年间,哥谭市在戈登警长(加里·奥德曼 Gary Oldman 饰)的努力下有效地遏制了犯罪活动。而蝙蝠侠布鲁斯·韦恩(克里斯蒂安·贝尔 Christian Bale 饰)因为背负谋杀登特的罪名,被 警方通缉,在哥谭市销声匿迹。然而,这看似平静的状态被恐怖分子贝恩(汤姆·哈迪 Tom Hardy 饰)的出现打破,他利用猫女(安妮·海瑟薇 Anne Hathaway 饰)偷取布鲁斯的指纹,致使韦恩集团面临破财,布鲁斯被赶出董事会。为了保证韦恩集团投资的能源项目不被坏人利用制造核弹,布鲁斯帮助米兰达(玛丽昂·歌迪亚 Marion Cotillard 饰)成为董事会主席。贝恩接下来一连串精密设计的计划将哥谭市陷入孤绝之境,毁灭之日指日可待。布鲁斯只能再次肩负起拯救哥谭的重任,然而至亲的...
  1. Video
  2. ID                                       : 1
  3. ID in the original source medium         : 4113 (0x1011)
  4. Format                                   : HEVC
  5. Format/Info                              : High Efficiency Video Coding
  6. Format profile                           : Main [email protected]@High
  7. HDR format                               : SMPTE ST 2086, HDR10 compatible
  8. Codec ID                                 : V_MPEGH/ISO/HEVC
  9. Duration                                 : 2 h 44 min
  10. Bit rate                                 : 55.8 Mb/s
  11. Width                                    : 3 840 pixels
  12. Height                                   : 2 160 pixels
  13. Display aspect ratio                     : 16:9
  14. Frame rate mode                          : Constant
  15. Frame rate                               : 23.976 (24000/1001/189150) FPS
  16. Color space                              : YUV
  17. Chroma subsampling                       : 4:2:0 (Type 2)
  18. Bit depth                                : 10 bits
  19. Bits/(Pixel*Frame)                       : 0.281
  20. Stream size                              : 64.1 GiB (78%)
  21. Language                                 : English
  22. Default                                  : No
  23. Forced                                   : No
  24. Color range                              : Limited
  25. Color primaries                          : BT.2020
  26. Transfer characteristics                 : PQ
  27. Matrix coefficients                      : BT.2020 non-constant
  28. Mastering display color primaries        : Display P3
  29. Mastering display luminance              : min: 0.0050 cd/m2, max: 4000 cd/m2
  30. Maximum Content Light Level              : 500 cd/m2
  31. Maximum Frame-Average Light Level        : 200 cd/m2
  32. Original source medium                   : Blu-ray
  33. Audio #1
  34. ID                                       : 2
  35. ID in the original source medium         : 4352 (0x1100)
  36. Format                                   : DTS XLL
  37. Format/Info                              : Digital Theater Systems
  38. Commercial name                          : DTS-HD Master Audio
  39. Codec ID                                 : A_DTS
  40. Duration                                 : 2 h 44 min
  41. Bit rate mode                            : Variable
  42. Bit rate                                 : 4 037 kb/s
  43. Channel(s)                               : 6 channels
  44. Channel layout                           : C L R Ls Rs LFE
  45. Sampling rate                            : 48.0 kHz
  46. Frame rate                               : 93.750 FPS (512 SPF)
  47. Bit depth                                : 24 bits
  48. Compression mode                         : Lossless
  49. Stream size                              : 4.64 GiB (6%)
  50. Title                                    : DTS-HD MA 5.1
  51. Language                                 : English
  52. Default                                  : Yes
  53. Forced                                   : No
  54. Original source medium                   : Blu-ray
  55. Audio #2
  56. ID                                       : 3
  57. Format                                   : AC-3
  58. Format/Info                              : Audio Coding 3
  59. Commercial name                          : Dolby Digital
  60. Codec ID                                 : A_AC3
  61. Duration                                 : 2 h 44 min
  62. Bit rate mode                            : Constant
  63. Bit rate                                 : 640 kb/s
  64. Channel(s)                               : 6 channels
  65. Channel layout                           : L R C LFE Ls Rs
  66. Sampling rate                            : 48.0 kHz
  67. Frame rate                               : 31.250 FPS (1536 SPF)
  68. Compression mode                         : Lossy
  69. Stream size                              : 753 MiB (1%)
  70. Title                                    : DD 5.1
  71. Language                                 : English
  72. Service kind                             : Complete Main
  73. Default                                  : No
  74. Forced                                   : No
  75. Audio #3
  76. ID                                       : 4
  77. ID in the original source medium         : 4353 (0x1101)
  78. Format                                   : AC-3
  79. Format/Info                              : Audio Coding 3
  80. Commercial name                          : Dolby Digital
  81. Codec ID                                 : A_AC3
  82. Duration                                 : 2 h 44 min
  83. Bit rate mode                            : Constant
  84. Bit rate                                 : 448 kb/s
  85. Channel(s)                               : 6 channels
  86. Channel layout                           : L R C LFE Ls Rs
  87. Sampling rate                            : 48.0 kHz
  88. Frame rate                               : 31.250 FPS (1536 SPF)
  89. Compression mode                         : Lossy
  90. Stream size                              : 527 MiB (1%)
  91. Title                                    : DD 5.1
  92. Language                                 : English
  93. Service kind                             : Complete Main
  94. Default                                  : No
  95. Forced                                   : No
  96. Original source medium                   : Blu-ray
  97. Audio #4
  98. ID                                       : 5
  99. ID in the original source medium         : 4354 (0x1102)
  100. Format                                   : AC-3
  101. Format/Info                              : Audio Coding 3
  102. Commercial name                          : Dolby Digital
  103. Codec ID                                 : A_AC3
  104. Duration                                 : 2 h 44 min
  105. Bit rate mode                            : Constant
  106. Bit rate                                 : 448 kb/s
  107. Channel(s)                               : 6 channels
  108. Channel layout                           : L R C LFE Ls Rs
  109. Sampling rate                            : 48.0 kHz
  110. Frame rate                               : 31.250 FPS (1536 SPF)
  111. Compression mode                         : Lossy
  112. Stream size                              : 527 MiB (1%)
  113. Title                                    : DD 5.1
  114. Language                                 : French
  115. Service kind                             : Complete Main
  116. Default                                  : No
  117. Forced                                   : No
  118. Original source medium                   : Blu-ray
  119. Audio #5
  120. ID                                       : 6
  121. ID in the original source medium         : 4355 (0x1103)
  122. Format                                   : DTS XLL
  123. Format/Info                              : Digital Theater Systems
  124. Commercial name                          : DTS-HD Master Audio
  125. Codec ID                                 : A_DTS
  126. Duration                                 : 2 h 44 min
  127. Bit rate mode                            : Variable
  128. Bit rate                                 : 2 345 kb/s
  129. Channel(s)                               : 6 channels
  130. Channel layout                           : C L R Ls Rs LFE
  131. Sampling rate                            : 48.0 kHz
  132. Frame rate                               : 93.750 FPS (512 SPF)
  133. Bit depth                                : 16 bits
  134. Compression mode                         : Lossless
  135. Stream size                              : 2.70 GiB (3%)
  136. Title                                    : DTS-HD MA 5.1
  137. Language                                 : French
  138. Default                                  : No
  139. Forced                                   : No
  140. Original source medium                   : Blu-ray
  141. Audio #6
  142. ID                                       : 7
  143. ID in the original source medium         : 4356 (0x1104)
  144. Format                                   : DTS XLL
  145. Format/Info                              : Digital Theater Systems
  146. Commercial name                          : DTS-HD Master Audio
  147. Codec ID                                 : A_DTS
  148. Duration                                 : 2 h 44 min
  149. Bit rate mode                            : Variable
  150. Bit rate                                 : 2 334 kb/s
  151. Channel(s)                               : 6 channels
  152. Channel layout                           : C L R Ls Rs LFE
  153. Sampling rate                            : 48.0 kHz
  154. Frame rate                               : 93.750 FPS (512 SPF)
  155. Bit depth                                : 16 bits
  156. Compression mode                         : Lossless
  157. Stream size                              : 2.68 GiB (3%)
  158. Title                                    : DTS-HD MA 5.1
  159. Language                                 : German
  160. Default                                  : No
  161. Forced                                   : No
  162. Original source medium                   : Blu-ray
  163. Audio #7
  164. ID                                       : 8
  165. ID in the original source medium         : 4357 (0x1105)
  166. Format                                   : AC-3
  167. Format/Info                              : Audio Coding 3
  168. Commercial name                          : Dolby Digital
  169. Codec ID                                 : A_AC3
  170. Duration                                 : 2 h 44 min
  171. Bit rate mode                            : Constant
  172. Bit rate                                 : 448 kb/s
  173. Channel(s)                               : 6 channels
  174. Channel layout                           : L R C LFE Ls Rs
  175. Sampling rate                            : 48.0 kHz
  176. Frame rate                               : 31.250 FPS (1536 SPF)
  177. Compression mode                         : Lossy
  178. Stream size                              : 527 MiB (1%)
  179. Title                                    : DD 5.1
  180. Language                                 : Italian
  181. Service kind                             : Complete Main
  182. Default                                  : No
  183. Forced                                   : No
  184. Original source medium                   : Blu-ray
  185. Audio #8
  186. ID                                       : 9
  187. ID in the original source medium         : 4358 (0x1106)
  188. Format                                   : AC-3
  189. Format/Info                              : Audio Coding 3
  190. Commercial name                          : Dolby Digital
  191. Codec ID                                 : A_AC3
  192. Duration                                 : 2 h 44 min
  193. Bit rate mode                            : Constant
  194. Bit rate                                 : 448 kb/s
  195. Channel(s)                               : 6 channels
  196. Channel layout                           : L R C LFE Ls Rs
  197. Sampling rate                            : 48.0 kHz
  198. Frame rate                               : 31.250 FPS (1536 SPF)
  199. Compression mode                         : Lossy
  200. Stream size                              : 527 MiB (1%)
  201. Title                                    : DD 5.1
  202. Language                                 : Spanish
  203. Service kind                             : Complete Main
  204. Default                                  : No
  205. Forced                                   : No
  206. Original source medium                   : Blu-ray
  207. Audio #9
  208. ID                                       : 10
  209. ID in the original source medium         : 4359 (0x1107)
  210. Format                                   : AC-3
  211. Format/Info                              : Audio Coding 3
  212. Commercial name                          : Dolby Digital
  213. Codec ID                                 : A_AC3
  214. Duration                                 : 2 h 44 min
  215. Bit rate mode                            : Constant
  216. Bit rate                                 : 448 kb/s
  217. Channel(s)                               : 6 channels
  218. Channel layout                           : L R C LFE Ls Rs
  219. Sampling rate                            : 48.0 kHz
  220. Frame rate                               : 31.250 FPS (1536 SPF)
  221. Compression mode                         : Lossy
  222. Stream size                              : 527 MiB (1%)
  223. Title                                    : DD 5.1
  224. Language                                 : Chinese
  225. Service kind                             : Complete Main
  226. Default                                  : No
  227. Forced                                   : No
  228. Original source medium                   : Blu-ray
  229. Audio #10
  230. ID                                       : 11
  231. ID in the original source medium         : 4360 (0x1108)
  232. Format                                   : AC-3
  233. Format/Info                              : Audio Coding 3
  234. Commercial name                          : Dolby Digital
  235. Codec ID                                 : A_AC3
  236. Duration                                 : 2 h 44 min
  237. Bit rate mode                            : Constant
  238. Bit rate                                 : 448 kb/s
  239. Channel(s)                               : 6 channels
  240. Channel layout                           : L R C LFE Ls Rs
  241. Sampling rate                            : 48.0 kHz
  242. Frame rate                               : 31.250 FPS (1536 SPF)
  243. Compression mode                         : Lossy
  244. Stream size                              : 527 MiB (1%)
  245. Title                                    : DD 5.1
  246. Language                                 : Spanish
  247. Service kind                             : Complete Main
  248. Default                                  : No
  249. Forced                                   : No
  250. Original source medium                   : Blu-ray
  251. Audio #11
  252. ID                                       : 12
  253. ID in the original source medium         : 4361 (0x1109)
  254. Format                                   : AC-3
  255. Format/Info                              : Audio Coding 3
  256. Commercial name                          : Dolby Digital
  257. Codec ID                                 : A_AC3
  258. Duration                                 : 2 h 44 min
  259. Bit rate mode                            : Constant
  260. Bit rate                                 : 448 kb/s
  261. Channel(s)                               : 6 channels
  262. Channel layout                           : L R C LFE Ls Rs
  263. Sampling rate                            : 48.0 kHz
  264. Frame rate                               : 31.250 FPS (1536 SPF)
  265. Compression mode                         : Lossy
  266. Stream size                              : 527 MiB (1%)
  267. Title                                    : DD 5.1
  268. Language                                 : Portuguese
  269. Service kind                             : Complete Main
  270. Default                                  : No
  271. Forced                                   : No
  272. Original source medium                   : Blu-ray
  273. Audio #12
  274. ID                                       : 13
  275. ID in the original source medium         : 4362 (0x110A)
  276. Format                                   : AC-3
  277. Format/Info                              : Audio Coding 3
  278. Commercial name                          : Dolby Digital
  279. Codec ID                                 : A_AC3
  280. Duration                                 : 2 h 44 min
  281. Bit rate mode                            : Constant
  282. Bit rate                                 : 448 kb/s
  283. Channel(s)                               : 6 channels
  284. Channel layout                           : L R C LFE Ls Rs
  285. Sampling rate                            : 48.0 kHz
  286. Frame rate                               : 31.250 FPS (1536 SPF)
  287. Compression mode                         : Lossy
  288. Stream size                              : 527 MiB (1%)
  289. Title                                    : DD 5.1
  290. Language                                 : Czech
  291. Service kind                             : Complete Main
  292. Default                                  : No
  293. Forced                                   : No
  294. Original source medium                   : Blu-ray
  295. Audio #13
  296. ID                                       : 14
  297. ID in the original source medium         : 4363 (0x110B)
  298. Format                                   : AC-3
  299. Format/Info                              : Audio Coding 3
  300. Commercial name                          : Dolby Digital
  301. Codec ID                                 : A_AC3
  302. Duration                                 : 2 h 44 min
  303. Bit rate mode                            : Constant
  304. Bit rate                                 : 448 kb/s
  305. Channel(s)                               : 6 channels
  306. Channel layout                           : L R C LFE Ls Rs
  307. Sampling rate                            : 48.0 kHz
  308. Frame rate                               : 31.250 FPS (1536 SPF)
  309. Compression mode                         : Lossy
  310. Stream size                              : 527 MiB (1%)
  311. Title                                    : DD 5.1
  312. Language                                 : Hungarian
  313. Service kind                             : Complete Main
  314. Default                                  : No
  315. Forced                                   : No
  316. Original source medium                   : Blu-ray
  317. Audio #14
  318. ID                                       : 15
  319. ID in the original source medium         : 4364 (0x110C)
  320. Format                                   : AC-3
  321. Format/Info                              : Audio Coding 3
  322. Commercial name                          : Dolby Digital
  323. Codec ID                                 : A_AC3
  324. Duration                                 : 2 h 44 min
  325. Bit rate mode                            : Constant
  326. Bit rate                                 : 448 kb/s
  327. Channel(s)                               : 6 channels
  328. Channel layout                           : L R C LFE Ls Rs
  329. Sampling rate                            : 48.0 kHz
  330. Frame rate                               : 31.250 FPS (1536 SPF)
  331. Compression mode                         : Lossy
  332. Stream size                              : 527 MiB (1%)
  333. Title                                    : DD 5.1
  334. Language                                 : Polish
  335. Service kind                             : Complete Main
  336. Default                                  : No
  337. Forced                                   : No
  338. Original source medium                   : Blu-ray
  339. Audio #15
  340. ID                                       : 16
  341. ID in the original source medium         : 4365 (0x110D)
  342. Format                                   : AC-3
  343. Format/Info                              : Audio Coding 3
  344. Commercial name                          : Dolby Digital
  345. Codec ID                                 : A_AC3
  346. Duration                                 : 2 h 44 min
  347. Bit rate mode                            : Constant
  348. Bit rate                                 : 448 kb/s
  349. Channel(s)                               : 6 channels
  350. Channel layout                           : L R C LFE Ls Rs
  351. Sampling rate                            : 48.0 kHz
  352. Frame rate                               : 31.250 FPS (1536 SPF)
  353. Compression mode                         : Lossy
  354. Stream size                              : 527 MiB (1%)
  355. Title                                    : DD 5.1
  356. Language                                 : Russian
  357. Service kind                             : Complete Main
  358. Default                                  : No
  359. Forced                                   : No
  360. Original source medium                   : Blu-ray
  361. Audio #16
  362. ID                                       : 17
  363. ID in the original source medium         : 4366 (0x110E)
  364. Format                                   : AC-3
  365. Format/Info                              : Audio Coding 3
  366. Commercial name                          : Dolby Digital
  367. Codec ID                                 : A_AC3
  368. Duration                                 : 2 h 44 min
  369. Bit rate mode                            : Constant
  370. Bit rate                                 : 448 kb/s
  371. Channel(s)                               : 6 channels
  372. Channel layout                           : L R C LFE Ls Rs
  373. Sampling rate                            : 48.0 kHz
  374. Frame rate                               : 31.250 FPS (1536 SPF)
  375. Compression mode                         : Lossy
  376. Stream size                              : 527 MiB (1%)
  377. Title                                    : DD 5.1
  378. Language                                 : Thai
  379. Service kind                             : Complete Main
  380. Default                                  : No
  381. Forced                                   : No
  382. Original source medium                   : Blu-ray
  383. Audio #17
  384. ID                                       : 18
  385. ID in the original source medium         : 4367 (0x110F)
  386. Format                                   : AC-3
  387. Format/Info                              : Audio Coding 3
  388. Commercial name                          : Dolby Digital
  389. Codec ID                                 : A_AC3
  390. Duration                                 : 2 h 44 min
  391. Bit rate mode                            : Constant
  392. Bit rate                                 : 448 kb/s
  393. Channel(s)                               : 6 channels
  394. Channel layout                           : L R C LFE Ls Rs
  395. Sampling rate                            : 48.0 kHz
  396. Frame rate                               : 31.250 FPS (1536 SPF)
  397. Compression mode                         : Lossy
  398. Stream size                              : 527 MiB (1%)
  399. Title                                    : DD 5.1
  400. Language                                 : Turkish
  401. Service kind                             : Complete Main
  402. Default                                  : No
  403. Forced                                   : No
  404. Original source medium                   : Blu-ray
  405. Audio #18
  406. ID                                       : 19
  407. ID in the original source medium         : 4368 (0x1110)
  408. Format                                   : AC-3
  409. Format/Info                              : Audio Coding 3
  410. Commercial name                          : Dolby Digital
  411. Codec ID                                 : A_AC3
  412. Duration                                 : 2 h 44 min
  413. Bit rate mode                            : Constant
  414. Bit rate                                 : 448 kb/s
  415. Channel(s)                               : 6 channels
  416. Channel layout                           : L R C LFE Ls Rs
  417. Sampling rate                            : 48.0 kHz
  418. Frame rate                               : 31.250 FPS (1536 SPF)
  419. Compression mode                         : Lossy
  420. Stream size                              : 527 MiB (1%)
  421. Title                                    : DD 5.1
  422. Language                                 : Japanese
  423. Service kind                             : Complete Main
  424. Default                                  : No
  425. Forced                                   : No
  426. Original source medium                   : Blu-ray
  427. Text #1
  428. ID                                       : 20
  429. Format                                   : UTF-8
  430. Codec ID                                 : S_TEXT/UTF8
  431. Codec ID/Info                            : UTF-8 Plain Text
  432. Duration                                 : 2 h 34 min
  433. Bit rate                                 : 58 b/s
  434. Frame rate                               : 0.189 FPS
  435. Count of elements                        : 1747
  436. Stream size                              : 66.2 KiB (0%)
  437. Language                                 : English
  438. Default                                  : Yes
  439. Forced                                   : No
  440. Text #2
  441. ID                                       : 21
  442. Format                                   : UTF-8
  443. Codec ID                                 : S_TEXT/UTF8
  444. Codec ID/Info                            : UTF-8 Plain Text
  445. Duration                                 : 2 h 43 min
  446. Bit rate                                 : 57 b/s
  447. Frame rate                               : 0.192 FPS
  448. Count of elements                        : 1881
  449. Stream size                              : 68.4 KiB (0%)
  450. Title                                    : SDH
  451. Language                                 : English
  452. Default                                  : No
  453. Forced                                   : No
  454. Text #3
  455. ID                                       : 22
  456. ID in the original source medium         : 4768 (0x12A0)
  457. Format                                   : PGS
  458. Muxing mode                              : zlib
  459. Codec ID                                 : S_HDMV/PGS
  460. Codec ID/Info                            : Picture based subtitle format used on BDs/HD-DVDs
  461. Duration                                 : 2 h 43 min
  462. Bit rate                                 : 34.2 kb/s
  463. Frame rate                               : 0.390 FPS
  464. Count of elements                        : 3826
  465. Stream size                              : 40.0 MiB (0%)
  466. Language                                 : English
  467. Default                                  : No
  468. Forced                                   : No
  469. Original source medium                   : Blu-ray
  470. Text #4
  471. ID                                       : 23
  472. ID in the original source medium         : 4769 (0x12A1)
  473. Format                                   : PGS
  474. Muxing mode                              : zlib
  475. Codec ID                                 : S_HDMV/PGS
  476. Codec ID/Info                            : Picture based subtitle format used on BDs/HD-DVDs
  477. Duration                                 : 2 h 43 min
  478. Bit rate                                 : 27.4 kb/s
  479. Frame rate                               : 0.408 FPS
  480. Count of elements                        : 4005
  481. Stream size                              : 32.0 MiB (0%)
  482. Language                                 : French
  483. Default                                  : No
  484. Forced                                   : No
  485. Original source medium                   : Blu-ray
  486. Text #5
  487. ID                                       : 24
  488. ID in the original source medium         : 4769 (0x12A1)
  489. Format                                   : PGS
  490. Muxing mode                              : zlib
  491. Codec ID                                 : S_HDMV/PGS
  492. Codec ID/Info                            : Picture based subtitle format used on BDs/HD-DVDs
  493. Duration                                 : 1 s 231 ms
  494. Bit rate                                 : 78.5 kb/s
  495. Frame rate                               : 1.625 FPS
  496. Count of elements                        : 2
  497. Stream size                              : 11.8 KiB (0%)
  498. Language                                 : French
  499. Default                                  : No
  500. Forced                                   : No
  501. Original source medium                   : Blu-ray
  502. Text #6
  503. ID                                       : 25
  504. ID in the original source medium         : 4770 (0x12A2)
  505. Format                                   : PGS
  506. Muxing mode                              : zlib
  507. Codec ID                                 : S_HDMV/PGS
  508. Codec ID/Info                            : Picture based subtitle format used on BDs/HD-DVDs
  509. Duration                                 : 2 h 43 min
  510. Bit rate                                 : 40.2 kb/s
  511. Frame rate                               : 0.400 FPS
  512. Count of elements                        : 3928
  513. Stream size                              : 47.0 MiB (0%)
  514. Language                                 : German
  515. Default                                  : No
  516. Forced                                   : No
  517. Original source medium                   : Blu-ray
  518. Text #7
  519. ID                                       : 26
  520. ID in the original source medium         : 4771 (0x12A3)
  521. Format                                   : PGS
  522. Muxing mode                              : zlib
  523. Codec ID                                 : S_HDMV/PGS
  524. Codec ID/Info                            : Picture based subtitle format used on BDs/HD-DVDs
  525. Duration                                 : 2 h 43 min
  526. Bit rate                                 : 34.8 kb/s
  527. Frame rate                               : 0.393 FPS
  528. Count of elements                        : 3860
  529. Stream size                              : 40.7 MiB (0%)
  530. Language                                 : Italian
  531. Default                                  : No
  532. Forced                                   : No
  533. Original source medium                   : Blu-ray
  534. Text #8
  535. ID                                       : 27
  536. ID in the original source medium         : 4771 (0x12A3)
  537. Format                                   : PGS
  538. Muxing mode                              : zlib
  539. Codec ID                                 : S_HDMV/PGS
  540. Codec ID/Info                            : Picture based subtitle format used on BDs/HD-DVDs
  541. Duration                                 : 1 h 56 min
  542. Bit rate                                 : 305 b/s
  543. Frame rate                               : 0.003 FPS
  544. Count of elements                        : 22
  545. Stream size                              : 261 KiB (0%)
  546. Language                                 : Italian
  547. Default                                  : No
  548. Forced                                   : No
  549. Original source medium                   : Blu-ray
  550. Text #9
  551. ID                                       : 28
  552. ID in the original source medium         : 4772 (0x12A4)
  553. Format                                   : PGS
  554. Muxing mode                              : zlib
  555. Codec ID                                 : S_HDMV/PGS
  556. Codec ID/Info                            : Picture based subtitle format used on BDs/HD-DVDs
  557. Duration                                 : 2 h 43 min
  558. Bit rate                                 : 31.0 kb/s
  559. Frame rate                               : 0.372 FPS
  560. Count of elements                        : 3647
  561. Stream size                              : 36.2 MiB (0%)
  562. Language                                 : Spanish
  563. Default                                  : No
  564. Forced                                   : No
  565. Original source medium                   : Blu-ray
  566. Text #10
  567. ID                                       : 29
  568. ID in the original source medium         : 4772 (0x12A4)
  569. Format                                   : PGS
  570. Muxing mode                              : zlib
  571. Codec ID                                 : S_HDMV/PGS
  572. Codec ID/Info                            : Picture based subtitle format used on BDs/HD-DVDs
  573. Duration                                 : 1 h 36 min
  574. Bit rate                                 : 51 b/s
  575. Frame rate                               : 0.001 FPS
  576. Count of elements                        : 4
  577. Stream size                              : 36.5 KiB (0%)
  578. Language                                 : Spanish
  579. Default                                  : No
  580. Forced                                   : No
  581. Original source medium                   : Blu-ray
  582. Text #11
  583. ID                                       : 30
  584. ID in the original source medium         : 4773 (0x12A5)
  585. Format                                   : PGS
  586. Muxing mode                              : zlib
  587. Codec ID                                 : S_HDMV/PGS
  588. Codec ID/Info                            : Picture based subtitle format used on BDs/HD-DVDs
  589. Duration                                 : 2 h 43 min
  590. Bit rate                                 : 28.6 kb/s
  591. Frame rate                               : 0.334 FPS
  592. Count of elements                        : 3280
  593. Stream size                              : 33.4 MiB (0%)
  594. Language                                 : Dutch
  595. Default                                  : No
  596. Forced                                   : No
  597. Original source medium                   : Blu-ray
  598. Text #12
  599. ID                                       : 31
  600. ID in the original source medium         : 4774 (0x12A6)
  601. Format                                   : PGS
  602. Muxing mode                              : zlib
  603. Codec ID                                 : S_HDMV/PGS
  604. Codec ID/Info                            : Picture based subtitle format used on BDs/HD-DVDs
  605. Duration                                 : 2 h 43 min
  606. Bit rate                                 : 25.7 kb/s
  607. Frame rate                               : 0.370 FPS
  608. Count of elements                        : 3631
  609. Stream size                              : 30.0 MiB (0%)
  610. Language                                 : Chinese
  611. Default                                  : No
  612. Forced                                   : No
  613. Original source medium                   : Blu-ray
  614. Text #13
  615. ID                                       : 32
  616. ID in the original source medium         : 4775 (0x12A7)
  617. Format                                   : PGS
  618. Muxing mode                              : zlib
  619. Codec ID                                 : S_HDMV/PGS
  620. Codec ID/Info                            : Picture based subtitle format used on BDs/HD-DVDs
  621. Duration                                 : 2 h 43 min
  622. Bit rate                                 : 26.0 kb/s
  623. Frame rate                               : 0.385 FPS
  624. Count of elements                        : 3778
  625. Stream size                              : 30.4 MiB (0%)
  626. Language                                 : Chinese
  627. Default                                  : No
  628. Forced                                   : No
  629. Original source medium                   : Blu-ray
  630. Text #14
  631. ID                                       : 33
  632. ID in the original source medium         : 4775 (0x12A7)
  633. Format                                   : PGS
  634. Muxing mode                              : zlib
  635. Codec ID                                 : S_HDMV/PGS
  636. Codec ID/Info                            : Picture based subtitle format used on BDs/HD-DVDs
  637. Duration                                 : 1 h 56 min
  638. Bit rate                                 : 535 b/s
  639. Frame rate                               : 0.008 FPS
  640. Count of elements                        : 54
  641. Stream size                              : 458 KiB (0%)
  642. Language                                 : Chinese
  643. Default                                  : No
  644. Forced                                   : No
  645. Original source medium                   : Blu-ray
  646. Text #15
  647. ID                                       : 34
  648. ID in the original source medium         : 4776 (0x12A8)
  649. Format                                   : PGS
  650. Muxing mode                              : zlib
  651. Codec ID                                 : S_HDMV/PGS
  652. Codec ID/Info                            : Picture based subtitle format used on BDs/HD-DVDs
  653. Duration                                 : 2 h 43 min
  654. Bit rate                                 : 25.7 kb/s
  655. Frame rate                               : 0.367 FPS
  656. Count of elements                        : 3605
  657. Stream size                              : 30.0 MiB (0%)
  658. Language                                 : Chinese
  659. Default                                  : No
  660. Forced                                   : No
  661. Original source medium                   : Blu-ray
  662. Text #16
  663. ID                                       : 35
  664. ID in the original source medium         : 4777 (0x12A9)
  665. Format                                   : PGS
  666. Muxing mode                              : zlib
  667. Codec ID                                 : S_HDMV/PGS
  668. Codec ID/Info                            : Picture based subtitle format used on BDs/HD-DVDs
  669. Duration                                 : 2 h 43 min
  670. Bit rate                                 : 21.0 kb/s
  671. Frame rate                               : 0.362 FPS
  672. Count of elements                        : 3555
  673. Stream size                              : 24.5 MiB (0%)
  674. Language                                 : Korean
  675. Default                                  : No
  676. Forced                                   : No
  677. Original source medium                   : Blu-ray
  678. Text #17
  679. ID                                       : 36
  680. ID in the original source medium         : 4778 (0x12AA)
  681. Format                                   : PGS
  682. Muxing mode                              : zlib
  683. Codec ID                                 : S_HDMV/PGS
  684. Codec ID/Info                            : Picture based subtitle format used on BDs/HD-DVDs
  685. Duration                                 : 2 h 43 min
  686. Bit rate                                 : 29.8 kb/s
  687. Frame rate                               : 0.384 FPS
  688. Count of elements                        : 3764
  689. Stream size                              : 34.8 MiB (0%)
  690. Language                                 : Spanish
  691. Default                                  : No
  692. Forced                                   : No
  693. Original source medium                   : Blu-ray
  694. Text #18
  695. ID                                       : 37
  696. ID in the original source medium         : 4778 (0x12AA)
  697. Format                                   : PGS
  698. Muxing mode                              : zlib
  699. Codec ID                                 : S_HDMV/PGS
  700. Codec ID/Info                            : Picture based subtitle format used on BDs/HD-DVDs
  701. Duration                                 : 1 h 56 min
  702. Bit rate                                 : 170 b/s
  703. Frame rate                               : 0.002 FPS
  704. Count of elements                        : 12
  705. Stream size                              : 146 KiB (0%)
  706. Language                                 : Spanish
  707. Default                                  : No
  708. Forced                                   : No
  709. Original source medium                   : Blu-ray
  710. Text #19
  711. ID                                       : 38
  712. ID in the original source medium         : 4779 (0x12AB)
  713. Format                                   : PGS
  714. Muxing mode                              : zlib
  715. Codec ID                                 : S_HDMV/PGS
  716. Codec ID/Info                            : Picture based subtitle format used on BDs/HD-DVDs
  717. Duration                                 : 2 h 43 min
  718. Bit rate                                 : 30.8 kb/s
  719. Frame rate                               : 0.369 FPS
  720. Count of elements                        : 3615
  721. Stream size                              : 36.0 MiB (0%)
  722. Language                                 : Portuguese
  723. Default                                  : No
  724. Forced                                   : No
  725. Original source medium                   : Blu-ray
  726. Text #20
  727. ID                                       : 39
  728. ID in the original source medium         : 4779 (0x12AB)
  729. Format                                   : PGS
  730. Muxing mode                              : zlib
  731. Codec ID                                 : S_HDMV/PGS
  732. Codec ID/Info                            : Picture based subtitle format used on BDs/HD-DVDs
  733. Duration                                 : 1 h 56 min
  734. Bit rate                                 : 286 b/s
  735. Frame rate                               : 0.003 FPS
  736. Count of elements                        : 20
  737. Stream size                              : 245 KiB (0%)
  738. Language                                 : Portuguese
  739. Default                                  : No
  740. Forced                                   : No
  741. Original source medium                   : Blu-ray
  742. Text #21
  743. ID                                       : 40
  744. ID in the original source medium         : 4780 (0x12AC)
  745. Format                                   : PGS
  746. Muxing mode                              : zlib
  747. Codec ID                                 : S_HDMV/PGS
  748. Codec ID/Info                            : Picture based subtitle format used on BDs/HD-DVDs
  749. Duration                                 : 2 h 43 min
  750. Bit rate                                 : 16.0 kb/s
  751. Frame rate                               : 0.397 FPS
  752. Count of elements                        : 3895
  753. Stream size                              : 18.7 MiB (0%)
  754. Language                                 : Arabic
  755. Default                                  : No
  756. Forced                                   : No
  757. Original source medium                   : Blu-ray
  758. Text #22
  759. ID                                       : 41
  760. ID in the original source medium         : 4781 (0x12AD)
  761. Format                                   : PGS
  762. Muxing mode                              : zlib
  763. Codec ID                                 : S_HDMV/PGS
  764. Codec ID/Info                            : Picture based subtitle format used on BDs/HD-DVDs
  765. Duration                                 : 2 h 43 min
  766. Bit rate                                 : 26.3 kb/s
  767. Frame rate                               : 0.271 FPS
  768. Count of elements                        : 2658
  769. Stream size                              : 30.7 MiB (0%)
  770. Language                                 : Croatian
  771. Default                                  : No
  772. Forced                                   : No
  773. Original source medium                   : Blu-ray
  774. Text #23
  775. ID                                       : 42
  776. ID in the original source medium         : 4782 (0x12AE)
  777. Format                                   : PGS
  778. Muxing mode                              : zlib
  779. Codec ID                                 : S_HDMV/PGS
  780. Codec ID/Info                            : Picture based subtitle format used on BDs/HD-DVDs
  781. Duration                                 : 2 h 43 min
  782. Bit rate                                 : 29.3 kb/s
  783. Frame rate                               : 0.338 FPS
  784. Count of elements                        : 3311
  785. Stream size                              : 34.3 MiB (0%)
  786. Language                                 : Czech
  787. Default                                  : No
  788. Forced                                   : No
  789. Original source medium                   : Blu-ray
  790. Text #24
  791. ID                                       : 43
  792. ID in the original source medium         : 4782 (0x12AE)
  793. Format                                   : PGS
  794. Muxing mode                              : zlib
  795. Codec ID                                 : S_HDMV/PGS
  796. Codec ID/Info                            : Picture based subtitle format used on BDs/HD-DVDs
  797. Duration                                 : 1 h 56 min
  798. Bit rate                                 : 180 b/s
  799. Frame rate                               : 0.002 FPS
  800. Count of elements                        : 16
  801. Stream size                              : 154 KiB (0%)
  802. Language                                 : Czech
  803. Default                                  : No
  804. Forced                                   : No
  805. Original source medium                   : Blu-ray
  806. Text #25
  807. ID                                       : 44
  808. ID in the original source medium         : 4783 (0x12AF)
  809. Format                                   : PGS
  810. Muxing mode                              : zlib
  811. Codec ID                                 : S_HDMV/PGS
  812. Codec ID/Info                            : Picture based subtitle format used on BDs/HD-DVDs
  813. Duration                                 : 2 h 43 min
  814. Bit rate                                 : 28.2 kb/s
  815. Frame rate                               : 0.305 FPS
  816. Count of elements                        : 2988
  817. Stream size                              : 33.0 MiB (0%)
  818. Language                                 : Danish
  819. Default                                  : No
  820. Forced                                   : No
  821. Original source medium                   : Blu-ray
  822. Text #26
  823. ID                                       : 45
  824. ID in the original source medium         : 4784 (0x12B0)
  825. Format                                   : PGS
  826. Muxing mode                              : zlib
  827. Codec ID                                 : S_HDMV/PGS
  828. Codec ID/Info                            : Picture based subtitle format used on BDs/HD-DVDs
  829. Duration                                 : 2 h 43 min
  830. Bit rate                                 : 27.4 kb/s
  831. Frame rate                               : 0.317 FPS
  832. Count of elements                        : 3109
  833. Stream size                              : 32.1 MiB (0%)
  834. Language                                 : Finnish
  835. Default                                  : No
  836. Forced                                   : No
  837. Original source medium                   : Blu-ray
  838. Text #27
  839. ID                                       : 46
  840. ID in the original source medium         : 4785 (0x12B1)
  841. Format                                   : PGS
  842. Muxing mode                              : zlib
  843. Codec ID                                 : S_HDMV/PGS
  844. Codec ID/Info                            : Picture based subtitle format used on BDs/HD-DVDs
  845. Duration                                 : 2 h 43 min
  846. Bit rate                                 : 29.1 kb/s
  847. Frame rate                               : 0.361 FPS
  848. Count of elements                        : 3545
  849. Stream size                              : 34.1 MiB (0%)
  850. Language                                 : Greek
  851. Default                                  : No
  852. Forced                                   : No
  853. Original source medium                   : Blu-ray
  854. Text #28
  855. ID                                       : 47
  856. ID in the original source medium         : 4786 (0x12B2)
  857. Format                                   : PGS
  858. Muxing mode                              : zlib
  859. Codec ID                                 : S_HDMV/PGS
  860. Codec ID/Info                            : Picture based subtitle format used on BDs/HD-DVDs
  861. Duration                                 : 2 h 43 min
  862. Bit rate                                 : 24.2 kb/s
  863. Frame rate                               : 0.375 FPS
  864. Count of elements                        : 3683
  865. Stream size                              : 28.2 MiB (0%)
  866. Language                                 : Hebrew
  867. Default                                  : No
  868. Forced                                   : No
  869. Original source medium                   : Blu-ray
  870. Text #29
  871. ID                                       : 48
  872. ID in the original source medium         : 4787 (0x12B3)
  873. Format                                   : PGS
  874. Muxing mode                              : zlib
  875. Codec ID                                 : S_HDMV/PGS
  876. Codec ID/Info                            : Picture based subtitle format used on BDs/HD-DVDs
  877. Duration                                 : 2 h 43 min
  878. Bit rate                                 : 27.6 kb/s
  879. Frame rate                               : 0.327 FPS
  880. Count of elements                        : 3209
  881. Stream size                              : 32.2 MiB (0%)
  882. Language                                 : Hungarian
  883. Default                                  : No
  884. Forced                                   : No
  885. Original source medium                   : Blu-ray
  886. Text #30
  887. ID                                       : 49
  888. ID in the original source medium         : 4787 (0x12B3)
  889. Format                                   : PGS
  890. Muxing mode                              : zlib
  891. Codec ID                                 : S_HDMV/PGS
  892. Codec ID/Info                            : Picture based subtitle format used on BDs/HD-DVDs
  893. Duration                                 : 57 min 7 s
  894. Bit rate                                 : 31 b/s
  895. Frame rate                               : 0.001 FPS
  896. Count of elements                        : 4
  897. Stream size                              : 13.2 KiB (0%)
  898. Language                                 : Hungarian
  899. Default                                  : No
  900. Forced                                   : No
  901. Original source medium                   : Blu-ray
  902. Text #31
  903. ID                                       : 50
  904. ID in the original source medium         : 4788 (0x12B4)
  905. Format                                   : PGS
  906. Muxing mode                              : zlib
  907. Codec ID                                 : S_HDMV/PGS
  908. Codec ID/Info                            : Picture based subtitle format used on BDs/HD-DVDs
  909. Duration                                 : 2 h 43 min
  910. Bit rate                                 : 28.0 kb/s
  911. Frame rate                               : 0.302 FPS
  912. Count of elements                        : 2966
  913. Stream size                              : 32.7 MiB (0%)
  914. Language                                 : Norwegian
  915. Default                                  : No
  916. Forced                                   : No
  917. Original source medium                   : Blu-ray
  918. Text #32
  919. ID                                       : 51
  920. ID in the original source medium         : 4789 (0x12B5)
  921. Format                                   : PGS
  922. Muxing mode                              : zlib
  923. Codec ID                                 : S_HDMV/PGS
  924. Codec ID/Info                            : Picture based subtitle format used on BDs/HD-DVDs
  925. Duration                                 : 2 h 43 min
  926. Bit rate                                 : 26.8 kb/s
  927. Frame rate                               : 0.359 FPS
  928. Count of elements                        : 3525
  929. Stream size                              : 31.3 MiB (0%)
  930. Language                                 : Polish
  931. Default                                  : No
  932. Forced                                   : No
  933. Original source medium                   : Blu-ray
  934. Text #33
  935. ID                                       : 52
  936. ID in the original source medium         : 4789 (0x12B5)
  937. Format                                   : PGS
  938. Muxing mode                              : zlib
  939. Codec ID                                 : S_HDMV/PGS
  940. Codec ID/Info                            : Picture based subtitle format used on BDs/HD-DVDs
  941. Duration                                 : 1 min 29 s
  942. Bit rate                                 : 2 887 b/s
  943. Frame rate                               : 0.044 FPS
  944. Count of elements                        : 4
  945. Stream size                              : 31.7 KiB (0%)
  946. Language                                 : Polish
  947. Default                                  : No
  948. Forced                                   : No
  949. Original source medium                   : Blu-ray
  950. Text #34
  951. ID                                       : 53
  952. ID in the original source medium         : 4790 (0x12B6)
  953. Format                                   : PGS
  954. Muxing mode                              : zlib
  955. Codec ID                                 : S_HDMV/PGS
  956. Codec ID/Info                            : Picture based subtitle format used on BDs/HD-DVDs
  957. Duration                                 : 2 h 43 min
  958. Bit rate                                 : 31.6 kb/s
  959. Frame rate                               : 0.376 FPS
  960. Count of elements                        : 3690
  961. Stream size                              : 37.0 MiB (0%)
  962. Language                                 : Portuguese
  963. Default                                  : No
  964. Forced                                   : No
  965. Original source medium                   : Blu-ray
  966. Text #35
  967. ID                                       : 54
  968. ID in the original source medium         : 4791 (0x12B7)
  969. Format                                   : PGS
  970. Muxing mode                              : zlib
  971. Codec ID                                 : S_HDMV/PGS
  972. Codec ID/Info                            : Picture based subtitle format used on BDs/HD-DVDs
  973. Duration                                 : 2 h 43 min
  974. Bit rate                                 : 30.1 kb/s
  975. Frame rate                               : 0.345 FPS
  976. Count of elements                        : 3381
  977. Stream size                              : 35.2 MiB (0%)
  978. Language                                 : Romanian
  979. Default                                  : No
  980. Forced                                   : No
  981. Original source medium                   : Blu-ray
  982. Text #36
  983. ID                                       : 55
  984. ID in the original source medium         : 4792 (0x12B8)
  985. Format                                   : PGS
  986. Muxing mode                              : zlib
  987. Codec ID                                 : S_HDMV/PGS
  988. Codec ID/Info                            : Picture based subtitle format used on BDs/HD-DVDs
  989. Duration                                 : 2 h 43 min
  990. Bit rate                                 : 22.7 kb/s
  991. Frame rate                               : 0.377 FPS
  992. Count of elements                        : 3694
  993. Stream size                              : 26.5 MiB (0%)
  994. Language                                 : Russian
  995. Default                                  : No
  996. Forced                                   : No
  997. Original source medium                   : Blu-ray
  998. Text #37
  999. ID                                       : 56
  1000. ID in the original source medium         : 4792 (0x12B8)
  1001. Format                                   : PGS
  1002. Muxing mode                              : zlib
  1003. Codec ID                                 : S_HDMV/PGS
  1004. Codec ID/Info                            : Picture based subtitle format used on BDs/HD-DVDs
  1005. Duration                                 : 1 h 56 min
  1006. Bit rate                                 : 312 b/s
  1007. Frame rate                               : 0.004 FPS
  1008. Count of elements                        : 26
  1009. Stream size                              : 268 KiB (0%)
  1010. Language                                 : Russian
  1011. Default                                  : No
  1012. Forced                                   : No
  1013. Original source medium                   : Blu-ray
  1014. Text #38
  1015. ID                                       : 57
  1016. ID in the original source medium         : 4793 (0x12B9)
  1017. Format                                   : PGS
  1018. Muxing mode                              : zlib
  1019. Codec ID                                 : S_HDMV/PGS
  1020. Codec ID/Info                            : Picture based subtitle format used on BDs/HD-DVDs
  1021. Duration                                 : 2 h 43 min
  1022. Bit rate                                 : 28.6 kb/s
  1023. Frame rate                               : 0.304 FPS
  1024. Count of elements                        : 2987
  1025. Stream size                              : 33.4 MiB (0%)
  1026. Language                                 : Swedish
  1027. Default                                  : No
  1028. Forced                                   : No
  1029. Original source medium                   : Blu-ray
  1030. Text #39
  1031. ID                                       : 58
  1032. ID in the original source medium         : 4794 (0x12BA)
  1033. Format                                   : PGS
  1034. Muxing mode                              : zlib
  1035. Codec ID                                 : S_HDMV/PGS
  1036. Codec ID/Info                            : Picture based subtitle format used on BDs/HD-DVDs
  1037. Duration                                 : 2 h 43 min
  1038. Bit rate                                 : 27.2 kb/s
  1039. Frame rate                               : 0.367 FPS
  1040. Count of elements                        : 3603
  1041. Stream size                              : 31.8 MiB (0%)
  1042. Language                                 : Thai
  1043. Default                                  : No
  1044. Forced                                   : No
  1045. Original source medium                   : Blu-ray
  1046. Text #40
  1047. ID                                       : 59
  1048. ID in the original source medium         : 4794 (0x12BA)
  1049. Format                                   : PGS
  1050. Muxing mode                              : zlib
  1051. Codec ID                                 : S_HDMV/PGS
  1052. Codec ID/Info                            : Picture based subtitle format used on BDs/HD-DVDs
  1053. Duration                                 : 1 h 45 min
  1054. Bit rate                                 : 204 b/s
  1055. Frame rate                               : 0.003 FPS
  1056. Count of elements                        : 20
  1057. Stream size                              : 158 KiB (0%)
  1058. Language                                 : Thai
  1059. Default                                  : No
  1060. Forced                                   : No
  1061. Original source medium                   : Blu-ray
  1062. Text #41
  1063. ID                                       : 60
  1064. ID in the original source medium         : 4795 (0x12BB)
  1065. Format                                   : PGS
  1066. Muxing mode                              : zlib
  1067. Codec ID                                 : S_HDMV/PGS
  1068. Codec ID/Info                            : Picture based subtitle format used on BDs/HD-DVDs
  1069. Duration                                 : 2 h 43 min
  1070. Bit rate                                 : 30.1 kb/s
  1071. Frame rate                               : 0.381 FPS
  1072. Count of elements                        : 3740
  1073. Stream size                              : 35.2 MiB (0%)
  1074. Language                                 : Turkish
  1075. Default                                  : No
  1076. Forced                                   : No
  1077. Original source medium                   : Blu-ray
  1078. Text #42
  1079. ID                                       : 61
  1080. ID in the original source medium         : 4795 (0x12BB)
  1081. Format                                   : PGS
  1082. Muxing mode                              : zlib
  1083. Codec ID                                 : S_HDMV/PGS
  1084. Codec ID/Info                            : Picture based subtitle format used on BDs/HD-DVDs
  1085. Duration                                 : 1 h 56 min
  1086. Bit rate                                 : 278 b/s
  1087. Frame rate                               : 0.003 FPS
  1088. Count of elements                        : 22
  1089. Stream size                              : 238 KiB (0%)
  1090. Language                                 : Turkish
  1091. Default                                  : No
  1092. Forced                                   : No
  1093. Original source medium                   : Blu-ray
  1094. Text #43
  1095. ID                                       : 62
  1096. ID in the original source medium         : 4796 (0x12BC)
  1097. Format                                   : PGS
  1098. Muxing mode                              : zlib
  1099. Codec ID                                 : S_HDMV/PGS
  1100. Codec ID/Info                            : Picture based subtitle format used on BDs/HD-DVDs
  1101. Duration                                 : 1 h 46 min
  1102. Bit rate                                 : 290 b/s
  1103. Frame rate                               : 0.003 FPS
  1104. Count of elements                        : 20
  1105. Stream size                              : 227 KiB (0%)
  1106. Language                                 : German
  1107. Default                                  : No
  1108. Forced                                   : No
  1109. Original source medium                   : Blu-ray
  1110. Text #44
  1111. ID                                       : 63
  1112. ID in the original source medium         : 4797 (0x12BD)
  1113. Format                                   : PGS
  1114. Muxing mode                              : zlib
  1115. Codec ID                                 : S_HDMV/PGS
  1116. Codec ID/Info                            : Picture based subtitle format used on BDs/HD-DVDs
  1117. Duration                                 : 2 h 34 min
  1118. Bit rate                                 : 24.4 kb/s
  1119. Frame rate                               : 0.399 FPS
  1120. Count of elements                        : 3688
  1121. Stream size                              : 26.9 MiB (0%)
  1122. Language                                 : Japanese
  1123. Default                                  : No
  1124. Forced                                   : No
  1125. Original source medium                   : Blu-ray
  1126. Text #45
  1127. ID                                       : 64
  1128. ID in the original source medium         : 4798 (0x12BE)
  1129. Format                                   : PGS
  1130. Muxing mode                              : zlib
  1131. Codec ID                                 : S_HDMV/PGS
  1132. Codec ID/Info                            : Picture based subtitle format used on BDs/HD-DVDs
  1133. Duration                                 : 1 h 46 min
  1134. Bit rate                                 : 119 b/s
  1135. Frame rate                               : 0.004 FPS
  1136. Count of elements                        : 27
  1137. Stream size                              : 93.7 KiB (0%)
  1138. Language                                 : Japanese
  1139. Default                                  : No
  1140. Forced                                   : No
  1141. Original source medium                   : Blu-ray
  1142. Menu
  1143. 00:00:00.000                             : en:Chapter 01
  1144. 00:09:02.792                             : en:Chapter 02
  1145. 00:19:08.480                             : en:Chapter 03
  1146. 00:30:15.605                             : en:Chapter 04
  1147. 00:41:08.716                             : en:Chapter 05
  1148. 00:51:09.316                             : en:Chapter 06
  1149. 01:00:29.417                             : en:Chapter 07
  1150. 01:10:03.741                             : en:Chapter 08
  1151. 01:20:13.433                             : en:Chapter 09
  1152. 01:31:00.538                             : en:Chapter 10
  1153. 01:39:24.249                             : en:Chapter 11
  1154. 01:48:58.073                             : en:Chapter 12
  1155. 02:00:21.172                             : en:Chapter 13
  1156. 02:10:47.297                             : en:Chapter 14
  1157. 02:19:12.260                             : en:Chapter 15
  1158. 02:30:14.588                             : en:Chapter 16
  1159. 02:36:50.651                             : en:Chapter 17
复制代码




                                       
                                       

                                       
                                       
                                       




The.Dark.Knight.Rises.2012.PROPER.2160p.BluRay.REMUX.HEVC.DTS-HD.MA.5.1-FGT.torrent (103.85 KB, 下载次数: 0)
回复

使用道具 举报

您需要登录后才可以回帖 登录 | 立即注册

本版积分规则

QQ|Archiver|手机版|小黑屋|蓝光电影网

GMT+8, 2023-2-8 01:55 , Processed in 0.061695 second(s), 28 queries .

Powered by Discuz! X3.4

Copyright © 2001-2020, Tencent Cloud.

快速回复 返回顶部 返回列表