找回密码
 立即注册

QQ登录

只需一步,快速开始

查看: 20|回复: 0

[其他] 首尔大作战 Seoul.Vibe.2022.KOREAN.2160p.NF.WEB-DL.x265.10bit.SDR.DDP5.1.Atmos-APEX 12.47GB

[复制链接]

0

精华

0

好友

2

听众

新手上路

Rank: 2

蓝光币
5
发表于 5 天前 | 显示全部楼层 |阅读模式
[img][/img]

◎标  题 首尔大作战
◎译  名 极速首尔(台) / 急速首尔 / Seoul Vibe
◎片  名 서울대작전
◎年  代 2022
◎产  地 韩国
◎类  别 剧情 / 喜剧 / 动作 / 犯罪
◎语  言 韩语
◎上映日期 2022-08-26(韩国网络)
◎IMDb链接 https://www.imdb.com/title/tt13611770/
◎豆瓣链接 https://movie.douban.com/subject/35280912/
◎片  长 139分钟
◎导  演 文贤盛 Hyeon-seong Moon
◎演  员 刘亚仁 Ah-in Yoo
       高庚杓 Kyung-pyo Go
       朴柱炫 Joo-Hyun Park
       文素丽 So-ri Moon
       李奎炯 Kyu-hyung Lee
       金成均 Sung-Kyun Kim
       郑雄仁 Woong-in Jeong
       邕圣祐 Seong-wu Ong
       宋旻浩 Song Min Ho
◎简  介

  在 1988 年夏季奥运会开幕前几天,首尔的全球兴奋情绪正在不断升级。老派时尚、性感音乐以及世界上最好的赛车都在等待全球观众的到来。上溪洞至尊车队的赛车手们收到了他们无法拒绝的邀请,卷入了与一名大人物有关的行贿基金调查风波。                                    
                                — 最佳漂移者,东旭(刘亚仁饰)                                    
                                — S.P.Y DJ,吴宇三(高庚杓饰)                                    
                                — 人类导航系统,文福男(李奎炯饰)                                    
                                — 摩托车伪装大师,朴允熙(朴是炫饰)                                    
                                — 上溪洞百战天龙,朴俊基(邕圣祐饰)                                    
                                “不要眨眼,体验真正的急速大片。”                                    
                                心怀美国梦的上溪洞至尊车队开着满载行贿基金的赛车穿越首尔。
  1. Video
  2. ID                                       : 1
  3. Format                                   : HEVC
  4. Format/Info                              : High Efficiency Video Coding
  5. Format profile                           : Main [email protected]@Main
  6. Codec ID                                 : V_MPEGH/ISO/HEVC
  7. Duration                                 : 2 h 20 min
  8. Bit rate                                 : 12.0 Mb/s
  9. Width                                    : 3 840 pixels
  10. Height                                   : 2 160 pixels
  11. Display aspect ratio                     : 16:9
  12. Frame rate mode                          : Constant
  13. Frame rate                               : 23.976 (24000/1001/189150) FPS
  14. Color space                              : YUV
  15. Chroma subsampling                       : 4:2:0
  16. Bit depth                                : 10 bits
  17. Bits/(Pixel*Frame)                       : 0.060
  18. Stream size                              : 11.7 GiB (94%)
  19. Default                                  : Yes
  20. Forced                                   : No
  21. Color range                              : Limited
  22. Color primaries                          : BT.709
  23. Transfer characteristics                 : BT.709
  24. Matrix coefficients                      : BT.709
  25. Audio
  26. ID                                       : 2
  27. Format                                   : E-AC-3 JOC
  28. Format/Info                              : Enhanced AC-3 with Joint Object Coding
  29. Commercial name                          : Dolby Digital Plus with Dolby Atmos
  30. Codec ID                                 : A_EAC3
  31. Duration                                 : 2 h 20 min
  32. Bit rate mode                            : Constant
  33. Bit rate                                 : 768 kb/s
  34. Channel(s)                               : 6 channels
  35. Channel layout                           : L R C LFE Ls Rs
  36. Sampling rate                            : 48.0 kHz
  37. Frame rate                               : 31.250 FPS (1536 SPF)
  38. Compression mode                         : Lossy
  39. Stream size                              : 770 MiB (6%)
  40. Language                                 : Korean
  41. Service kind                             : Complete Main
  42. Default                                  : Yes
  43. Forced                                   : No
  44. Complexity index                         : 16
  45. Number of dynamic objects                : 15
  46. Bed channel count                        : 1 channel
  47. Bed channel configuration                : LFE
  48. Text #1
  49. ID                                       : 3
  50. Format                                   : UTF-8
  51. Codec ID                                 : S_TEXT/UTF8
  52. Codec ID/Info                            : UTF-8 Plain Text
  53. Duration                                 : 46 min 23 s
  54. Bit rate                                 : 0 b/s
  55. Frame rate                               : 0.004 FPS
  56. Count of elements                        : 11
  57. Stream size                              : 273 Bytes (0%)
  58. Title                                    : Forced
  59. Language                                 : Korean
  60. Default                                  : Yes
  61. Forced                                   : Yes
  62. Text #2
  63. ID                                       : 4
  64. Format                                   : UTF-8
  65. Codec ID                                 : S_TEXT/UTF8
  66. Codec ID/Info                            : UTF-8 Plain Text
  67. Duration                                 : 2 h 14 min
  68. Bit rate                                 : 69 b/s
  69. Frame rate                               : 0.342 FPS
  70. Count of elements                        : 2764
  71. Stream size                              : 68.6 KiB (0%)
  72. Language                                 : Korean
  73. Default                                  : No
  74. Forced                                   : No
  75. Text #3
  76. ID                                       : 5
  77. Format                                   : UTF-8
  78. Codec ID                                 : S_TEXT/UTF8
  79. Codec ID/Info                            : UTF-8 Plain Text
  80. Duration                                 : 2 h 14 min
  81. Bit rate                                 : 103 b/s
  82. Frame rate                               : 0.342 FPS
  83. Count of elements                        : 2764
  84. Stream size                              : 102 KiB (0%)
  85. Title                                    : SDH
  86. Language                                 : Korean
  87. Default                                  : No
  88. Forced                                   : No
  89. Text #4
  90. ID                                       : 6
  91. Format                                   : UTF-8
  92. Codec ID                                 : S_TEXT/UTF8
  93. Codec ID/Info                            : UTF-8 Plain Text
  94. Duration                                 : 2 h 14 min
  95. Bit rate                                 : 90 b/s
  96. Frame rate                               : 0.217 FPS
  97. Count of elements                        : 1757
  98. Stream size                              : 89.1 KiB (0%)
  99. Language                                 : Arabic
  100. Default                                  : No
  101. Forced                                   : No
  102. Text #5
  103. ID                                       : 7
  104. Format                                   : UTF-8
  105. Codec ID                                 : S_TEXT/UTF8
  106. Codec ID/Info                            : UTF-8 Plain Text
  107. Duration                                 : 2 h 17 min
  108. Bit rate                                 : 45 b/s
  109. Frame rate                               : 0.213 FPS
  110. Count of elements                        : 1759
  111. Stream size                              : 46.0 KiB (0%)
  112. Language                                 : Czech
  113. Default                                  : No
  114. Forced                                   : No
  115. Text #6
  116. ID                                       : 8
  117. Format                                   : UTF-8
  118. Codec ID                                 : S_TEXT/UTF8
  119. Codec ID/Info                            : UTF-8 Plain Text
  120. Duration                                 : 2 h 17 min
  121. Bit rate                                 : 43 b/s
  122. Frame rate                               : 0.206 FPS
  123. Count of elements                        : 1704
  124. Stream size                              : 44.4 KiB (0%)
  125. Language                                 : Danish
  126. Default                                  : No
  127. Forced                                   : No
  128. Text #7
  129. ID                                       : 9
  130. Format                                   : UTF-8
  131. Codec ID                                 : S_TEXT/UTF8
  132. Codec ID/Info                            : UTF-8 Plain Text
  133. Duration                                 : 2 h 17 min
  134. Bit rate                                 : 45 b/s
  135. Frame rate                               : 0.209 FPS
  136. Count of elements                        : 1727
  137. Stream size                              : 46.0 KiB (0%)
  138. Language                                 : German
  139. Default                                  : No
  140. Forced                                   : No
  141. Text #8
  142. ID                                       : 10
  143. Format                                   : UTF-8
  144. Codec ID                                 : S_TEXT/UTF8
  145. Codec ID/Info                            : UTF-8 Plain Text
  146. Duration                                 : 2 h 17 min
  147. Bit rate                                 : 76 b/s
  148. Frame rate                               : 0.203 FPS
  149. Count of elements                        : 1680
  150. Stream size                              : 77.3 KiB (0%)
  151. Language                                 : Greek
  152. Default                                  : No
  153. Forced                                   : No
  154. Text #9
  155. ID                                       : 11
  156. Format                                   : UTF-8
  157. Codec ID                                 : S_TEXT/UTF8
  158. Codec ID/Info                            : UTF-8 Plain Text
  159. Duration                                 : 2 h 14 min
  160. Bit rate                                 : 59 b/s
  161. Frame rate                               : 0.243 FPS
  162. Count of elements                        : 1964
  163. Stream size                              : 58.8 KiB (0%)
  164. Language                                 : English
  165. Default                                  : No
  166. Forced                                   : No
  167. Text #10
  168. ID                                       : 12
  169. Format                                   : UTF-8
  170. Codec ID                                 : S_TEXT/UTF8
  171. Codec ID/Info                            : UTF-8 Plain Text
  172. Duration                                 : 2 h 14 min
  173. Bit rate                                 : 75 b/s
  174. Frame rate                               : 0.328 FPS
  175. Count of elements                        : 2653
  176. Stream size                              : 74.6 KiB (0%)
  177. Title                                    : SDH
  178. Language                                 : English
  179. Default                                  : No
  180. Forced                                   : No
  181. Text #11
  182. ID                                       : 13
  183. Format                                   : UTF-8
  184. Codec ID                                 : S_TEXT/UTF8
  185. Codec ID/Info                            : UTF-8 Plain Text
  186. Duration                                 : 2 h 14 min
  187. Bit rate                                 : 58 b/s
  188. Frame rate                               : 0.239 FPS
  189. Count of elements                        : 1928
  190. Stream size                              : 57.6 KiB (0%)
  191. Language                                 : English
  192. Default                                  : No
  193. Forced                                   : No
  194. Text #12
  195. ID                                       : 14
  196. Format                                   : UTF-8
  197. Codec ID                                 : S_TEXT/UTF8
  198. Codec ID/Info                            : UTF-8 Plain Text
  199. Duration                                 : 2 h 17 min
  200. Bit rate                                 : 47 b/s
  201. Frame rate                               : 0.206 FPS
  202. Count of elements                        : 1699
  203. Stream size                              : 48.3 KiB (0%)
  204. Language                                 : English
  205. Default                                  : No
  206. Forced                                   : No
  207. Text #13
  208. ID                                       : 15
  209. Format                                   : UTF-8
  210. Codec ID                                 : S_TEXT/UTF8
  211. Codec ID/Info                            : UTF-8 Plain Text
  212. Duration                                 : 2 h 17 min
  213. Bit rate                                 : 45 b/s
  214. Frame rate                               : 0.208 FPS
  215. Count of elements                        : 1724
  216. Stream size                              : 46.1 KiB (0%)
  217. Language                                 : Spanish
  218. Default                                  : No
  219. Forced                                   : No
  220. Text #14
  221. ID                                       : 16
  222. Format                                   : UTF-8
  223. Codec ID                                 : S_TEXT/UTF8
  224. Codec ID/Info                            : UTF-8 Plain Text
  225. Duration                                 : 2 h 17 min
  226. Bit rate                                 : 45 b/s
  227. Frame rate                               : 0.211 FPS
  228. Count of elements                        : 1747
  229. Stream size                              : 46.1 KiB (0%)
  230. Title                                    : European
  231. Language                                 : Spanish
  232. Default                                  : No
  233. Forced                                   : No
  234. Text #15
  235. ID                                       : 17
  236. Format                                   : UTF-8
  237. Codec ID                                 : S_TEXT/UTF8
  238. Codec ID/Info                            : UTF-8 Plain Text
  239. Duration                                 : 2 h 17 min
  240. Bit rate                                 : 45 b/s
  241. Frame rate                               : 0.210 FPS
  242. Count of elements                        : 1737
  243. Stream size                              : 45.6 KiB (0%)
  244. Language                                 : Finnish
  245. Default                                  : No
  246. Forced                                   : No
  247. Text #16
  248. ID                                       : 18
  249. Format                                   : UTF-8
  250. Codec ID                                 : S_TEXT/UTF8
  251. Codec ID/Info                            : UTF-8 Plain Text
  252. Duration                                 : 2 h 17 min
  253. Bit rate                                 : 41 b/s
  254. Frame rate                               : 0.211 FPS
  255. Count of elements                        : 1750
  256. Stream size                              : 41.9 KiB (0%)
  257. Language                                 : fil
  258. Default                                  : No
  259. Forced                                   : No
  260. Text #17
  261. ID                                       : 19
  262. Format                                   : UTF-8
  263. Codec ID                                 : S_TEXT/UTF8
  264. Codec ID/Info                            : UTF-8 Plain Text
  265. Duration                                 : 2 h 17 min
  266. Bit rate                                 : 44 b/s
  267. Frame rate                               : 0.208 FPS
  268. Count of elements                        : 1725
  269. Stream size                              : 44.7 KiB (0%)
  270. Language                                 : French
  271. Default                                  : No
  272. Forced                                   : No
  273. Text #18
  274. ID                                       : 20
  275. Format                                   : UTF-8
  276. Codec ID                                 : S_TEXT/UTF8
  277. Codec ID/Info                            : UTF-8 Plain Text
  278. Duration                                 : 2 h 17 min
  279. Bit rate                                 : 76 b/s
  280. Frame rate                               : 0.221 FPS
  281. Count of elements                        : 1829
  282. Stream size                              : 77.5 KiB (0%)
  283. Language                                 : Hebrew
  284. Default                                  : No
  285. Forced                                   : No
  286. Text #19
  287. ID                                       : 21
  288. Format                                   : UTF-8
  289. Codec ID                                 : S_TEXT/UTF8
  290. Codec ID/Info                            : UTF-8 Plain Text
  291. Duration                                 : 2 h 17 min
  292. Bit rate                                 : 41 b/s
  293. Frame rate                               : 0.212 FPS
  294. Count of elements                        : 1756
  295. Stream size                              : 42.4 KiB (0%)
  296. Language                                 : Croatian
  297. Default                                  : No
  298. Forced                                   : No
  299. Text #20
  300. ID                                       : 22
  301. Format                                   : UTF-8
  302. Codec ID                                 : S_TEXT/UTF8
  303. Codec ID/Info                            : UTF-8 Plain Text
  304. Duration                                 : 2 h 17 min
  305. Bit rate                                 : 51 b/s
  306. Frame rate                               : 0.195 FPS
  307. Count of elements                        : 1612
  308. Stream size                              : 51.7 KiB (0%)
  309. Language                                 : Hungarian
  310. Default                                  : No
  311. Forced                                   : No
  312. Text #21
  313. ID                                       : 23
  314. Format                                   : UTF-8
  315. Codec ID                                 : S_TEXT/UTF8
  316. Codec ID/Info                            : UTF-8 Plain Text
  317. Duration                                 : 2 h 17 min
  318. Bit rate                                 : 49 b/s
  319. Frame rate                               : 0.214 FPS
  320. Count of elements                        : 1775
  321. Stream size                              : 49.7 KiB (0%)
  322. Language                                 : Indonesian
  323. Default                                  : No
  324. Forced                                   : No
  325. Text #22
  326. ID                                       : 24
  327. Format                                   : UTF-8
  328. Codec ID                                 : S_TEXT/UTF8
  329. Codec ID/Info                            : UTF-8 Plain Text
  330. Duration                                 : 2 h 17 min
  331. Bit rate                                 : 45 b/s
  332. Frame rate                               : 0.209 FPS
  333. Count of elements                        : 1732
  334. Stream size                              : 45.7 KiB (0%)
  335. Language                                 : Italian
  336. Default                                  : No
  337. Forced                                   : No
  338. Text #23
  339. ID                                       : 25
  340. Format                                   : UTF-8
  341. Codec ID                                 : S_TEXT/UTF8
  342. Codec ID/Info                            : UTF-8 Plain Text
  343. Duration                                 : 2 h 14 min
  344. Bit rate                                 : 51 b/s
  345. Frame rate                               : 0.214 FPS
  346. Count of elements                        : 1729
  347. Stream size                              : 50.9 KiB (0%)
  348. Language                                 : Japanese
  349. Default                                  : No
  350. Forced                                   : No
  351. Text #24
  352. ID                                       : 26
  353. Format                                   : UTF-8
  354. Codec ID                                 : S_TEXT/UTF8
  355. Codec ID/Info                            : UTF-8 Plain Text
  356. Duration                                 : 2 h 17 min
  357. Bit rate                                 : 42 b/s
  358. Frame rate                               : 0.219 FPS
  359. Count of elements                        : 1811
  360. Stream size                              : 43.0 KiB (0%)
  361. Language                                 : Malay
  362. Default                                  : No
  363. Forced                                   : No
  364. Text #25
  365. ID                                       : 27
  366. Format                                   : UTF-8
  367. Codec ID                                 : S_TEXT/UTF8
  368. Codec ID/Info                            : UTF-8 Plain Text
  369. Duration                                 : 2 h 17 min
  370. Bit rate                                 : 45 b/s
  371. Frame rate                               : 0.207 FPS
  372. Count of elements                        : 1710
  373. Stream size                              : 45.6 KiB (0%)
  374. Language                                 : Norwegian Bokmal
  375. Default                                  : No
  376. Forced                                   : No
  377. Text #26
  378. ID                                       : 28
  379. Format                                   : UTF-8
  380. Codec ID                                 : S_TEXT/UTF8
  381. Codec ID/Info                            : UTF-8 Plain Text
  382. Duration                                 : 2 h 17 min
  383. Bit rate                                 : 43 b/s
  384. Frame rate                               : 0.180 FPS
  385. Count of elements                        : 1492
  386. Stream size                              : 44.3 KiB (0%)
  387. Language                                 : Dutch
  388. Default                                  : No
  389. Forced                                   : No
  390. Text #27
  391. ID                                       : 29
  392. Format                                   : UTF-8
  393. Codec ID                                 : S_TEXT/UTF8
  394. Codec ID/Info                            : UTF-8 Plain Text
  395. Duration                                 : 2 h 17 min
  396. Bit rate                                 : 42 b/s
  397. Frame rate                               : 0.209 FPS
  398. Count of elements                        : 1729
  399. Stream size                              : 43.2 KiB (0%)
  400. Language                                 : Polish
  401. Default                                  : No
  402. Forced                                   : No
  403. Text #28
  404. ID                                       : 30
  405. Format                                   : UTF-8
  406. Codec ID                                 : S_TEXT/UTF8
  407. Codec ID/Info                            : UTF-8 Plain Text
  408. Duration                                 : 2 h 17 min
  409. Bit rate                                 : 41 b/s
  410. Frame rate                               : 0.211 FPS
  411. Count of elements                        : 1745
  412. Stream size                              : 42.3 KiB (0%)
  413. Language                                 : Portuguese
  414. Default                                  : No
  415. Forced                                   : No
  416. Text #29
  417. ID                                       : 31
  418. Format                                   : UTF-8
  419. Codec ID                                 : S_TEXT/UTF8
  420. Codec ID/Info                            : UTF-8 Plain Text
  421. Duration                                 : 2 h 17 min
  422. Bit rate                                 : 48 b/s
  423. Frame rate                               : 0.212 FPS
  424. Count of elements                        : 1750
  425. Stream size                              : 48.6 KiB (0%)
  426. Title                                    : Brazilian
  427. Language                                 : Portuguese
  428. Default                                  : No
  429. Forced                                   : No
  430. Text #30
  431. ID                                       : 32
  432. Format                                   : UTF-8
  433. Codec ID                                 : S_TEXT/UTF8
  434. Codec ID/Info                            : UTF-8 Plain Text
  435. Duration                                 : 2 h 17 min
  436. Bit rate                                 : 52 b/s
  437. Frame rate                               : 0.206 FPS
  438. Count of elements                        : 1708
  439. Stream size                              : 52.7 KiB (0%)
  440. Language                                 : Romanian
  441. Default                                  : No
  442. Forced                                   : No
  443. Text #31
  444. ID                                       : 33
  445. Format                                   : UTF-8
  446. Codec ID                                 : S_TEXT/UTF8
  447. Codec ID/Info                            : UTF-8 Plain Text
  448. Duration                                 : 2 h 17 min
  449. Bit rate                                 : 71 b/s
  450. Frame rate                               : 0.206 FPS
  451. Count of elements                        : 1709
  452. Stream size                              : 72.5 KiB (0%)
  453. Language                                 : Russian
  454. Default                                  : No
  455. Forced                                   : No
  456. Text #32
  457. ID                                       : 34
  458. Format                                   : UTF-8
  459. Codec ID                                 : S_TEXT/UTF8
  460. Codec ID/Info                            : UTF-8 Plain Text
  461. Duration                                 : 2 h 17 min
  462. Bit rate                                 : 50 b/s
  463. Frame rate                               : 0.213 FPS
  464. Count of elements                        : 1762
  465. Stream size                              : 50.9 KiB (0%)
  466. Language                                 : Swedish
  467. Default                                  : No
  468. Forced                                   : No
  469. Text #33
  470. ID                                       : 35
  471. Format                                   : UTF-8
  472. Codec ID                                 : S_TEXT/UTF8
  473. Codec ID/Info                            : UTF-8 Plain Text
  474. Duration                                 : 2 h 17 min
  475. Bit rate                                 : 130 b/s
  476. Frame rate                               : 0.225 FPS
  477. Count of elements                        : 1865
  478. Stream size                              : 132 KiB (0%)
  479. Language                                 : Thai
  480. Default                                  : No
  481. Forced                                   : No
  482. Text #34
  483. ID                                       : 36
  484. Format                                   : UTF-8
  485. Codec ID                                 : S_TEXT/UTF8
  486. Codec ID/Info                            : UTF-8 Plain Text
  487. Duration                                 : 2 h 17 min
  488. Bit rate                                 : 45 b/s
  489. Frame rate                               : 0.211 FPS
  490. Count of elements                        : 1748
  491. Stream size                              : 45.7 KiB (0%)
  492. Language                                 : Turkish
  493. Default                                  : No
  494. Forced                                   : No
  495. Text #35
  496. ID                                       : 37
  497. Format                                   : UTF-8
  498. Codec ID                                 : S_TEXT/UTF8
  499. Codec ID/Info                            : UTF-8 Plain Text
  500. Duration                                 : 2 h 17 min
  501. Bit rate                                 : 66 b/s
  502. Frame rate                               : 0.209 FPS
  503. Count of elements                        : 1726
  504. Stream size                              : 66.8 KiB (0%)
  505. Language                                 : Ukrainian
  506. Default                                  : No
  507. Forced                                   : No
  508. Text #36
  509. ID                                       : 38
  510. Format                                   : UTF-8
  511. Codec ID                                 : S_TEXT/UTF8
  512. Codec ID/Info                            : UTF-8 Plain Text
  513. Duration                                 : 2 h 17 min
  514. Bit rate                                 : 65 b/s
  515. Frame rate                               : 0.210 FPS
  516. Count of elements                        : 1742
  517. Stream size                              : 66.4 KiB (0%)
  518. Language                                 : Vietnamese
  519. Default                                  : No
  520. Forced                                   : No
  521. Text #37
  522. ID                                       : 39
  523. Format                                   : UTF-8
  524. Codec ID                                 : S_TEXT/UTF8
  525. Codec ID/Info                            : UTF-8 Plain Text
  526. Duration                                 : 2 h 17 min
  527. Bit rate                                 : 52 b/s
  528. Frame rate                               : 0.215 FPS
  529. Count of elements                        : 1777
  530. Stream size                              : 52.9 KiB (0%)
  531. Title                                    : Simplified
  532. Language                                 : Chinese
  533. Default                                  : No
  534. Forced                                   : No
  535. Text #38
  536. ID                                       : 40
  537. Format                                   : UTF-8
  538. Codec ID                                 : S_TEXT/UTF8
  539. Codec ID/Info                            : UTF-8 Plain Text
  540. Duration                                 : 2 h 17 min
  541. Bit rate                                 : 50 b/s
  542. Frame rate                               : 0.222 FPS
  543. Count of elements                        : 1836
  544. Stream size                              : 50.6 KiB (0%)
  545. Title                                    : Traditional
  546. Language                                 : Chinese
  547. Default                                  : No
  548. Forced                                   : No
复制代码




                                       
                                       

                                       
                                       
                                       




Seoul.Vibe.2022.KOREAN.2160p.NF.WEB-DL.x265.10bit.SDR.DDP5.1.Atmos-APEX.torrent (16.23 KB, 下载次数: 0)
回复

使用道具 举报

您需要登录后才可以回帖 登录 | 立即注册

本版积分规则

QQ|Archiver|手机版|小黑屋|蓝光电影网

GMT+8, 2022-11-30 11:51 , Processed in 0.054701 second(s), 28 queries .

Powered by Discuz! X3.4

Copyright © 2001-2020, Tencent Cloud.

快速回复 返回顶部 返回列表